osu file format v7

[General]
AudioFilename: Goodbye Heaven.mp3
AudioLeadIn: 1489
PreviewTime: 69318
Countdown: 0
SampleSet: Soft
StackLeniency: 0.7
Mode: 0
LetterboxInBreaks: 1

[Editor]
DistanceSpacing: 1.20000004768372
BeatDivisor: 4
GridSize: 8

[Metadata]
Title:Goodbye Heaven
Artist:Nekomata Master
Creator:alvisto
Version:Standard
Source:Beatmania IIDX 14 Gold
Tags:Konami Benami gdeath

[Difficulty]
HPDrainRate:5
CircleSize:3
OverallDifficulty:3
SliderMultiplier:1.3
SliderTickRate:1

[Events]
//Background and Video events
0,0,"BG.jpg"
//Break Periods
2,50870,55716
//Storyboard Layer 0 (Background)
//Storyboard Layer 1 (Fail)
//Storyboard Layer 2 (Pass)
//Storyboard Layer 3 (Foreground)
//Storyboard Sound Samples
//Background Colour Transformations
3,100,163,162,255

[TimingPoints]
400,540.540540540541,4,2,0,82,1,0
8913,-100,4,2,2,91,0,0
13508,-100,4,2,2,45,0,0
15805,-100,4,2,0,81,0,0
16210,-100,4,2,2,100,0,0
23102,-100,4,2,2,95,0,0
23643,-100,4,2,2,86,0,0
24183,-100,4,2,2,77,0,0
24589,-100,4,2,0,72,0,0
24859,-100,4,2,2,100,0,0
30940,-100,4,2,2,50,0,0
33237,-100,4,2,0,84,0,0
33508,-100,4,1,1,76,0,0
37697,-100,4,2,0,62,0,0
37832,-100,4,1,1,76,0,0
42021,-100,4,2,0,63,0,0
42291,-100,4,1,1,76,0,0
50535,-100,4,2,0,76,0,0
56616,-100,4,2,0,43,0,0
58778,-100,4,2,0,100,0,0
59048,-100,4,1,1,100,0,0
60535,-100,4,1,1,71,0,0
61075,-100,4,1,1,100,0,0
65670,-100,4,1,1,51,0,0
67832,-100,4,1,0,55,0,0
69318,-100,4,1,1,75,0,0
69994,-100,4,2,0,79,0,0
70535,-100,4,1,1,100,0,0
77967,-100,4,2,1,100,0,0
78778,-100,4,2,0,100,0,0
78913,-100,4,1,1,100,0,0
86616,-100,4,2,0,72,0,0
87291,-100,4,2,0,57,0,0
87562,-100,4,2,2,100,0,0
95222,-100,4,2,0,100,0,0
95940,-100,4,1,1,100,0,0
99454,-100,4,1,1,85,0,0
99994,-100,4,1,1,100,0,0
100264,-100,4,2,0,83,0,0
100535,-100,4,1,1,100,0,0
102427,-100,4,2,0,100,0,0

[Colours]
Combo1 : 255,255,255
Combo2 : 255,128,255
Combo3 : 128,128,255

[HitObjects]
72,304,400,1,0
56,224,670,1,0
64,144,940,2,0,B|64:88|40:40,2,97.5,0|2|2
136,184,2021,6,0,B|168:232|232:264,2,97.5,0|2|2
136,104,3102,6,0,B|184:72|248:64,2,97.5,0|2|2
72,152,4183,2,0,B|24:216,2,65,0|0|2
88,72,4994,5,0
160,32,5264,2,0,B|216:40|288:32,2,97.5,0|2|2
160,112,6345,1,0
168,192,6616,5,2
176,272,6886,2,0,B|216:336,1,65,0|2
256,264,7427,2,0,B|256:192,1,65,0|2
336,272,7967,2,0,B|296:336,2,65,0|2|0
432,144,9048,5,0
392,72,9318,1,0
352,144,9589,2,0,B|304:152|240:144,2,97.5,0|8|8
360,224,10670,6,0,B|312:256|240:272,2,97.5,0|8|8
432,264,11751,6,0,B|416:320|384:368,2,97.5,0|8|8
456,192,12832,1,0
448,112,13102,2,0,B|440:80,2,32.5,8|0|8
256,192,13643,12,0,15400
256,64,16075,5,4
272,144,16345,6,0,B|336:144,2,32.5,0|0|8
192,144,16886,1,4
176,296,17427,6,0,B|136:264,2,32.5,0|0|8
232,344,17967,1,4
312,208,18508,6,0,B|304:168,2,32.5,0|0|8
328,288,19048,1,4
184,224,19589,6,0,B|232:208,2,32.5,0|0|8
112,256,20129,1,4
72,104,20670,6,0,B|32:72,2,32.5,0|0|8
128,152,21210,1,4
280,128,21751,6,0,B|277:76,2,32.5,0|0|8
285,201,22291,1,4
288,280,22562,6,0,B|296:328|336:360,1,65,0|8
368,288,23102,2,0,B|392:264|400:224,1,65,0|8
360,168,23643,2,0,B|336:136|328:96,1,65,0|8
392,56,24183,2,0,B|352:32|304:24,1,65,0|8
256,32,24724,5,4
176,48,24994,2,0,B|176:96,2,32.5,0|0|8
96,64,25535,1,4
32,208,26075,6,0,B|32:264,2,32.5,0|0|8
112,224,26616,1,4
248,304,27156,6,0,B|248:360,2,32.5,0|0|8
328,296,27697,1,4
464,216,28237,6,0,B|464:272,2,32.5,0|0|8
384,208,28778,1,4
336,56,29318,6,0,B|336:112,2,32.5,0|0|8
256,48,29859,1,4
176,40,30129,2,0,B|160:104|176:192,1,130,0|8
256,192,31210,12,0,32697
256,72,33372,5,4
104,120,33913,5,2
80,272,34454,2,0,B|136:312|224:328,1,130,4|2
272,304,35264,1,0
344,280,35535,6,0,B|376:216|384:136,1,130,4|2
344,88,36345,1,8
272,56,36616,1,4
192,64,36886,2,0,B|144:64,2,32.5,8|0|10
240,128,37427,2,0,B|240:208,1,65,0|4
264,264,37967,2,0,B|320:264,2,32.5,0|0|2
192,288,38508,5,0
192,288,38778,2,0,B|120:296|40:288,1,130,4|2
40,216,39589,1,8
56,144,39859,2,0,B|96:88|168:56,2,130,4|2|4
120,288,41481,2,0,B|120:368,2,65,2|8|4
272,328,42562,6,0,B|344:328|416:296,1,130,2|4
416,224,43372,2,0,B|416:168,2,32.5,8|0|10
312,104,44183,6,0,B|240:96|160:104,1,130,4|2
112,120,44994,1,0
56,168,45264,1,4
32,240,45535,2,0,B|32:272|32:304,2,32.5,8|0|10
104,232,46075,5,8
104,232,46345,2,0,B|168:224|240:232,1,130,4|2
344,336,47427,2,0,B|392:288|400:216,1,130,4|2
448,160,48237,1,8
392,112,48508,2,0,B|328:80|256:88,1,130,4|2
224,152,49318,2,0,B|184:160|136:152,1,65,8|4
256,224,49994,6,0,B|256:280,1,32.5
256,336,50400,1,0
256,336,50670,1,4
256,192,57156,12,4,58778
112,72,59318,6,0,B|120:144|168:208,1,130,0|8
144,272,60129,1,8
192,336,60400,1,0
264,304,60670,2,0,B|328:304,2,32.5,2|4|2
408,240,61481,6,0,B|400:168|352:104,1,130,0|8
320,56,62292,1,8
248,24,62563,1,0
200,88,62833,2,0,B|136:88,2,32.5,2|4|2
216,240,63643,6,0,B|160:352,2,97.5,0|8|8
296,240,64724,2,0,B|352:352,2,97.5,0|8|8
256,192,65805,12,0,67697
312,40,67967,6,0,B|376:40,2,43.3333333333333
200,40,68688,2,0,B|155:40,2,43.3333333333333
248,184,69589,5,0
200,120,69859,1,0
168,192,70129,2,0,B|112:200|48:192,2,97.5,4|8|8
192,264,71210,6,0,B|248:272|312:264,2,97.5,0|8|8
152,328,72291,6,0,B|96:336|32:328,2,97.5,0|8|8
232,336,73372,1,0
312,344,73643,2,0,B|352:344,2,32.5,8|0|8
336,272,74183,5,0
352,200,74454,2,0,B|344:152|352:96,2,97.5,0|8|8
408,248,75535,1,0
464,192,75805,5,8
440,120,76075,2,0,B|400:40,1,65,0|8
344,24,76616,2,0,B|256:40,1,65,0|8
208,56,77156,2,0,B|160:128,2,65,0|8|0
304,176,78237,5,0
232,216,78508,1,0
152,208,78778,2,0,B|96:216|32:208,2,97.5,4|8|8
112,136,79859,6,0,B|88:88|80:32,2,97.5,0|8|8
184,112,80940,6,0,B|224:88|280:80,2,97.5,0|8|8
224,176,82021,1,0
256,248,82291,2,0,B|256:296,2,32.5,8|0|8
312,192,82832,5,0
328,120,83102,2,0,B|336:64|328:8,2,97.5,0|8|8
384,176,84183,1,0
400,248,84454,5,8
360,312,84724,2,0,B|280:360,1,65,0|8
224,336,85264,2,0,B|264:264,1,65,0|8
320,240,85805,2,0,B|288:168,2,65,0|8|0
160,240,86886,5,4
88,208,87156,1,0
48,144,87427,2,0,B|40:88|48:24,2,97.5,4|8|8
128,136,88508,6,0,B|248:136,2,97.5,0|8|8
72,192,89589,6,0,B|80:248|72:304,2,97.5,0|8|8
136,144,90670,1,0
208,120,90940,2,0,B|208:80,2,32.5,8|0|8
288,128,91481,5,0
360,152,91751,2,0,B|416:160|480:152,2,97.5,0|8|8
304,200,92832,1,0
240,248,93102,5,8
168,272,93372,2,0,B|112:352,1,65,0|8
80,264,93913,2,0,B|24:192,1,65,0|8
128,208,94454,2,0,B|128:120,2,65,0|8|0
272,264,95535,5,0
352,280,95805,1,0
432,296,96075,2,0,B|448:240|432:168,1,97.5,4|2
392,88,96886,1,4
320,64,97156,6,0,B|272:56|208:64,1,97.5,4|2
104,88,97967,1,4
64,152,98237,6,0,B|48:200|64:264,1,97.5,4|2
152,328,99048,1,4
232,312,99318,1,4
312,296,99589,2,0,B|312:240,2,32.5,4|0|4
392,312,100129,5,0
448,256,100400,2,0,B|464:160|448:40,1,195,4|0
376,56,101481,1,4
376,56,101751,1,4
296,56,102021,1,2
296,56,102291,1,2
256,120,102562,1,4
