osu file format v9

[General]
AudioFilename: Nekomata Master - Far east nightbird.mp3
AudioLeadIn: 0
PreviewTime: 85713
Countdown: 0
SampleSet: Normal
StackLeniency: 0.7
Mode: 1
LetterboxInBreaks: 1

[Editor]
Bookmarks: 35046,56379,77713
DistanceSpacing: 1.25
BeatDivisor: 3
GridSize: 8

[Metadata]
Title:Far east nightbird
Artist:Nekomata Master
Creator:tsuka
Version:Taiko
Source:jubeat knit
Tags:Samipale qinche Frank7654321

[Difficulty]
HPDrainRate:7
CircleSize:5
OverallDifficulty:6
ApproachRate:7
SliderMultiplier:1.4
SliderTickRate:1

[Events]
//Background and Video events
0,0,"Far East Nightbird.jpg"
//Break Periods
//Storyboard Layer 0 (Background)
//Storyboard Layer 1 (Fail)
//Storyboard Layer 2 (Pass)
//Storyboard Layer 3 (Foreground)
//Storyboard Sound Samples
//Background Colour Transformations
3,100,163,162,255

[TimingPoints]
380,333.333333333333,4,1,0,100,1,0
87046,-100,4,1,0,100,0,1
108379,-100,4,1,0,100,0,0

[Colours]
Combo1 : 147,255,201
Combo2 : 255,255,181
Combo3 : 255,193,255
Combo4 : 172,172,255

[HitObjects]
96,192,1713,1,4
96,192,2046,1,8
96,192,2546,1,0
96,192,2713,1,8
96,192,3046,1,4
96,192,3379,1,8
96,192,3879,1,0
96,192,4046,1,8
96,192,4379,1,4
96,192,4713,1,8
96,192,5213,1,0
96,192,5379,1,8
96,192,5546,1,8
96,192,5713,1,4
96,192,6046,1,8
96,192,6213,1,0
96,192,6546,1,0
96,192,6713,1,8
96,192,6879,1,8
96,128,7046,5,0
96,128,7379,1,8
96,128,7546,1,0
96,128,7879,1,0
96,128,8046,1,8
96,128,8213,1,0
96,128,8379,1,0
96,128,8713,1,8
96,128,8879,1,0
96,128,9213,1,0
96,128,9379,1,8
96,128,9546,1,0
96,128,9713,1,8
96,128,9796,1,8
96,128,9879,1,8
96,128,10046,1,0
96,128,10213,1,8
96,128,10296,1,8
96,128,10379,1,8
96,128,10546,1,0
96,128,10713,1,8
96,128,10796,1,8
96,128,10879,1,8
96,128,11046,1,0
96,128,11213,1,8
96,128,11296,1,8
96,128,11379,1,8
96,128,11546,1,0
96,128,11713,1,8
96,128,11796,1,8
96,128,11879,1,0
96,128,12046,1,8
96,128,12129,1,8
96,128,12213,1,0
96,128,12296,1,0
96,128,12379,1,8
96,64,13713,5,0
96,64,13963,1,0
96,64,14046,1,8
96,64,14213,1,0
96,64,14379,1,0
96,64,14629,1,0
96,64,14879,1,0
96,64,15213,1,0
96,64,15379,1,8
96,64,15546,1,0
96,64,15629,1,0
96,64,15713,1,0
96,64,15879,1,0
96,64,16046,1,8
96,64,16213,1,8
96,64,16379,1,0
96,64,16629,1,0
96,64,16713,1,8
96,64,16879,1,0
96,64,17046,1,0
96,64,17296,1,0
96,64,17546,1,0
160,64,17879,5,0
160,64,18046,1,8
160,64,18213,1,0
160,64,18296,1,0
160,64,18379,1,8
160,64,18463,1,8
160,64,18546,1,0
160,64,18713,1,0
160,64,19046,1,0
160,64,19213,1,8
160,64,19296,1,8
160,64,19379,1,0
160,64,19546,1,8
160,64,19629,1,8
160,64,19713,1,0
160,64,19963,1,0
160,64,20213,1,0
160,64,20546,1,0
160,64,20713,1,8
160,64,20879,1,0
160,64,20963,1,0
160,64,21046,1,0
160,64,21213,1,0
160,64,21379,1,8
160,64,21546,1,8
160,64,21713,1,0
160,64,21963,1,0
160,64,22046,1,8
160,64,22213,1,0
160,64,22379,1,0
160,64,22629,1,0
160,64,22879,1,0
160,64,23046,5,0
160,64,23213,1,8
160,64,23379,1,0
160,64,23546,1,0
160,64,23602,1,0
160,64,23657,1,0
160,64,23713,1,0
160,64,23879,1,8
160,64,23963,1,8
160,64,24046,1,0
160,64,24213,1,0
160,64,24296,1,0
160,64,24379,1,8
160,64,24602,1,0
160,64,24824,1,0
160,64,25046,1,0
160,64,25129,1,0
160,64,25213,1,0
160,64,25379,1,0
160,64,25546,1,8
160,64,25629,1,8
160,64,25713,1,0
160,64,25963,1,0
160,64,26046,1,8
160,64,26213,1,0
160,64,26379,1,0
160,64,26463,1,0
160,64,26546,1,0
160,64,26713,1,8
160,64,26879,1,8
160,64,27046,1,0
160,64,27129,1,0
160,64,27213,1,8
160,64,27379,1,0
160,64,27546,1,0
160,64,27713,1,0
160,64,27796,1,0
160,64,27879,1,0
160,64,28046,1,0
160,64,28213,1,8
160,64,28296,1,8
224,64,28379,5,0
224,64,28629,1,0
224,64,28713,1,8
224,64,28879,1,0
224,64,28963,1,0
224,64,29046,1,8
224,64,29129,1,8
224,64,29213,1,0
224,64,29379,1,0
224,64,29713,1,0
224,64,29796,1,0
224,64,29879,1,8
224,64,30046,1,0
224,64,30213,1,0
224,64,30379,1,0
224,64,30463,1,0
224,64,30546,1,0
224,64,30713,1,0
224,64,30879,1,8
224,64,30963,1,8
224,64,31046,1,0
224,64,31296,1,0
224,64,31379,1,8
224,64,31546,1,0
224,64,31713,1,0
224,64,31796,1,0
224,64,31879,1,0
224,64,32046,1,8
224,64,32213,1,8
224,64,32379,1,0
224,64,32629,1,0
224,64,32713,1,8
224,64,32879,1,0
224,64,33046,1,0
224,64,33296,1,8
224,64,33546,1,0
288,64,33713,5,0
288,64,33879,1,8
288,64,33963,1,8
288,64,34046,1,0
288,64,34213,1,8
288,64,34379,1,0
288,64,34463,1,8
288,64,34546,1,0
288,64,34713,1,8
288,64,34879,1,8
288,64,34963,1,8
288,64,35046,1,0
288,64,35379,1,8
288,64,35546,1,0
288,64,35879,1,0
288,64,36046,1,8
288,64,36213,1,0
288,64,36296,1,0
288,64,36379,1,0
288,64,36713,1,8
288,64,36879,1,0
288,64,37213,1,0
288,64,37379,1,8
288,64,37546,1,8
288,64,37713,1,0
288,64,38046,1,8
288,64,38213,1,0
288,64,38546,1,0
288,64,38713,1,8
352,64,39046,5,0
352,64,39213,1,0
352,64,39379,1,8
352,64,39713,1,0
352,64,39796,1,0
352,64,39879,1,0
352,64,40046,1,8
352,64,40213,1,0
352,64,40379,1,0
352,64,40713,1,8
352,64,40879,1,0
352,64,41213,1,0
352,64,41379,1,8
352,64,41546,1,0
352,64,41629,1,0
352,64,41713,1,0
352,64,41879,1,0
352,64,42046,1,8
352,64,42379,1,0
352,64,42546,1,0
352,64,42713,1,8
352,64,42879,1,0
352,64,42963,1,0
352,64,43046,1,0
352,64,43379,1,8
352,64,43546,1,0
352,64,43879,1,0
352,64,44046,1,8
352,64,44213,1,0
352,64,44296,1,0
416,64,44379,5,0
416,64,44546,1,0
416,64,44713,1,8
416,64,44879,1,8
416,64,44963,1,8
416,64,45046,1,8
416,64,45213,1,0
416,64,45379,1,8
416,64,45463,1,8
416,64,45546,1,0
416,64,45629,1,0
416,64,45713,1,8
416,64,46046,1,8
416,64,46213,1,0
416,64,46546,1,0
416,64,46713,1,8
416,64,46879,1,8
416,64,46963,1,8
416,64,47046,1,0
416,64,47379,1,8
416,64,47546,1,0
416,64,47879,1,0
416,64,48046,1,8
416,64,48213,1,8
416,64,48379,1,0
416,64,48713,1,8
416,64,48879,1,0
416,64,49213,1,0
416,64,49379,1,8
416,64,49713,1,8
416,64,49879,1,8
416,64,50046,1,0
416,64,50379,1,8
416,64,50463,1,8
416,64,50546,1,8
416,64,50713,1,0
416,64,50879,1,8
416,64,50963,1,8
416,64,51046,1,0
416,64,51379,1,8
416,64,51546,1,0
416,64,51879,1,0
416,64,52046,1,8
416,64,52213,1,8
416,64,52379,1,0
416,64,52713,1,8
416,64,52879,1,0
416,64,53213,1,0
416,64,53379,1,8
416,64,53546,1,0
416,64,53629,1,0
416,64,53713,1,0
416,64,54046,1,8
416,64,54213,1,0
416,64,54546,1,0
416,64,54713,1,8
416,64,54879,1,0
416,64,54963,1,0
352,64,55046,5,0
352,64,55213,1,0
352,64,55379,1,8
352,64,55546,1,0
352,64,55629,1,0
352,64,55713,1,8
352,64,55879,1,0
352,64,56046,1,0
352,64,56129,1,0
352,64,56213,1,8
352,64,56296,1,8
352,64,56379,1,0
352,64,56546,1,0
352,64,56713,1,8
352,64,56796,1,8
352,64,56879,1,0
352,64,57046,1,8
352,64,57213,1,0
352,64,57379,1,8
352,64,57463,1,8
352,64,57546,1,0
352,64,57629,1,8
352,64,57713,1,0
352,64,57879,1,0
352,64,58046,1,8
352,64,58129,1,8
352,64,58213,1,0
352,64,58379,1,0
352,64,58546,1,0
352,64,58629,1,0
352,64,58713,1,8
352,64,58796,1,8
352,64,58879,1,0
352,64,59046,1,0
352,64,59213,1,0
352,64,59379,1,8
352,64,59463,1,8
352,64,59546,1,0
352,64,59713,1,8
352,64,59879,1,0
352,64,60046,1,8
352,64,60129,1,8
352,64,60213,1,0
352,64,60296,1,0
288,64,60379,5,0
288,64,60546,1,0
288,64,60713,1,8
288,64,60879,1,8
288,64,60963,1,8
288,64,61046,1,0
288,64,61213,1,8
288,64,61379,1,8
288,64,61463,1,8
288,64,61546,1,8
288,64,61629,1,8
288,64,61713,1,0
288,64,61879,1,0
288,64,62046,1,8
288,64,62129,1,8
288,64,62213,1,0
288,64,62379,1,8
288,64,62546,1,0
288,64,62713,1,8
288,64,62796,1,8
288,64,62879,1,0
288,64,62963,1,8
288,64,63046,1,0
288,64,63213,1,0
288,64,63379,1,8
288,64,63463,1,8
288,64,63546,1,0
288,64,63713,1,0
288,64,63879,1,0
288,64,63963,1,0
288,64,64046,1,8
288,64,64129,1,0
288,64,64213,1,0
288,64,64379,1,0
288,64,64546,1,0
288,64,64713,1,8
288,64,64796,1,8
288,64,64879,1,0
288,64,65046,1,8
288,64,65213,1,0
288,64,65379,1,8
288,64,65463,1,8
288,64,65546,1,0
288,64,65629,1,0
232,64,65713,5,0
232,64,65879,1,0
232,64,66046,1,8
232,64,66129,1,8
232,64,66213,1,0
232,64,66296,1,8
232,64,66379,1,0
232,64,66546,1,0
232,64,66629,1,0
232,64,66713,1,8
232,64,66796,1,8
232,64,66879,1,8
232,64,66963,1,8
232,64,67046,1,0
232,64,67213,1,0
232,64,67296,1,8
232,64,67379,1,8
232,64,67463,1,8
232,64,67546,1,0
232,64,67713,1,0
232,64,67796,1,8
232,64,67879,1,8
232,64,67963,1,8
232,64,68046,1,0
232,64,68213,1,0
232,64,68296,1,8
232,64,68379,1,0
232,64,68546,1,0
232,64,68713,1,8
232,64,68879,1,0
232,64,68963,1,0
232,64,69046,1,0
232,64,69213,1,8
232,64,69379,1,8
232,64,69463,1,8
232,64,69546,1,0
232,64,69629,1,8
232,64,69713,1,0
232,64,69879,1,8
232,64,69963,1,0
232,64,70129,1,8
232,64,70213,1,0
232,64,70379,1,0
232,64,70463,1,8
232,64,70546,1,8
232,64,70629,1,8
232,64,70713,1,0
232,64,70879,1,0
232,64,70963,1,8
184,64,71046,5,8
184,64,71129,1,8
184,64,71213,1,0
184,64,71379,1,0
184,64,71463,1,8
184,64,71546,1,8
184,64,71629,1,8
184,64,71713,1,0
184,64,71879,1,8
184,64,71963,1,8
184,64,72046,1,0
184,64,72213,1,8
184,64,72379,1,0
184,64,72546,1,0
184,64,72629,1,8
184,64,72713,1,8
184,64,72796,1,8
184,64,72879,1,0
184,64,73046,1,0
184,64,73129,1,8
184,64,73213,1,8
184,64,73296,1,8
184,64,73379,1,0
184,64,73546,1,0
184,64,73629,1,8
184,64,73713,1,0
184,64,73879,1,0
184,64,74046,1,8
184,64,74213,1,0
184,64,74296,1,0
184,64,74379,1,0
184,64,74546,1,8
184,64,74713,1,8
184,64,74796,1,8
184,64,74879,1,0
184,64,74963,1,8
184,64,75046,1,0
184,64,75213,1,8
184,64,75296,1,0
184,64,75463,1,8
184,64,75546,1,0
184,64,75713,1,0
184,64,75796,1,8
184,64,75879,1,8
184,64,75963,1,8
184,64,76046,1,0
184,64,76213,1,0
184,64,76296,1,8
184,64,76379,1,0
184,64,76546,1,0
184,64,76713,1,8
184,64,76879,1,0
184,64,76963,1,8
184,64,77046,1,0
184,64,77213,1,8
184,64,77379,1,8
184,64,77463,1,8
184,64,77546,1,0
184,64,77629,1,8
184,64,77713,1,0
248,64,77935,5,0
248,64,78157,1,8
248,64,78379,1,0
248,64,78602,1,0
248,64,78824,1,8
248,64,79046,1,0
248,64,79268,1,8
248,64,79491,1,8
248,64,79713,1,0
248,64,79935,1,8
248,64,80046,1,8
248,64,80157,1,0
248,64,80268,1,0
248,64,80379,1,0
248,64,80602,1,0
248,64,80824,1,8
248,64,81046,1,0
248,64,81268,1,0
248,64,81491,1,8
248,64,81713,1,0
248,64,81935,1,8
248,64,82157,1,8
248,64,82379,1,0
248,64,82602,1,8
248,64,82713,1,8
248,64,82824,1,0
248,64,82935,1,0
248,64,83046,1,0
248,64,83268,1,0
248,64,83379,1,0
248,64,83491,1,8
248,64,83713,1,0
248,64,83935,1,0
248,64,84046,1,0
248,64,84157,1,8
248,64,84379,1,0
248,64,84602,1,8
248,64,84713,1,8
248,64,84824,1,8
248,64,85046,1,0
248,64,85268,1,8
248,64,85379,1,8
248,64,85491,1,0
248,64,85602,1,0
248,64,85713,1,8
248,64,87046,5,8
248,64,87213,1,8
248,64,87296,1,8
248,64,87379,1,0
248,64,87546,1,8
248,64,87713,1,8
248,64,87768,1,8
248,64,87824,1,8
248,64,87879,1,0
248,64,88046,1,0
248,64,88379,1,0
248,64,88463,1,0
248,64,88546,1,0
248,64,88713,1,8
248,64,88879,1,0
248,64,88963,1,0
248,64,89046,1,8
248,64,89213,1,8
248,64,89296,1,8
248,64,89379,1,0
248,64,89463,1,8
248,64,89546,1,0
248,64,89713,1,8
248,64,89879,1,8
248,64,89963,1,8
248,64,90046,1,0
248,64,90213,1,8
248,64,90379,1,0
248,64,90435,1,8
248,64,90491,1,8
248,64,90546,1,8
248,64,90713,1,0
248,64,91046,1,0
248,64,91213,1,0
248,64,91296,1,0
248,64,91379,1,8
248,64,91546,1,0
248,64,91629,1,0
248,64,91713,1,8
248,64,91879,1,0
248,64,91963,1,0
248,64,92046,1,0
248,64,92129,1,8
248,64,92213,1,8
248,64,92379,5,0
248,64,92546,1,8
248,64,92629,1,8
248,64,92713,1,8
248,64,92879,1,0
248,64,93046,1,8
248,64,93129,1,8
248,64,93213,1,8
248,64,93379,1,0
248,64,93713,1,0
248,64,93796,1,0
248,64,93879,1,0
248,64,94046,1,8
248,64,94213,1,0
248,64,94296,1,0
248,64,94379,1,8
248,64,94546,1,8
248,64,94629,1,8
248,64,94713,1,0
248,64,94796,1,8
248,64,94879,1,8
248,64,95046,1,8
248,64,95213,1,0
248,64,95379,1,8
248,64,95435,1,8
248,64,95491,1,8
248,64,95546,1,8
248,64,95713,1,0
248,64,95879,1,0
248,64,96046,1,8
248,64,96213,1,0
248,64,96379,1,8
248,64,96435,1,8
248,64,96491,1,8
248,64,96546,1,8
208,80,96713,1,0
208,80,96879,1,0
208,80,97046,1,8
208,80,97129,1,8
208,80,97213,1,0
208,80,97379,1,8
208,80,97546,1,0
208,80,97713,5,8
208,80,97879,1,8
208,80,97963,1,8
208,80,98046,1,0
208,80,98213,1,8
208,80,98379,1,8
208,80,98435,1,8
208,80,98491,1,8
208,80,98546,1,0
208,80,98713,1,0
208,80,98879,1,8
272,80,99046,1,0
272,80,99129,1,0
272,80,99213,1,0
272,80,99379,1,8
272,80,99546,1,0
272,80,99629,1,0
272,80,99713,1,8
272,80,99879,1,8
272,80,99963,1,8
272,80,100046,1,0
272,80,100129,1,0
272,80,100213,1,0
272,80,100379,1,8
272,80,100546,1,8
272,80,100629,1,8
272,80,100713,1,0
272,80,100879,1,8
272,80,101046,1,0
272,80,101102,1,8
272,80,101157,1,8
272,80,101213,1,8
272,80,101379,1,0
272,80,101546,1,8
272,80,101713,1,0
272,80,101879,1,0
272,80,101963,1,0
272,80,102046,1,8
272,80,102213,1,0
272,80,102296,1,0
272,80,102379,1,8
272,80,102546,1,0
272,80,102629,1,0
272,80,102713,1,0
272,80,102796,1,8
272,80,102879,1,8
336,80,103046,5,0
336,80,103129,1,8
336,80,103213,1,8
336,80,103296,1,8
336,80,103379,1,8
336,80,103546,1,0
336,80,103629,1,8
336,80,103713,1,8
336,80,103796,1,8
336,80,103879,1,8
336,80,104046,1,0
336,80,104546,1,0
336,80,104713,1,8
336,80,104879,1,0
336,80,104963,1,0
336,80,105046,1,8
336,80,105213,1,8
336,80,105296,1,8
336,80,105379,1,0
336,80,105463,1,8
336,80,105546,1,8
336,80,105713,1,8
336,80,105879,1,0
336,80,106046,1,8
336,80,106102,1,8
336,80,106157,1,8
336,80,106213,1,8
336,80,106379,1,0
336,80,106546,1,0
336,80,106713,1,8
336,80,106879,1,0
336,80,107046,1,8
336,80,107102,1,8
336,80,107157,1,8
336,80,107213,1,8
336,80,107379,1,8
336,80,107546,1,0
336,80,107713,1,8
336,80,107796,1,8
336,80,107879,5,0
336,80,107963,1,0
336,80,108046,1,8
336,80,108213,1,8
336,80,108379,1,0
336,80,108602,1,0
336,80,108824,1,8
336,80,109046,1,0
336,80,109268,1,0
336,80,109491,1,8
336,80,109713,1,0
336,80,109935,1,8
336,80,110157,1,8
336,80,110379,1,0
336,80,110602,1,8
336,80,110713,1,8
336,80,110824,1,8
336,80,110935,1,8
336,80,111046,1,4
336,80,111546,1,4
336,80,112046,1,4
