osu file format v9

[General]
AudioFilename: Nekomata Master - Far east nightbird.mp3
AudioLeadIn: 0
PreviewTime: 85713
Countdown: 0
SampleSet: Normal
StackLeniency: 0.7
Mode: 0
LetterboxInBreaks: 1

[Editor]
Bookmarks: 35046,56379,77713
DistanceSpacing: 1.25
BeatDivisor: 4
GridSize: 8

[Metadata]
Title:Far east nightbird
Artist:Nekomata Master
Creator:tsuka
Version:Extreme
Source:jubeat knit
Tags:Samipale qinche Frank7654321

[Difficulty]
HPDrainRate:7
CircleSize:5
OverallDifficulty:8
ApproachRate:9
SliderMultiplier:1.7
SliderTickRate:1

[Events]
//Background and Video events
0,0,"Far East Nightbird.jpg"
//Break Periods
//Storyboard Layer 0 (Background)
//Storyboard Layer 1 (Fail)
//Storyboard Layer 2 (Pass)
//Storyboard Layer 3 (Foreground)
//Storyboard Sound Samples
//Background Colour Transformations
3,100,163,162,255

[TimingPoints]
380,333.333333333333,4,1,0,80,1,0
1213,-100,4,2,0,80,0,0
1629,-100,4,1,0,80,0,0
6629,-100,4,1,0,70,0,0
7963,-100,4,1,0,60,0,0
8296,-100,4,1,0,50,0,0
9629,-100,4,1,0,20,0,0
11713,-100,4,1,0,30,0,0
12379,-100,4,1,0,100,0,0
12963,-100,4,2,0,80,0,0
13713,-100,4,1,0,70,0,0
14963,-133.333333333333,4,1,0,70,0,0
15629,-100,4,1,0,70,0,0
17629,-133.333333333333,4,1,0,70,0,0
18129,-100,4,1,0,70,0,0
19129,-66.6666666666667,4,1,0,70,0,0
19879,-100,4,1,0,70,0,0
23796,-100,4,2,0,80,0,0
24379,-100,4,1,0,70,0,0
24991,-100,4,2,0,60,0,0
25157,-100,4,1,0,70,0,0
27629,-100,4,2,0,60,0,0
27879,-100,4,1,0,70,0,0
34296,-100,4,2,0,80,0,0
35046,-200,4,2,0,80,0,0
35379,-200,4,1,0,70,0,0
36296,-133.333333333333,4,1,0,70,0,0
37629,-100,4,1,0,70,0,0
38963,-200,4,2,0,80,0,0
40129,-100,4,1,0,70,0,0
44713,-100,4,2,0,80,0,0
46046,-100,4,1,0,70,0,0
49629,-100,4,2,0,80,0,0
49796,-100,4,1,0,70,0,0
49963,-100,4,2,0,80,0,0
50213,-100,4,1,0,70,0,0
50296,-100,4,2,0,80,0,0
50879,-100,4,1,0,70,0,0
56546,-100,4,2,0,80,0,0
56963,-100,4,1,0,70,0,0
57129,-100,4,2,0,80,0,0
57629,-100,4,1,0,70,0,0
57963,-100,4,2,0,80,0,0
58296,-100,4,1,0,70,0,0
58546,-100,4,2,0,80,0,0
58629,-100,4,1,1,40,0,0
59046,-100,4,1,0,70,0,0
59213,-100,4,2,0,80,0,0
59296,-100,4,1,0,70,0,0
59546,-100,4,2,0,80,0,0
59629,-100,4,1,0,70,0,0
59963,-100,4,2,0,80,0,0
60296,-100,4,1,0,70,0,0
60629,-100,4,2,0,80,0,0
60963,-100,4,1,0,70,0,0
61213,-100,4,2,0,80,0,0
61296,-100,4,1,1,40,0,0
61713,-100,4,1,0,70,0,0
61879,-100,4,2,0,80,0,0
62296,-100,4,1,0,70,0,0
62463,-100,4,2,0,80,0,0
62963,-100,4,1,0,70,0,0
63296,-100,4,2,0,80,0,0
63629,-100,4,1,0,70,0,0
63879,-100,4,2,0,80,0,0
63963,-100,4,1,1,40,0,0
64379,-100,4,1,0,70,0,0
64546,-100,4,2,0,80,0,0
64963,-100,4,1,0,70,0,0
65129,-100,4,2,0,80,0,0
65629,-100,4,1,0,70,0,0
65963,-100,4,2,0,80,0,0
66296,-100,4,1,0,70,0,0
66546,-100,4,2,0,80,0,0
66629,-100,4,1,1,40,0,0
67046,-100,4,1,0,70,0,0
67129,-100,4,2,0,80,0,0
67629,-100,4,1,0,70,0,0
67796,-100,4,2,0,80,0,0
68379,-100,4,1,0,70,0,0
68463,-100,4,2,0,80,0,0
68546,-100,4,1,0,70,0,0
68629,-100,4,2,0,80,0,0
69046,-100,4,1,0,70,0,0
69129,-200,4,2,0,80,0,0
69713,-100,4,1,0,70,0,0
69963,-200,4,2,0,80,0,0
70379,-100,4,1,0,70,0,0
70463,-200,4,2,0,80,0,0
70546,-100,4,1,0,70,0,0
70629,-100,4,2,0,80,0,0
71046,-100,4,1,0,70,0,0
71129,-100,4,2,0,80,0,0
71213,-100,4,1,0,70,0,0
71296,-100,4,2,0,80,0,0
71796,-200,4,2,0,80,0,0
72379,-100,4,1,0,70,0,0
72463,-200,4,2,0,80,0,0
75046,-100,4,1,0,70,0,0
75296,-200,4,2,0,80,0,0
75546,-100,4,2,0,70,0,0
78046,-100,4,1,0,40,0,0
86629,-100,4,2,0,70,0,0
87046,-100,4,2,0,70,0,1
88379,-100,4,1,0,70,0,1
88629,-100,4,2,0,70,0,1
90879,-100,4,1,0,70,0,1
91213,-100,4,2,0,70,0,1
93629,-100,4,1,0,70,0,1
93879,-100,4,2,0,70,0,1
99046,-100,4,1,0,70,0,1
99296,-100,4,2,0,70,0,1
103046,-100,4,1,0,50,0,1
104463,-100,4,1,0,70,0,1
104629,-100,4,2,0,70,0,1
108379,-100,4,2,0,70,0,0
108602,-100,4,1,0,50,0,0
110713,-100,4,1,0,70,0,0
111935,-100,4,1,0,50,0,0

[Colours]
Combo1 : 147,255,201
Combo2 : 255,255,181
Combo3 : 255,193,255
Combo4 : 172,172,255

[HitObjects]
64,264,1379,1,0
72,192,1546,1,0
56,344,1713,5,0
232,312,2046,1,0
144,304,2213,2,0,B|128:256|128:256|232:312,1,170
248,168,2713,5,0
256,240,2880,1,0
240,88,3047,5,0
416,120,3380,1,0
328,128,3547,2,0,B|312:176|312:176|416:120,1,170
360,272,4046,5,0
352,344,4213,1,0
368,192,4380,5,0
192,224,4713,1,0
280,232,4880,2,0,B|296:280|296:280|192:224,1,170
104,192,5379,1,0
104,192,5546,1,0
152,112,5713,5,0
128,8,5879,1,0
152,112,6046,1,0
208,56,6213,2,0,B|240:72|240:72|328:48,1,127.5
328,47,6546,1,0
408,48,6713,5,0
368,144,6879,1,0
432,120,7046,5,0
336,224,7379,1,0
336,224,7546,1,0
184,160,7879,1,0
96,104,8046,5,0
128,208,8213,1,0
184,160,8379,5,0
160,304,8713,1,0
160,304,8879,1,0
296,256,9213,1,0
360,208,9379,5,0
344,296,9546,1,0
304,120,9713,5,0
288,118,9796,1,0
272,117,9879,1,0
256,116,9963,1,0
240,114,10046,2,0,B|264:152,1,42.5,0|0
328,248,10213,5,0
330,232,10296,1,0
331,216,10379,1,0
332,200,10463,1,0
334,184,10546,2,0,B|296:208,1,42.5,0|0
216,280,10713,5,0
232,282,10796,1,0
248,283,10879,1,0
264,284,10963,1,0
280,286,11046,2,0,B|256:248,1,42.5,0|0
182,160,11213,5,0
180,176,11296,1,0
179,192,11379,1,0
178,208,11463,1,0
176,224,11546,2,0,B|214:200,1,42.5,0|0
256,184,11713,5,0
248,200,11796,1,0
253,215,11879,1,0
256,232,11963,1,0
251,247,12046,1,0
240,264,12129,1,0
248,279,12213,1,0
256,296,12296,1,0
245,311,12379,5,0
96,104,12629,1,0
416,104,12879,1,0
240,24,13046,6,2,B|256:64,3,42.5
248,80,13379,5,0
240,96,13463,1,0
248,112,13546,1,2
256,128,13629,1,0
264,144,13713,2,0,B|264:208|264:208|240:232|240:232|240:304,1,170
304,360,14213,1,0
368,304,14379,2,0,B|368:216,1,85
368,304,14713,1,0
440,360,14879,1,0
512,304,15046,6,0,B|536:256|488:232|512:176,1,127.499996200204
512,104,15546,1,0
456,48,15713,6,0,B|368:48,1,85
280,48,16046,2,0,B|232:48|232:48|192:112|192:112|240:112,1,170
328,112,16546,1,0
416,112,16713,1,0
368,184,16879,1,0
280,184,17046,2,0,B|232:256,1,85
368,184,17379,1,0
280,184,17546,1,0
299,291,17713,6,0,B|368:184,1,127.499996200204
416,112,18213,1,0
456,184,18379,2,0,B|472:224|472:224|488:184,2,85
352,144,18879,2,0,B|304:152,1,42.5,0|0
248,160,19046,1,0
96,168,19213,6,2,B|144:256|184:168,1,127.499996200204,0|0
248,160,19546,2,2,B|296:72|336:160,1,127.499996200204,0|0
336,248,19879,5,0
256,280,20046,2,0,B|160:280,1,85
88,320,20379,2,0,B|40:352|40:352|80:240,1,170
104,168,20879,1,0
184,192,21046,6,0,B|272:192,1,85
360,192,21379,2,0,B|408:192|408:192|448:128|448:128|400:128,2,170
304,128,22213,5,0
280,216,22379,1,0
232,136,22546,1,0
208,224,22712,1,0
160,144,22879,1,0
136,232,23045,1,0
88,152,23213,1,0
64,240,23379,6,0,B|96:236|96:236|128:192,1,85
160,184,23602,2,0,B|208:184,1,28.3333333333333
208,136,23713,6,0,B|250:108,1,42.5
256,160,23879,2,0,B|300:154,1,42.5,2|0
272,200,24046,2,0,B|313:212,1,42.5
264,248,24213,2,0,B|290:278,1,42.5,2|0
352,264,24379,6,0,B|384:288|384:288|368:360,2,113.333333333333
176,320,25046,1,2
184,320,25129,1,2
192,320,25213,1,0
272,352,25379,1,0
352,320,25546,1,4
440,352,25713,5,0
512,192,26046,1,0
440,32,26379,1,0
512,192,26713,1,0
336,192,27046,5,0
256,152,27213,1,0
176,192,27379,1,0
256,352,27713,1,2
256,352,27796,1,2
256,264,27963,5,0
128,304,28213,1,0
56,328,28379,1,0
256,264,28713,1,0
96,192,29046,5,0
8,192,29213,1,0
96,192,29379,1,0
336,72,29629,5,0
328,80,29713,1,0
320,88,29796,1,0
256,152,29963,1,0
136,88,30213,1,4
32,232,30546,5,0
112,192,30713,1,0
192,232,30879,1,0
272,192,31046,2,0,B|328:192|328:192|368:224|368:224|432:224,1,170
32,352,31713,5,0
96,296,31879,1,0
32,232,32046,1,0
32,32,32379,5,0
256,112,32713,1,0
480,32,33046,1,0
408,176,33296,1,0
256,112,33546,1,0
216,240,33713,5,0
328,160,33879,1,0
296,240,34046,1,0
184,160,34213,1,0
48,48,34379,5,0
64,32,34463,1,0
88,24,34546,1,2
112,32,34629,1,0
128,48,34713,1,0
148,60,34796,1,0
172,72,34879,1,2
196,64,34962,1,0
212,44,35046,6,0,B|240:32|256:48|272:64|296:48,1,85,4|0
460,100,35546,5,0
428,44,35713,1,0
396,96,35879,1,0
364,44,36046,1,0
332,100,36213,1,0
504,256,36379,6,0,B|472:240|444:256|416:272|376:256,1,127.499996200204,4|0
176,192,36879,5,0
216,256,37046,1,0
256,204,37212,1,0
296,256,37379,1,0
336,192,37546,1,0
32,280,37713,6,0,B|80:256|120:280|160:304|208:280,1,170,4|0
352,360,38213,5,0
304,280,38380,1,0
256,344,38546,1,0
208,280,38713,1,0
168,360,38880,1,0
256,344,39046,5,2
256,336,39379,1,2
256,328,39713,5,2
256,240,39879,1,0
256,152,40046,1,0
320,120,40213,5,0
320,120,40379,2,0,B|328:96|328:96|384:80,1,85
368,192,40713,2,0,B|385:173|385:173|442:182,1,85
320,256,41046,2,0,B|344:344,2,85
192,256,41546,5,0
192,256,41629,1,0
192,256,41713,2,0,B|168:344,1,85
144,192,42046,2,0,B|127:173|127:173|68:182,1,85
192,120,42380,2,0,B|184:96|184:96|126:79,1,85
256,192,42713,1,0
376,304,43046,6,0,B|376:380|476:380|476:304,1,170
472,216,43546,1,0
384,232,43713,2,0,B|304:256,1,85
400,136,44046,2,0,B|387:232,1,85
456,288,44379,2,0,B|379:224,1,85
207,223,44879,5,0
207,215,44935,1,0
207,208,44991,1,0
207,199,45046,1,2
304,160,45213,5,0
304,168,45269,1,0
304,175,45325,1,0
304,184,45380,1,2
40,72,45713,6,0,B|64:40|64:40|192:40,1,170,4|0
264,40,46213,1,0
312,88,46379,1,0
240,104,46546,1,0
288,152,46712,1,0
216,168,46879,1,0
264,216,47046,6,0,B|288:304|288:304|304:264|304:264|344:264,1,170
424,264,47546,1,0
504,264,47713,1,0
480,336,47879,1,0
400,336,48046,1,0
424,264,48213,1,0
504,264,48379,6,0,B|520:224|520:224|496:128|496:128|480:160,1,170
400,192,48879,1,0
320,152,49046,1,0
240,192,49213,1,0
160,152,49379,1,0
80,192,49546,1,0
0,152,49713,5,2
0,152,49879,1,0
48,80,50046,2,0,B|96:88|88:144,1,85,2|0
72,232,50379,2,2,B|56:336,1,85
0,376,50713,1,2
448,352,51046,6,0,B|391:340|408:289,1,85
432,208,51379,2,0,B|488:219|471:270,1,85
448,352,51713,2,0,B|344:352,1,85
288,304,52046,2,0,B|192:304,1,85
144,240,52379,6,0,B|136:144,1,85
160,256,52713,2,0,B|167:341,1,85
40,144,53046,2,0,B|72:104|128:136,1,85
256,352,53379,2,0,B|224:392|168:360,1,85
176,168,53713,6,0,B|240:176|240:176|224:112|224:112|256:80,1,170
352,56,54213,1,0
456,88,54379,1,0
392,176,54546,1,0
472,296,54713,1,0
336,360,54879,1,0
472,296,55046,1,0
256,192,55213,12,0,56046
128,136,56379,6,0,B|128:40,1,85,0|2
384,136,56713,2,0,B|384:40,1,85,0|2
128,192,57046,5,0
384,192,57213,1,2
256,216,57379,6,0,B|256:120,1,85,0|2
512,216,57713,2,0,B|512:120,1,85,0|0
128,288,58046,6,0,B|128:192,1,85,0|2
384,288,58380,2,0,B|384:192,1,85,0|2
224,136,58713,5,8
200,144,58796,1,8
176,136,58879,1,8
152,144,58963,1,8
128,136,59046,6,0,B|128:40,1,85,0|2
384,136,59380,2,0,B|384:40,1,85,0|2
200,192,59713,5,0
320,192,59880,1,0
0,256,60046,6,0,B|0:352,1,85,0|2
256,256,60380,2,0,B|256:352,1,85,0|0
128,64,60713,6,0,B|128:160,1,85,0|2
384,64,61047,2,0,B|384:160,1,85,0|2
416,352,61380,5,8
440,360,61463,1,8
464,352,61546,1,8
488,360,61630,1,8
512,352,61713,6,0,B|512:256,1,85,0|2
256,352,62047,2,0,B|256:256,1,85,0|2
384,192,62379,5,0
128,192,62546,1,2
256,216,62712,6,0,B|256:120,1,85,0|2
512,216,63046,2,0,B|512:120,1,85
128,288,63379,6,0,B|128:192,1,85,0|2
384,288,63713,2,0,B|384:192,1,85,0|2
216,152,64046,5,8
192,152,64129,1,8
168,152,64212,1,8
144,152,64296,1,8
128,136,64379,6,0,B|128:40,1,85,0|2
384,136,64713,2,0,B|384:40,1,85,0|2
184,192,65046,5,0
328,192,65213,1,2
256,168,65379,6,0,B|256:264,1,85,0|2
512,168,65713,2,0,B|512:264,1,85
0,352,66046,6,0,B|0:256,1,85,0|2
256,352,66380,2,0,B|256:256,1,85,0|2
216,152,66713,5,8
192,160,66796,1,8
176,184,66879,1,8
192,208,66963,1,8
216,216,67046,1,0
320,48,67213,5,0
256,48,67296,1,0
192,48,67380,1,2
128,48,67463,1,0
64,48,67546,1,0
104,144,67713,5,0
168,144,67796,1,0
232,144,67879,1,2
296,144,67963,1,0
360,144,68046,1,0
304,240,68213,5,0
240,240,68296,1,0
176,240,68380,1,0
112,240,68463,1,0
48,240,68546,1,0
88,336,68713,5,0
152,336,68796,1,0
216,336,68879,1,2
280,336,68963,1,0
344,336,69046,1,0
440,288,69213,6,0,B|472:280|472:280|440:192,1,127.5,2|0
439,191,69879,1,0
439,191,70046,1,2
192,280,70379,5,0
133,306,70463,1,0
75,334,70546,2,0,B|24:357,2,42.5,0|0|0
320,280,70879,5,0
379,306,70963,1,0
437,334,71046,2,0,B|487:357,2,42.5,0|0|0
256,192,71379,5,0
256,127,71463,1,0
256,63,71546,2,0,B|256:7,2,42.5,2|0|0
256,192,71879,5,2
256,192,72046,2,0,B|256:289,1,85
192,336,72546,5,0
256,336,72629,1,0
320,336,72713,1,2
384,336,72796,1,0
448,336,72879,1,0
408,240,73046,5,0
344,240,73129,1,0
280,240,73212,1,2
216,240,73296,1,0
152,240,73379,1,0
208,144,73546,5,0
272,144,73629,1,0
336,144,73713,1,2
400,144,73796,1,0
464,144,73879,1,0
424,48,74046,5,0
360,48,74129,1,0
296,48,74212,1,2
232,48,74296,1,0
168,48,74379,1,0
96,176,74546,6,0,B|64:168|64:168|96:80,1,127.5,2|0
97,79,75212,1,0
97,79,75379,1,0
416,224,75713,5,0
390,165,75797,1,0
362,107,75880,2,0,B|338:56,2,42.5,2|0|0
96,224,76213,5,0
122,165,76297,1,0
150,107,76380,2,0,B|173:56,2,42.5,2|0|0
256,352,76712,5,0
257,287,76796,1,0
256,223,76879,2,0,B|256:167,2,42.5,2|0|0
200,256,77213,5,2
312,256,77379,1,2
256,352,77713,5,4
64,32,78157,5,0
64,160,78379,1,0
192,160,78602,1,0
192,32,78824,1,0
320,32,79046,1,0
320,160,79268,1,0
448,160,79491,1,0
448,32,79713,1,0
320,160,79935,1,0
256,128,80046,6,0,B|256:72,3,42.5
256,128,80379,1,0
400,176,80602,5,0
400,272,80824,1,0
304,272,81047,1,0
304,176,81269,1,0
208,152,81491,1,0
208,248,81713,1,0
112,248,81936,1,0
112,152,82158,1,0
112,248,82380,1,0
232,160,82602,5,0
216,208,82713,1,0
256,240,82824,1,0
296,208,82935,1,0
280,160,83046,1,0
64,224,83268,5,0
64,352,83490,1,0
192,352,83713,1,0
192,224,83935,1,0
320,224,84157,1,0
320,352,84379,1,0
448,352,84602,1,0
448,224,84824,1,0
320,352,85046,1,0
256,136,85268,5,0
312,176,85379,1,0
288,240,85491,1,0
224,240,85602,1,0
200,176,85713,1,0
0,256,85963,5,0
8,248,86046,1,0
80,256,86213,1,0
152,256,86379,2,0,B|168:248|168:248|168:216,2,42.5,0|0|0
256,264,86713,5,2
264,288,86796,1,0
272,312,86879,1,2
280,336,86963,1,0
288,360,87046,5,4
480,280,87379,1,2
328,128,87713,1,0
256,48,87879,1,0
184,128,88046,2,0,B|112:136|112:224|184:240,1,170,2|0
184,240,88546,1,0
264,312,88713,6,0,B|312:296|296:232,1,85,0|2
354,124,89046,2,0,B|318:91|279:129,1,85,0|2
147,140,89379,2,0,B|137:188|190:202,1,85,0|2
256,192,89713,6,0,B|224:128|288:88|256:24,1,170,4|2
376,288,90379,2,0,B|288:247,1,85,0|0
441,318,90713,1,2
71,318,91046,1,0
216,136,91379,5,0
184,240,91546,1,2
296,136,91713,1,0
328,240,91880,1,2
216,136,92046,1,0
112,192,92213,1,0
96,192,92296,1,0
80,192,92379,6,0,B|63:177|63:177|58:113,1,85,4|0
88,32,92713,1,0
296,136,92879,2,0,B|278:150|278:150|273:214,1,85,4|0
264,288,93213,1,0
464,344,93379,2,0,B|447:329|447:329|442:265,1,85,4|0
468,195,93713,1,0
96,80,94046,5,0
40,152,94213,1,2
160,136,94379,1,2
56,240,94546,1,0
240,208,94713,1,0
80,352,94879,1,2
56,240,95046,5,0
144,199,95213,1,2
127,277,95379,2,0,B|147:321,2,42.5
144,200,95713,5,0
144,104,95880,1,2
208,152,96046,2,0,B|312:152,1,85
488,184,96379,5,0
400,184,96546,1,2
448,104,96713,1,2
360,104,96879,1,2
400,184,97046,1,0
312,184,97213,1,2
360,104,97380,1,2
272,104,97546,1,2
40,192,97713,5,4
256,344,98046,1,2
328,128,98380,1,0
256,192,98546,1,0
184,128,98713,2,0,B|184:192|184:192|152:216|152:216|152:280,1,170,2|0
152,282,99213,1,0
256,360,99380,5,0
352,320,99546,1,2
256,280,99713,1,0
352,240,99880,1,2
256,192,100046,1,0
352,152,100213,1,0
288,24,100380,5,4
480,104,100713,1,2
336,264,101046,2,0,B|240:264,1,85,0|0
408,264,101380,1,2
104,264,101713,1,0
360,144,102046,5,2
384,48,102213,1,0
296,80,102380,1,0
208,48,102546,1,0
120,80,102713,1,2
32,48,102880,1,0
24,64,102963,1,0
16,80,103046,6,0,B|8:136,5,42.5,4|0|0|0|0|0
48,176,103546,2,0,B|40:232,5,42.5,4|0|0|0|0|0
104,144,104046,2,2,B|72:112|72:112|200:136,1,170,4|0
194,134,104546,1,0
312,232,104713,5,0
288,320,104879,1,2
224,200,105046,1,0
176,328,105213,1,2
112,160,105379,1,0
48,336,105546,1,2
120,288,105713,5,0
160,208,105879,1,2
232,264,106046,2,0,B|320:264,1,85
464,160,106379,5,0
424,240,106545,1,2
352,184,106712,2,0,B|264:184,1,85
192,136,107046,5,0
120,80,107213,1,2
172,175,107379,5,0
82,163,107546,1,2
171,205,107713,5,0
82,224,107880,1,2
189,245,108046,5,0
122,306,108213,1,2
256,192,108379,5,4
416,232,108602,5,0
456,48,108824,1,0
256,88,109046,1,0
56,48,109268,1,0
96,232,109490,1,0
496,352,109713,5,0
112,160,109935,1,0
16,352,110157,1,0
400,160,110379,1,0
256,272,110601,1,0
256,272,110713,2,0,B|256:320,3,42.5
256,272,111046,5,4
256,264,111546,1,4
256,256,112046,1,4
