osu file format v9

[General]
AudioFilename: Nekomata Master - Far east nightbird.mp3
AudioLeadIn: 0
PreviewTime: 85713
Countdown: 0
SampleSet: Normal
StackLeniency: 0.7
Mode: 0
LetterboxInBreaks: 1

[Editor]
Bookmarks: 35046,56379,77713
DistanceSpacing: 1
BeatDivisor: 4
GridSize: 8

[Metadata]
Title:Far east nightbird
Artist:Nekomata Master
Creator:tsuka
Version:Basic
Source:jubeat knit
Tags:Samipale qinche Frank7654321

[Difficulty]
HPDrainRate:2
CircleSize:3
OverallDifficulty:2
ApproachRate:4
SliderMultiplier:0.6
SliderTickRate:1

[Events]
//Background and Video events
0,0,"Far East Nightbird.jpg"
//Break Periods
2,53913,55059
//Storyboard Layer 0 (Background)
//Storyboard Layer 1 (Fail)
//Storyboard Layer 2 (Pass)
//Storyboard Layer 3 (Foreground)
//Storyboard Sound Samples
//Background Colour Transformations
3,100,163,162,255

[TimingPoints]
380,333.333333333333,4,1,0,60,1,0
8046,-100,4,1,0,50,0,0
9379,-100,4,1,0,40,0,0
12379,-100,4,1,0,50,0,0
13046,-100,4,1,0,60,0,0
13713,-100,4,1,0,70,0,0
35046,-100,4,2,0,70,0,0
58379,-100,4,1,0,70,0,0
59046,-100,4,2,0,70,0,0
63713,-100,4,1,0,70,0,0
64379,-100,4,2,0,70,0,0
77713,-133.333333333333,4,1,0,60,0,0
87046,-100,4,1,0,70,0,1
108379,-100,4,1,0,70,0,0

[Colours]
Combo1 : 147,255,201
Combo2 : 255,255,181
Combo3 : 255,193,255
Combo4 : 172,172,255

[HitObjects]
64,320,1713,5,4
304,320,3046,1,0
424,112,4379,1,0
184,112,5713,2,0,B|144:80|144:80|96:80,2,90
240,88,7046,5,0
352,224,8046,2,0,B|320:280,1,60
480,368,9379,1,0
256,192,9713,12,0,12379
256,136,13046,6,0,B|248:176|248:176|264:216|264:216|248:256,1,120,0|4
352,304,14379,6,0,B|480:328,1,120
472,208,15713,1,0
472,208,16046,1,0
472,208,16379,6,0,B|352:184,1,120
360,64,17713,2,0,B|240:88,1,120
280,200,19046,2,0,B|216:216,1,60
240,272,19713,6,0,B|152:360|8:320,1,240
48,272,21379,1,0
48,272,21713,5,0
88,160,22379,1,0
160,256,23046,1,0
208,144,23713,2,0,B|256:112|256:112|320:104,1,120,0|4
416,176,25046,6,0,B|376:208|376:208|336:216,1,90,0|4
208,288,26379,1,0
208,288,26713,1,0
208,288,27046,6,0,B|256:344|256:344|336:360,2,150
192,232,29046,1,0
192,232,29379,1,0
192,232,29713,6,0,B|112:200|112:200|112:104|112:104|72:64,1,240
112,16,31379,1,0
168,48,31713,2,0,B|200:56|200:56|232:40,1,60
280,40,32379,5,0
400,64,33046,1,0
328,160,33713,2,0,B|352:208|352:208|392:224,2,90
280,144,35046,6,0,B|208:96|208:96|112:112,1,180,4|0
104,168,36379,6,0,B|108:254|108:254|44:328,1,180,2|0
104,344,37713,6,0,B|184:391|184:391|268:372,1,180
288,320,39046,6,0,B|328:304|328:304|376:312,2,90,2|0|0
240,288,40379,6,0,B|216:248|216:248|176:240|176:240|160:200|160:200|112:200|112:200|80:144,1,240
81,146,42379,1,0
256,192,43046,12,4,45713
176,88,46713,5,0
232,104,47046,2,0,B|304:56|304:56|400:72,1,180,2|0
408,128,48379,6,0,B|404:214|404:214|468:288,1,180,2|0
408,304,49713,6,0,B|328:351|328:351|244:332,1,180
208,288,51046,6,0,B|177:234|177:234|129:234|129:234|113:194|113:194|73:186|73:186|49:146,1,240
49,146,53046,1,2
49,146,53713,1,0
424,224,56379,6,0,B|464:336,2,120,4|0|0
328,152,58379,1,0
328,152,58713,1,0
328,152,59046,6,0,B|288:40,2,120,4|0|0
232,224,61046,1,2
232,224,61379,1,2
232,224,61713,6,0,B|272:344,2,120,4|0|0
112,248,63713,2,0,B|96:192,1,60
112,136,64379,6,0,B|192:48|336:72,1,240,4|0
288,184,66379,1,2
312,128,66713,1,2
368,120,67046,6,0,B|456:88,2,90,4|2|2
328,168,68379,2,0,B|240:200,2,90,0|2|2
376,208,69713,2,0,B|432:232,1,60,0|2
416,288,70379,6,0,B|464:368,2,90,4|2|2
360,272,71713,2,0,B|304:240,1,60,0|2
248,224,72379,6,0,B|160:248,2,90,4|2|2
272,168,73713,2,0,B|360:136,2,90,0|2|0
216,152,75046,2,0,B|160:128,1,60,2|0
104,136,75713,6,0,B|26:182,2,90,4|2|0
120,80,77046,2,0,B|144:24,1,60,2|0
192,48,77713,6,0,B|232:32|232:32|272:48|272:48|312:32|312:32|352:48|352:48|384:32|384:32|416:48|416:48|456:32|456:32|488:40,1,314.999990612269,4|0
504,88,80379,1,0
464,304,81713,1,0
312,152,83046,1,0
120,256,84379,1,0
48,56,85713,1,0
48,56,87046,6,0,B|24:144|24:144|64:232,1,180,4|0
112,256,88379,2,0,B|232:240,1,120
328,312,89713,5,0
328,312,90046,1,0
328,312,90379,2,0,B|384:304|384:304|424:240,1,120
488,152,91713,1,0
488,152,92046,1,0
488,152,92379,6,0,B|424:80|424:80|320:80,1,180,4|0
304,128,93713,2,0,B|240:112|240:112|216:64,1,120
96,64,95046,6,0,B|132:114|132:114|104:168,1,120
152,208,96046,2,0,B|125:259|125:259|162:309,1,120,0|0
192,360,97046,2,0,B|264:368,1,60
304,328,97713,6,0,B|376:272|376:272|480:296,1,180,4|0
464,232,99046,2,0,B|424:120,1,120
320,64,100379,6,0,B|232:48|232:48|168:120,1,180
208,160,101713,2,0,B|32:224,1,180
40,280,103046,6,0,B|216:216,1,180
232,104,104713,1,0
232,104,105046,1,0
232,104,105379,1,0
232,104,105713,2,0,B|288:112|288:112|320:168,1,120
272,208,106713,6,0,B|303:263|303:263|359:271,1,120
408,304,107713,2,0,B|376:359|376:359|320:367,1,120,0|4
256,192,108713,12,0,110379
288,288,111046,6,0,B|304:248|352:224,2,90,4|4|4
