osu file format v9

[General]
AudioFilename: Nekomata Master - Far east nightbird.mp3
AudioLeadIn: 0
PreviewTime: 85713
Countdown: 0
SampleSet: Normal
StackLeniency: 0.7
Mode: 0
LetterboxInBreaks: 1

[Editor]
Bookmarks: 35046,56379,77713
DistanceSpacing: 1
BeatDivisor: 4
GridSize: 16

[Metadata]
Title:Far east nightbird
Artist:Nekomata Master
Creator:tsuka
Version:Advanced
Source:jubeat knit
Tags:Samipale qinche Frank7654321

[Difficulty]
HPDrainRate:3
CircleSize:4
OverallDifficulty:5
ApproachRate:4
SliderMultiplier:0.799999999999999
SliderTickRate:1

[Events]
//Background and Video events
0,0,"Far East Nightbird.jpg"
//Break Periods
//Storyboard Layer 0 (Background)
//Storyboard Layer 1 (Fail)
//Storyboard Layer 2 (Pass)
//Storyboard Layer 3 (Foreground)
//Storyboard Sound Samples
//Background Colour Transformations
3,100,163,162,255

[TimingPoints]
380,333.333333333333,4,1,0,80,1,0
9629,-100,4,1,0,5,0,0
12379,-100,4,1,0,80,0,0
12879,-100,4,2,0,70,0,0
13629,-100,4,1,0,80,0,0
24213,-100,4,2,0,70,0,0
25129,-100,4,1,0,80,0,0
34879,-100,4,2,0,70,0,0
55046,-100,4,1,0,80,0,0
56713,-100,4,2,0,70,0,0
78046,-100,4,1,0,50,0,0
87046,-100,4,2,0,70,0,1
90879,-100,4,1,0,70,0,1
91213,-100,4,2,0,70,0,1
93629,-100,4,1,0,70,0,1
93879,-100,4,2,0,70,0,1
101546,-100,4,1,0,50,0,1
101963,-100,4,2,0,70,0,1
103046,-100,4,1,0,50,0,1
104629,-100,4,2,0,70,0,1
105546,-100,4,1,0,70,0,1
105963,-100,4,2,0,70,0,1
106879,-100,4,1,0,70,0,1
107296,-100,4,2,0,70,0,1
108379,-100,4,2,0,70,0,0
108713,-100,4,1,0,70,0,0

[Colours]
Combo1 : 147,255,201
Combo2 : 255,255,181
Combo3 : 255,193,255
Combo4 : 172,172,255

[HitObjects]
96,96,1713,2,0,B|192:96,1,79.9999999999999
336,144,2713,1,0
416,144,3046,2,0,B|336:144,1,79.9999999999999
192,224,4046,1,0
112,224,4379,2,0,B|208:224,1,79.9999999999999
336,272,5379,1,0
432,272,5713,6,0,B|384:272,1,40
304,352,6379,2,0,B|256:352,1,40
224,352,6713,1,0
160,320,7046,6,0,B|128:304|128:304|144:256,1,79.9999999999999
48,128,8046,1,0
48,48,8379,2,0,B|80:64|80:64|64:112,1,79.9999999999999
48,272,9379,1,0
256,192,9713,12,0,12379
256,192,13046,5,2
256,192,13379,1,2
256,192,13713,2,0,B|176:240|224:336,1,160,4|0
288,272,14713,1,0
288,272,15046,1,0
368,304,15379,1,0
448,304,15713,2,0,B|368:304,1,79.9999999999999
400,224,16379,6,0,B|480:176|432:80,1,160
368,144,17379,1,0
368,144,17712,1,0
288,112,18046,1,0
208,112,18379,2,0,B|288:112,1,79.9999999999999
256,192,19046,5,0
176,192,19379,1,0
96,224,19713,2,0,B|64:304,1,79.9999999999999
144,304,20379,2,0,B|46:262|14:358,1,160
96,368,21379,1,0
176,352,21713,6,0,B|224:320|256:352|288:384|336:352,1,160
416,352,22713,1,0
368,288,23046,2,0,B|321:235|359:179|436:165|476:218|446:288,1,240
416,352,24379,6,6,B|352:352,2,53.3333333333333
432,224,25379,1,0
352,224,25713,1,0
272,224,26046,1,0
192,272,26379,2,0,B|96:272,2,79.9999999999999
256,320,27379,5,0
96,352,28046,1,0
16,320,28379,1,0
16,240,28713,1,0
96,208,29046,2,0,B|96:128,2,79.9999999999999
256,176,30379,6,0,B|208:240|208:240|256:304,1,160
320,240,31379,1,0
400,240,31713,2,0,B|320:240,1,79.9999999999999
256,176,32379,2,0,B|304:112|304:112|256:48,1,160
192,112,33379,1,0
112,112,33713,2,0,B|32:112,2,79.9999999999999
48,256,35046,6,0,B|32:288|64:352|128:336|144:272,1,160,4|0
176,208,36046,1,2
240,160,36379,2,0,B|416:160,1,160
480,160,37379,1,2
448,240,37713,2,0,B|480:288|464:336|416:352|384:336,2,160
480,160,39379,1,2
480,80,39713,2,2,B|480:0,2,79.9999999999999,2|2|0
480,160,40713,1,2
400,160,41046,1,0
320,160,41379,1,2
288,80,41713,6,0,B|240:112|224:144|240:192|272:224,1,160
320,160,42713,1,2
352,240,43046,2,0,B|352:336,1,79.9999999999999,0|2
432,288,43713,2,0,B|432:208,1,79.9999999999999,0|2
432,128,44379,1,4
352,96,44713,1,2
272,128,45046,1,0
192,160,45379,1,2
112,128,45713,6,0,B|136:96|136:96|216:96|216:96|240:128,1,160,4|0
256,208,46713,1,2
192,256,47046,2,0,B|168:288|168:288|88:288|88:288|64:256,1,160
16,192,48046,1,2
96,192,48379,2,0,B|192:192,1,79.9999999999999,0|2
256,192,49046,2,0,B|352:192,1,79.9999999999999,0|2
416,240,49713,5,2
352,288,50046,1,2
272,288,50379,2,2,B|352:288,1,79.9999999999999
416,336,51046,1,4
480,288,51379,1,2
416,240,51713,1,0
480,192,52046,5,2
480,192,52213,1,0
384,112,52713,1,2
384,112,52879,1,0
288,192,53379,1,2
288,192,53546,1,0
256,192,53713,12,0,55046
48,96,55713,5,0
48,96,56046,1,0
48,96,56379,2,0,B|64:160|160:160|144:64,1,160,4|2
224,96,57379,2,0,B|240:32|336:32|320:128,1,160,0|2
384,176,58379,2,0,B|400:224,3,40
416,256,59046,6,0,B|400:320|304:320|320:224,1,160,0|2
240,256,60046,2,0,B|224:192|128:192|144:288,1,160,0|2
64,304,61046,2,0,B|16:304,3,40
16,272,61713,6,0,B|96:224|32:128,1,160,0|2
96,80,62713,2,0,B|160:48|176:128|256:96,1,160,0|2
304,48,63713,1,0
320,128,64046,1,2
384,80,64379,6,0,B|304:128|368:224,1,160,0|2
304,272,65379,2,0,B|240:304|224:224|144:256,1,160,0|2
96,304,66379,1,0
80,224,66712,1,2
64,144,67046,6,0,B|48:128|64:96,2,40,0|0|2
144,144,67713,2,0,B|160:128|192:144,2,40,0|0|2
144,224,68379,2,0,B|160:240|144:272,2,40,0|0|2
64,224,69046,2,0,B|48:240|16:224,2,40,0|0|2
64,144,69713,1,0
208,80,70379,6,0,B|240:160,1,79.9999999999999,0|2
304,192,71046,2,0,B|218:179,1,79.9999999999999,0|2
160,224,71713,2,0,B|213:156,1,79.9999999999999,0|2
256,96,72379,6,0,B|272:80|256:48,2,40,0|0|2
176,112,73046,2,0,B|160:96|128:112,2,40,0|0|2
192,192,73712,2,0,B|176:208|192:240,2,40,0|0|2
272,176,74379,2,0,B|288:192|320:176,2,40,0|0|2
256,256,75046,1,0
240,336,75379,6,0,B|160:352,1,79.9999999999999,0|2
128,272,76046,2,0,B|206:256,1,79.9999999999999,0|2
176,176,76713,2,0,B|96:192,2,79.9999999999999,2|0|2
256,128,77713,5,4
336,80,78157,6,0,B|368:16|448:48,5,106.666666666667
416,144,80824,6,0,B|455:203|387:256,5,106.666666666667
320,176,83491,6,0,B|248:180|236:95,4,106.666666666667
256,192,85713,12,4,87046
256,192,87379,5,2
336,160,87713,1,0
416,192,88046,1,2
336,48,88713,1,2
288,112,89046,1,0
240,176,89379,1,2
160,144,89713,2,0,B|80:144,1,79.9999999999999,0|2
64,240,90379,2,0,B|144:240,1,79.9999999999999,0|2
192,304,91046,6,0,B|256:336|304:304|304:240,1,160,0|2
304,160,92046,1,0
352,96,92379,2,4,B|480:96,2,120
272,96,93713,5,0
192,96,94046,1,2
128,144,94379,1,0
64,192,94713,1,2
128,240,95046,6,0,B|128:320,1,79.9999999999999
208,352,95713,2,0,B|208:272,1,79.9999999999999
288,240,96379,2,0,B|288:320,1,79.9999999999999
368,352,97046,2,0,B|368:272,1,79.9999999999999
368,192,97713,5,4
368,112,98046,1,2
288,128,98379,1,0
208,144,98713,1,2
368,112,99379,1,2
288,80,99713,1,0
208,48,100046,1,0
144,96,100379,2,0,B|64:96,1,79.9999999999999,0|2
16,160,101046,2,0,B|0:208|48:240,1,79.9999999999999,0|2
112,208,101713,6,0,B|272:208,1,160,0|2
352,208,102713,1,0
320,288,103046,5,4
416,352,103546,1,4
432,240,104046,1,4
320,112,104713,2,0,B|320:64|320:64|336:32,2,79.9999999999999,2|0|2
240,112,105713,6,0,B|336:112,1,79.9999999999999,0|2
288,192,106379,2,0,B|208:192,1,79.9999999999999,0|2
240,272,107046,2,0,B|320:272,1,79.9999999999999,0|2
288,352,107713,2,0,B|208:352,1,79.9999999999999,0|2
128,352,108379,5,4
128,240,108824,2,0,B|128:128,5,106.666666666667,0|0|0|0|0|4
128,133,111546,1,4
128,133,112046,1,4
