osu file format v9

[General]
AudioFilename: Nekomata Master - Far east nightbird.mp3
AudioLeadIn: 0
PreviewTime: 85639
Countdown: 0
SampleSet: Soft
StackLeniency: 0.7
Mode: 0
LetterboxInBreaks: 1

[Editor]
Bookmarks: 1711,12377,24377,35044,45711,56377,67044,78155,85711,97711,108377
DistanceSpacing: 1
BeatDivisor: 3
GridSize: 8

[Metadata]
Title:Far east nightbird
Artist:Nekomata Master
Creator:Muya
Version:Beginner
Source:jubeat
Tags:knit

[Difficulty]
HPDrainRate:1
CircleSize:3
OverallDifficulty:2
ApproachRate:2
SliderMultiplier:0.8
SliderTickRate:1

[Events]
//Background and Video events
0,0,"BG.jpg"
//Break Periods
2,45913,54819
2,77913,79264
//Storyboard Layer 0 (Background)
//Storyboard Layer 1 (Fail)
//Storyboard Layer 2 (Pass)
//Storyboard Layer 3 (Foreground)
//Storyboard Sound Samples
//Background Colour Transformations
3,100,163,162,255

[TimingPoints]
380,333.333333333333,4,1,1,60,1,0
78046,-133.333333333333,4,2,1,60,0,0
85713,-100,4,1,1,60,0,0
87046,-100,4,1,1,60,0,1
97671,-100,4,1,1,60,0,0
97713,-100,4,1,1,60,0,1
97754,-100,4,1,1,60,0,0
108379,-100,4,1,1,60,0,1
108421,-100,4,1,1,60,0,0
108602,-133.333333333333,4,2,1,60,0,0
112046,-133.333333333333,4,2,1,60,0,1
112088,-133.333333333333,4,2,1,60,0,0

[HitObjects]
55,41,13713,2,0,B|34:124|56:210,1,160,4|0
187,287,15046,2,0,B|208:204|186:118,1,160,0|8
315,31,16379,2,0,B|346:63|394:83,1,80
449,36,17046,2,0,B|490:120|450:197,1,160,0|0
294,211,18379,1,8
188,331,19046,6,0,B|111:350|29:331,2,160,0|0|0
107,192,21046,2,0,B|96:146|106:103,1,80,8|0
134,38,21713,1,0
290,69,22379,2,0,B|322:155|289:240,2,160,0|0|8
153,152,24379,6,0,B|110:229|130:316,2,160,4|0|0
262,35,26379,2,0,B|307:36|345:60,1,80,8|0
415,35,27046,2,0,B|441:116|413:196,1,160,0|0
330,328,28379,2,0,B|304:247|332:167,1,160,0|8
223,51,29713,6,0,B|162:33|101:49,2,120,0|4|0
192,124,31046,2,0,B|163:203|195:290,1,160,0|8
328,363,32379,2,0,B|357:284|325:197,2,160
233,56,35046,6,0,B|347:15|472:54,1,240,4|0
512,119,36379,2,0,B|398:160|273:121,1,240,0|8
200,95,37713,1,0
41,116,38379,2,0,B|29:193|57:283,1,160
198,203,39713,2,0,B|236:219|267:267,1,80,8|0
293,325,40379,6,0,B|375:349|466:318,1,160
511,174,41713,2,0,B|429:150|338:181,1,160,0|8
198,218,43046,2,0,B|102:208,1,80
66,148,43713,2,0,B|131:95|217:97,2,160,0|0|8
0,294,45713,1,4
486,65,56379,6,0,B|512:151|481:239,1,160,4|8
412,253,57379,2,0,B|386:167|417:79,1,160,0|8
361,32,58379,1,0
214,97,59046,2,0,B|137:120|39:114,2,160,0|8|0
305,228,61046,2,0,B|289:314|214:358,1,160,8|4
78,276,62379,6,0,B|56:193|78:111,1,160,8|0
212,32,63713,2,0,B|237:68|244:123,1,80,8|0
225,184,64379,2,0,B|250:273|334:312,1,160,0|8
480,328,65713,2,0,B|455:239|371:200,1,160,0|8
362,47,67046,6,0,B|279:17|198:48,3,160,4|8|0|8
139,191,69713,1,0
204,336,70379,2,0,B|287:366|368:335,2,160,8|0|8
250,182,72379,6,0,B|288:173|329:181,1,80,4|0
406,203,73046,2,0,B|481:248|498:344,2,160,8|0|8
336,59,75046,2,0,B|256:40|173:59,3,160,0|8|0|8
256,196,77713,1,4
416,280,80824,5,8
256,280,81713,1,0
96,280,82602,1,8
96,120,83491,5,8
256,120,84380,1,0
416,120,85268,1,8
470,46,87046,6,0,B|491:127|466:223,1,160,4|8
361,321,88379,2,0,B|340:240|365:144,1,160,0|8
249,46,89713,1,0
89,33,90379,2,0,B|46:107|64:196,2,160,8|0|8
206,141,92379,6,0,B|223:270|126:382,1,240,4|8
33,245,94046,2,0,B|35:200|71:159,2,80,8|0|8
80,309,95046,2,0,B|159:332|247:311,1,160,0|8
339,188,96379,2,0,B|260:165|172:186,1,160,0|8
60,77,97713,6,0,B|24:160|62:248,1,160,4|8
175,339,99046,2,0,B|211:256|173:168,1,160,0|8
257,43,100379,2,0,B|307:54|350:98,1,80
377,141,101046,2,0,B|412:219|390:324,2,160,8|0|8
256,246,103046,6,0,B|199:267|128:245,1,120,4|4
47,327,104046,2,0,B|20:241|55:146,1,160,4|0
83,97,105046,1,8
235,49,105713,2,0,B|316:25|409:52,1,160,0|8
509,158,107046,2,0,B|428:182|335:155,2,160,0|8|4
443,294,109046,6,0,B|491:278|515:238,2,79.9999976158143
371,329,110379,2,0,B|315:353|251:329,1,119.999996423721,0|4
210,251,111546,2,0,B|252:233|300:251,1,89.9999973177911,4|4
