osu file format v14

[General]
AudioFilename: Far east nightbird.mp3
AudioLeadIn: 0
PreviewTime: 85561
Countdown: 0
SampleSet: Normal
StackLeniency: 0.7
Mode: 3
LetterboxInBreaks: 0
SpecialStyle: 0
WidescreenStoryboard: 0

[Editor]
DistanceSpacing: 0.9
BeatDivisor: 4
GridSize: 16
TimelineZoom: 1

[Metadata]
Title:Far east nightbird
TitleUnicode:Far east nightbird
Artist:Nekomata Master
ArtistUnicode:猫叉Master
Creator:Meiko Senpai
Version:Insane
Source:Jubeat knit
Tags:Naoyuki Sato beatmania IIDX plus jukebeat pop'n music Sunny Park konami benami 佐藤直之 DRUM'N'BASS ドラムンベース
BeatmapID:684684
BeatmapSetID:305792

[Difficulty]
HPDrainRate:8
CircleSize:4
OverallDifficulty:8
ApproachRate:5
SliderMultiplier:1.4
SliderTickRate:1

[Events]
//Background and Video events
0,0,"night_starry_sky_shine_water_island_rock_galaxy.jpg",0,0
//Break Periods
//Storyboard Layer 0 (Background)
//Storyboard Layer 1 (Fail)
//Storyboard Layer 2 (Pass)
//Storyboard Layer 3 (Foreground)
//Storyboard Sound Samples

[TimingPoints]
62,333.333333333333,4,1,3,40,1,0
6061,-100,4,1,3,10,0,0
11395,-100,4,1,3,40,0,0
12728,-100,4,1,3,40,0,1
23395,-100,4,1,3,10,0,1
23478,-100,4,1,3,40,0,1
34061,-100,4,1,3,40,0,0
55395,-100,4,1,3,40,0,1
76728,-100,4,1,3,40,0,0
86061,-100,4,1,3,40,0,1
107395,-100,4,1,3,40,0,0

[HitObjects]
320,192,395,5,0,0:0:0:0:
192,192,561,1,0,0:0:0:0:
448,192,728,1,4,0:0:0:0:
64,192,728,1,2,0:0:0:0:
320,192,728,1,0,0:0:0:0:
192,192,895,1,0,0:0:0:0:
320,192,1061,1,0,0:0:0:0:
64,192,1061,1,0,0:0:0:0:
192,192,1228,1,0,0:0:0:0:
320,192,1395,1,0,0:0:0:0:
448,192,1395,1,0,0:0:0:0:
192,192,1561,1,2,0:0:0:0:
64,192,1561,1,0,0:0:0:0:
320,192,1561,1,0,0:0:0:0:
448,192,1728,1,0,0:0:0:0:
320,192,1811,1,0,0:0:0:0:
64,192,1895,1,0,0:0:0:0:
192,192,1895,1,0,0:0:0:0:
192,192,2061,1,0,0:0:0:0:
448,192,2061,1,0,0:0:0:0:
320,192,2061,1,2,0:0:0:0:
64,192,2228,1,0,0:0:0:0:
192,192,2395,1,0,0:0:0:0:
320,192,2395,1,0,0:0:0:0:
448,192,2561,1,0,0:0:0:0:
192,192,2728,1,0,0:0:0:0:
64,192,2728,1,0,0:0:0:0:
320,192,2895,1,2,0:0:0:0:
448,192,2895,1,0,0:0:0:0:
192,192,2895,1,0,0:0:0:0:
64,192,3061,1,0,0:0:0:0:
320,192,3145,1,0,0:0:0:0:
448,192,3228,1,0,0:0:0:0:
192,192,3228,1,0,0:0:0:0:
64,192,3395,1,0,0:0:0:0:
320,192,3395,1,2,0:0:0:0:
448,192,3395,1,0,0:0:0:0:
192,192,3561,1,0,0:0:0:0:
64,192,3728,1,0,0:0:0:0:
448,192,3728,1,0,0:0:0:0:
192,192,3895,1,0,0:0:0:0:
64,192,4061,1,0,0:0:0:0:
320,192,4061,1,0,0:0:0:0:
192,192,4228,1,0,0:0:0:0:
448,192,4228,1,2,0:0:0:0:
64,192,4228,1,0,0:0:0:0:
320,192,4395,1,0,0:0:0:0:
448,192,4478,1,0,0:0:0:0:
192,192,4561,1,0,0:0:0:0:
64,192,4561,1,0,0:0:0:0:
64,192,4728,1,0,0:0:0:0:
320,192,4728,1,2,0:0:0:0:
448,192,4728,1,0,0:0:0:0:
320,192,4895,1,0,0:0:0:0:
192,192,4895,1,0,0:0:0:0:
64,192,5061,1,0,0:0:0:0:
448,192,5061,1,0,0:0:0:0:
192,192,5228,1,0,0:0:0:0:
64,192,5228,1,0,0:0:0:0:
64,192,5478,1,0,0:0:0:0:
320,192,5478,1,0,0:0:0:0:
192,192,5561,1,0,0:0:0:0:
448,192,5561,1,0,0:0:0:0:
64,192,5728,1,0,0:0:0:0:
320,192,5728,1,0,0:0:0:0:
192,192,5895,1,0,0:0:0:0:
320,192,6061,1,0,0:0:0:0:
448,192,6061,1,2,0:0:0:0:
192,192,6228,1,0,0:0:0:0:
64,192,6395,1,0,0:0:0:0:
320,192,6395,1,0,0:0:0:0:
192,192,6561,1,0,0:0:0:0:
448,192,6561,1,0,0:0:0:0:
320,192,6811,1,0,0:0:0:0:
64,192,6895,1,0,0:0:0:0:
448,192,6895,1,2,0:0:0:0:
192,192,7061,1,0,0:0:0:0:
320,192,7061,1,0,0:0:0:0:
448,192,7228,1,0,0:0:0:0:
320,192,7311,1,0,0:0:0:0:
192,192,7395,1,2,0:0:0:0:
64,192,7395,1,0,0:0:0:0:
448,192,7478,1,0,0:0:0:0:
192,192,7561,1,0,0:0:0:0:
320,192,7728,1,0,0:0:0:0:
448,192,7728,1,0,0:0:0:0:
64,192,7811,1,0,0:0:0:0:
192,192,7895,1,0,0:0:0:0:
320,192,7978,1,0,0:0:0:0:
448,192,8145,1,0,0:0:0:0:
192,192,8228,1,0,0:0:0:0:
320,192,8228,1,2,0:0:0:0:
64,192,8395,1,0,0:0:0:0:
448,192,8395,1,0,0:0:0:0:
320,192,8561,1,0,0:0:0:0:
448,192,8645,1,0,0:0:0:0:
192,192,8728,1,2,0:0:0:0:
64,192,8728,1,0,0:0:0:0:
320,192,8811,1,0,0:0:0:0:
448,192,9061,1,0,0:0:0:0:
192,192,9228,1,0,0:0:0:0:
64,192,9311,1,0,0:0:0:0:
320,192,9728,1,0,0:0:0:0:
64,192,9811,1,0,0:0:0:0:
448,192,9895,1,0,0:0:0:0:
192,192,10228,1,0,0:0:0:0:
448,192,10311,1,0,0:0:0:0:
320,192,10395,1,0,0:0:0:0:
64,192,10561,1,0,0:0:0:0:
192,192,10728,1,0,0:0:0:0:
448,192,10811,1,0,0:0:0:0:
320,192,11061,1,0,0:0:0:0:
64,192,11228,1,0,0:0:0:0:
448,192,11395,1,0,0:0:0:0:
192,192,11395,1,0,0:0:0:0:
320,192,11395,1,2,0:0:0:0:
448,192,11561,1,0,0:0:0:0:
64,192,11645,1,0,0:0:0:0:
192,192,11645,1,0,0:0:0:0:
320,192,11728,1,0,0:0:0:0:
64,192,11895,1,0,0:0:0:0:
320,192,11895,1,0,0:0:0:0:
448,192,11895,1,0,0:0:0:0:
192,192,12061,1,0,0:0:0:0:
64,192,12145,1,0,0:0:0:0:
448,192,12145,1,0,0:0:0:0:
320,192,12228,1,0,0:0:0:0:
448,192,12311,1,0,0:0:0:0:
192,192,12395,1,0,0:0:0:0:
64,192,12395,1,0,0:0:0:0:
320,192,12478,1,0,0:0:0:0:
448,192,12478,1,0,0:0:0:0:
192,192,12561,1,0,0:0:0:0:
64,192,12561,1,0,0:0:0:0:
320,192,12645,1,0,0:0:0:0:
448,192,12645,1,0,0:0:0:0:
192,192,12728,1,0,0:0:0:0:
64,192,12728,128,4,13061:0:0:0:0:
192,192,13061,1,0,0:0:0:0:
448,192,13061,1,8,0:0:0:0:
320,192,13228,1,0,0:0:0:0:
192,192,13395,128,0,13561:0:0:0:0:
64,192,13395,1,0,0:0:0:0:
320,192,13561,1,2,0:0:0:0:
192,192,13645,128,0,13811:0:0:0:0:
64,192,13728,1,0,0:0:0:0:
448,192,13728,1,8,0:0:0:0:
192,192,13895,128,0,14061:0:0:0:0:
320,192,13895,1,0,0:0:0:0:
64,192,14061,1,2,0:0:0:0:
448,192,14061,1,0,0:0:0:0:
64,192,14228,1,0,0:0:0:0:
448,192,14228,1,2,0:0:0:0:
192,192,14395,1,8,0:0:0:0:
320,192,14395,1,0,0:0:0:0:
64,192,14395,1,0,0:0:0:0:
320,192,14561,1,0,0:0:0:0:
448,192,14561,1,0,0:0:0:0:
192,192,14645,1,0,0:0:0:0:
64,192,14728,1,0,0:0:0:0:
320,192,14728,1,0,0:0:0:0:
192,192,14811,1,0,0:0:0:0:
448,192,14811,1,0,0:0:0:0:
320,192,14895,1,2,0:0:0:0:
64,192,14895,1,0,0:0:0:0:
64,192,15061,1,0,0:0:0:0:
320,192,15061,1,0,0:0:0:0:
448,192,15061,1,8,0:0:0:0:
192,192,15228,1,0,0:0:0:0:
448,192,15228,1,0,0:0:0:0:
320,192,15311,1,0,0:0:0:0:
448,192,15395,128,2,15811:0:0:0:0:
64,192,15395,1,0,0:0:0:0:
64,192,15728,1,0,0:0:0:0:
320,192,15728,1,8,0:0:0:0:
192,192,15895,1,0,0:0:0:0:
64,192,16061,128,0,16228:0:0:0:0:
448,192,16061,1,0,0:0:0:0:
192,192,16228,1,2,0:0:0:0:
64,192,16311,128,0,16478:0:0:0:0:
448,192,16395,1,0,0:0:0:0:
320,192,16395,1,8,0:0:0:0:
64,192,16561,128,0,16728:0:0:0:0:
192,192,16561,1,0,0:0:0:0:
320,192,16728,1,0,0:0:0:0:
448,192,16728,1,2,0:0:0:0:
192,192,16728,1,0,0:0:0:0:
320,192,16895,1,0,0:0:0:0:
64,192,16895,1,0,0:0:0:0:
192,192,16895,1,0,0:0:0:0:
320,192,17061,1,0,0:0:0:0:
448,192,17061,1,0,0:0:0:0:
192,192,17061,1,0,0:0:0:0:
64,192,17228,1,0,0:0:0:0:
320,192,17228,1,0,0:0:0:0:
64,192,17395,1,0,0:0:0:0:
448,192,17395,1,0,0:0:0:0:
192,192,17478,1,0,0:0:0:0:
320,192,17478,1,0,0:0:0:0:
64,192,17561,1,0,0:0:0:0:
448,192,17561,1,2,0:0:0:0:
192,192,17728,1,0,0:0:0:0:
320,192,17728,1,8,0:0:0:0:
448,192,17728,1,0,0:0:0:0:
64,192,17895,1,0,0:0:0:0:
192,192,17895,1,0,0:0:0:0:
320,192,17978,1,0,0:0:0:0:
448,192,17978,1,0,0:0:0:0:
192,192,18061,1,0,0:0:0:0:
64,192,18061,128,2,18395:0:0:0:0:
448,192,18228,128,0,18395:0:0:0:0:
192,192,18395,1,0,0:0:0:0:
320,192,18395,1,8,0:0:0:0:
192,192,18561,1,0,0:0:0:0:
448,192,18561,128,0,18728:0:0:0:0:
320,192,18728,128,0,18895:0:0:0:0:
64,192,18728,1,0,0:0:0:0:
192,192,18895,1,2,0:0:0:0:
320,192,18978,128,0,19145:0:0:0:0:
64,192,19061,1,0,0:0:0:0:
448,192,19061,1,8,0:0:0:0:
320,192,19228,128,0,19395:0:0:0:0:
192,192,19228,1,0,0:0:0:0:
64,192,19395,1,0,0:0:0:0:
448,192,19395,1,2,0:0:0:0:
64,192,19561,1,0,0:0:0:0:
448,192,19561,1,2,0:0:0:0:
192,192,19728,1,0,0:0:0:0:
320,192,19728,1,8,0:0:0:0:
448,192,19728,1,0,0:0:0:0:
192,192,19895,1,0,0:0:0:0:
64,192,19895,1,0,0:0:0:0:
320,192,20061,1,0,0:0:0:0:
448,192,20061,1,0,0:0:0:0:
192,192,20145,1,0,0:0:0:0:
64,192,20145,1,0,0:0:0:0:
320,192,20228,1,0,0:0:0:0:
448,192,20228,1,2,0:0:0:0:
192,192,20395,1,0,0:0:0:0:
320,192,20395,1,8,0:0:0:0:
64,192,20395,1,0,0:0:0:0:
448,192,20561,1,0,0:0:0:0:
192,192,20561,1,0,0:0:0:0:
320,192,20728,128,2,21061:0:0:0:0:
64,192,20728,1,0,0:0:0:0:
64,192,21061,1,0,0:0:0:0:
448,192,21061,1,8,0:0:0:0:
192,192,21228,1,0,0:0:0:0:
448,192,21395,128,0,21561:0:0:0:0:
64,192,21395,1,0,0:0:0:0:
320,192,21561,1,2,0:0:0:0:
448,192,21645,128,0,21811:0:0:0:0:
192,192,21728,1,8,0:0:0:0:
64,192,21728,1,0,0:0:0:0:
448,192,21895,128,0,22061:0:0:0:0:
320,192,21895,1,0,0:0:0:0:
192,192,22061,1,2,0:0:0:0:
64,192,22061,1,0,0:0:0:0:
64,192,22228,1,0,0:0:0:0:
192,192,22228,1,8,0:0:0:0:
320,192,22228,1,0,0:0:0:0:
448,192,22395,1,0,0:0:0:0:
320,192,22395,1,2,0:0:0:0:
192,192,22478,1,0,0:0:0:0:
320,192,22561,1,0,0:0:0:0:
64,192,22561,1,0,0:0:0:0:
448,192,22645,1,0,0:0:0:0:
64,192,22728,1,2,0:0:0:0:
192,192,22728,1,0,0:0:0:0:
320,192,22811,1,0,0:0:0:0:
448,192,22895,1,0,0:0:0:0:
192,192,22978,1,0,0:0:0:0:
320,192,22978,1,0,0:0:0:0:
64,192,23061,1,0,0:0:0:0:
448,192,23061,1,2,0:0:0:0:
192,192,23145,1,0,0:0:0:0:
320,192,23228,1,0,0:0:0:0:
64,192,23228,1,0,0:0:0:0:
192,192,23311,1,0,0:0:0:0:
448,192,23395,1,8,0:0:0:0:
320,192,23395,128,4,23617:0:0:0:0:
192,192,23617,1,8,0:0:0:0:
64,192,23617,1,0,0:0:0:0:
448,192,23839,1,8,0:0:0:0:
192,192,23839,1,0,0:0:0:0:
64,192,24061,128,0,24228:0:0:0:0:
320,192,24061,1,0,0:0:0:0:
192,192,24228,1,2,0:0:0:0:
64,192,24311,128,0,24478:0:0:0:0:
320,192,24395,1,0,0:0:0:0:
448,192,24395,1,0,0:0:0:0:
64,192,24561,128,0,24728:0:0:0:0:
192,192,24561,1,4,0:0:0:0:
320,192,24728,1,2,0:0:0:0:
448,192,24728,1,0,0:0:0:0:
320,192,24895,1,2,0:0:0:0:
192,192,25061,1,8,0:0:0:0:
64,192,25061,1,0,0:0:0:0:
448,192,25061,1,0,0:0:0:0:
192,192,25228,1,0,0:0:0:0:
64,192,25228,1,0,0:0:0:0:
320,192,25311,1,0,0:0:0:0:
192,192,25395,1,0,0:0:0:0:
448,192,25395,1,0,0:0:0:0:
64,192,25478,1,0,0:0:0:0:
320,192,25478,1,0,0:0:0:0:
192,192,25561,1,0,0:0:0:0:
448,192,25561,1,2,0:0:0:0:
320,192,25728,1,8,0:0:0:0:
448,192,25728,1,0,0:0:0:0:
64,192,25728,1,0,0:0:0:0:
192,192,25895,1,0,0:0:0:0:
320,192,25895,1,0,0:0:0:0:
64,192,26061,128,2,26395:0:0:0:0:
192,192,26061,1,0,0:0:0:0:
448,192,26228,128,8,26395:0:0:0:0:
192,192,26395,1,0,0:0:0:0:
320,192,26395,1,2,0:0:0:0:
192,192,26561,1,0,0:0:0:0:
448,192,26728,128,0,26895:0:0:0:0:
64,192,26728,1,0,0:0:0:0:
320,192,26728,1,0,0:0:0:0:
448,192,26978,128,0,27145:0:0:0:0:
192,192,26978,1,2,0:0:0:0:
64,192,26978,1,0,0:0:0:0:
448,192,27228,128,0,27395:0:0:0:0:
320,192,27228,1,8,0:0:0:0:
192,192,27228,1,0,0:0:0:0:
192,192,27395,1,2,0:0:0:0:
64,192,27395,1,0,0:0:0:0:
64,192,27561,1,0,0:0:0:0:
320,192,27561,1,2,0:0:0:0:
320,192,27728,1,0,0:0:0:0:
448,192,27728,1,0,0:0:0:0:
192,192,27728,1,8,0:0:0:0:
64,192,27895,1,0,0:0:0:0:
448,192,27895,1,0,0:0:0:0:
192,192,28061,1,0,0:0:0:0:
320,192,28061,1,0,0:0:0:0:
64,192,28145,1,0,0:0:0:0:
448,192,28145,1,0,0:0:0:0:
192,192,28228,1,0,0:0:0:0:
320,192,28228,1,2,0:0:0:0:
64,192,28395,1,0,0:0:0:0:
320,192,28395,1,0,0:0:0:0:
448,192,28395,1,8,0:0:0:0:
64,192,28561,1,0,0:0:0:0:
192,192,28561,1,2,0:0:0:0:
320,192,28645,1,8,0:0:0:0:
448,192,28645,1,0,0:0:0:0:
192,192,28728,1,2,0:0:0:0:
64,192,28728,1,0,0:0:0:0:
320,192,28811,1,0,0:0:0:0:
448,192,28811,1,0,0:0:0:0:
64,192,28978,1,0,0:0:0:0:
192,192,28978,1,0,0:0:0:0:
320,192,29228,1,0,0:0:0:0:
448,192,29228,1,4,0:0:0:0:
64,192,29228,1,0,0:0:0:0:
192,192,29395,128,0,29561:0:0:0:0:
64,192,29395,1,0,0:0:0:0:
448,192,29561,1,2,0:0:0:0:
192,192,29645,128,0,29811:0:0:0:0:
320,192,29728,1,8,0:0:0:0:
64,192,29728,1,0,0:0:0:0:
192,192,29895,128,0,30061:0:0:0:0:
448,192,29895,1,0,0:0:0:0:
320,192,30061,1,2,0:0:0:0:
64,192,30061,1,0,0:0:0:0:
64,192,30228,1,0,0:0:0:0:
320,192,30228,1,2,0:0:0:0:
192,192,30395,1,0,0:0:0:0:
448,192,30395,1,8,0:0:0:0:
64,192,30395,1,0,0:0:0:0:
192,192,30561,1,0,0:0:0:0:
448,192,30561,1,0,0:0:0:0:
64,192,30728,1,0,0:0:0:0:
320,192,30728,1,0,0:0:0:0:
192,192,30811,1,0,0:0:0:0:
448,192,30811,1,0,0:0:0:0:
320,192,30895,1,2,0:0:0:0:
64,192,30895,1,0,0:0:0:0:
192,192,31061,1,0,0:0:0:0:
320,192,31061,1,0,0:0:0:0:
448,192,31061,1,8,0:0:0:0:
192,192,31228,1,0,0:0:0:0:
64,192,31228,1,0,0:0:0:0:
64,192,31395,1,0,0:0:0:0:
192,192,31395,128,0,31728:0:0:0:0:
320,192,31728,1,8,0:0:0:0:
448,192,31728,1,0,0:0:0:0:
448,192,31895,1,0,0:0:0:0:
320,192,32061,128,0,32228:0:0:0:0:
64,192,32061,1,0,0:0:0:0:
192,192,32061,1,0,0:0:0:0:
320,192,32311,128,0,32478:0:0:0:0:
64,192,32311,1,0,0:0:0:0:
448,192,32311,1,0,0:0:0:0:
192,192,32561,1,0,0:0:0:0:
320,192,32561,128,0,32728:0:0:0:0:
448,192,32561,1,8,0:0:0:0:
448,192,32728,1,0,0:0:0:0:
64,192,32728,1,2,0:0:0:0:
192,192,32895,1,0,0:0:0:0:
448,192,32895,1,8,0:0:0:0:
64,192,32895,1,0,0:0:0:0:
320,192,33061,1,2,0:0:0:0:
192,192,33061,1,0,0:0:0:0:
320,192,33228,1,0,0:0:0:0:
448,192,33228,1,8,0:0:0:0:
64,192,33228,1,0,0:0:0:0:
192,192,33395,1,0,0:0:0:0:
320,192,33395,1,0,0:0:0:0:
64,192,33478,1,8,0:0:0:0:
320,192,33561,1,0,0:0:0:0:
448,192,33561,1,2,0:0:0:0:
192,192,33645,1,0,0:0:0:0:
64,192,33728,1,0,0:0:0:0:
320,192,33728,1,8,0:0:0:0:
192,192,33811,1,0,0:0:0:0:
64,192,33895,1,0,0:0:0:0:
448,192,33895,1,0,0:0:0:0:
320,192,33978,1,8,0:0:0:0:
192,192,34061,1,4,0:0:0:0:
64,192,34061,1,2,0:0:0:0:
448,192,34061,128,0,35061:0:0:0:0:
64,192,34395,1,0,0:0:0:0:
320,192,34395,1,8,0:0:0:0:
192,192,34561,1,0,0:0:0:0:
64,192,34728,1,0,0:0:0:0:
64,192,34895,1,2,0:0:0:0:
192,192,35061,1,0,0:0:0:0:
320,192,35061,1,8,0:0:0:0:
64,192,35228,128,0,36395:0:0:0:0:
448,192,35228,1,0,0:0:0:0:
192,192,35311,1,0,0:0:0:0:
320,192,35395,1,2,0:0:0:0:
320,192,35561,1,0,0:0:0:0:
192,192,35728,1,0,0:0:0:0:
448,192,35728,1,8,0:0:0:0:
320,192,35895,1,0,0:0:0:0:
448,192,35978,1,0,0:0:0:0:
192,192,36061,1,0,0:0:0:0:
192,192,36228,1,2,0:0:0:0:
320,192,36395,1,0,0:0:0:0:
448,192,36395,1,8,0:0:0:0:
192,192,36561,128,0,37728:0:0:0:0:
64,192,36561,1,0,0:0:0:0:
320,192,36728,1,0,0:0:0:0:
448,192,36728,1,2,0:0:0:0:
64,192,36895,1,0,0:0:0:0:
64,192,37061,1,0,0:0:0:0:
448,192,37061,1,8,0:0:0:0:
320,192,37228,1,0,0:0:0:0:
64,192,37395,1,0,0:0:0:0:
448,192,37561,1,2,0:0:0:0:
320,192,37728,1,8,0:0:0:0:
64,192,37728,1,0,0:0:0:0:
320,192,37895,1,0,0:0:0:0:
64,192,38061,1,0,0:0:0:0:
192,192,38061,1,0,0:0:0:0:
448,192,38061,1,2,0:0:0:0:
448,192,38228,1,0,0:0:0:0:
320,192,38228,1,2,0:0:0:0:
64,192,38228,1,0,0:0:0:0:
192,192,38395,1,8,0:0:0:0:
320,192,38395,1,0,0:0:0:0:
64,192,38561,1,0,0:0:0:0:
192,192,38728,1,0,0:0:0:0:
448,192,38728,1,0,0:0:0:0:
320,192,38811,1,0,0:0:0:0:
64,192,38811,1,0,0:0:0:0:
192,192,38895,1,0,0:0:0:0:
448,192,38895,1,2,0:0:0:0:
64,192,39061,1,0,0:0:0:0:
320,192,39061,1,8,0:0:0:0:
192,192,39061,1,0,0:0:0:0:
320,192,39228,1,0,0:0:0:0:
448,192,39228,1,0,0:0:0:0:
192,192,39311,1,0,0:0:0:0:
64,192,39311,1,0,0:0:0:0:
320,192,39395,1,0,0:0:0:0:
448,192,39395,1,2,0:0:0:0:
64,192,39561,128,0,39728:0:0:0:0:
192,192,39561,1,0,0:0:0:0:
448,192,39728,128,0,39895:0:0:0:0:
320,192,39728,1,8,0:0:0:0:
192,192,39895,128,0,40061:0:0:0:0:
64,192,39895,1,0,0:0:0:0:
320,192,40061,128,0,40228:0:0:0:0:
448,192,40061,1,0,0:0:0:0:
64,192,40228,1,2,0:0:0:0:
320,192,40311,128,0,40478:0:0:0:0:
448,192,40395,1,8,0:0:0:0:
64,192,40395,1,0,0:0:0:0:
192,192,40561,1,0,0:0:0:0:
320,192,40561,128,0,40728:0:0:0:0:
448,192,40728,1,2,0:0:0:0:
64,192,40728,1,0,0:0:0:0:
64,192,40895,1,0,0:0:0:0:
448,192,40895,1,2,0:0:0:0:
192,192,41061,1,0,0:0:0:0:
320,192,41061,1,8,0:0:0:0:
448,192,41061,1,0,0:0:0:0:
192,192,41228,1,0,0:0:0:0:
320,192,41228,1,0,0:0:0:0:
64,192,41395,1,0,0:0:0:0:
192,192,41395,1,0,0:0:0:0:
320,192,41478,1,0,0:0:0:0:
448,192,41478,1,0,0:0:0:0:
192,192,41561,1,2,0:0:0:0:
64,192,41561,1,0,0:0:0:0:
320,192,41728,1,8,0:0:0:0:
448,192,41728,1,0,0:0:0:0:
64,192,41728,1,0,0:0:0:0:
192,192,41895,1,0,0:0:0:0:
320,192,41895,1,0,0:0:0:0:
448,192,41978,1,0,0:0:0:0:
64,192,42061,128,0,42395:0:0:0:0:
320,192,42061,1,2,0:0:0:0:
192,192,42395,1,0,0:0:0:0:
448,192,42395,1,8,0:0:0:0:
320,192,42561,1,0,0:0:0:0:
448,192,42728,128,0,42895:0:0:0:0:
64,192,42728,1,0,0:0:0:0:
320,192,42895,1,2,0:0:0:0:
448,192,42978,128,0,43145:0:0:0:0:
192,192,43061,1,8,0:0:0:0:
64,192,43061,1,0,0:0:0:0:
448,192,43228,128,0,43395:0:0:0:0:
320,192,43228,1,0,0:0:0:0:
192,192,43395,1,2,0:0:0:0:
64,192,43395,1,0,0:0:0:0:
192,192,43561,1,2,0:0:0:0:
64,192,43561,1,0,0:0:0:0:
448,192,43728,1,0,0:0:0:0:
320,192,43728,1,8,0:0:0:0:
192,192,43728,1,0,0:0:0:0:
64,192,43895,1,0,0:0:0:0:
192,192,43950,1,0,0:0:0:0:
320,192,44006,1,0,0:0:0:0:
448,192,44061,1,0,0:0:0:0:
448,192,44228,1,2,0:0:0:0:
320,192,44284,1,0,0:0:0:0:
192,192,44339,1,0,0:0:0:0:
64,192,44395,1,8,0:0:0:0:
448,192,44478,1,0,0:0:0:0:
320,192,44561,1,0,0:0:0:0:
192,192,44645,1,0,0:0:0:0:
64,192,44728,128,4,45728:0:0:0:0:
448,192,44728,1,2,0:0:0:0:
192,192,45061,1,0,0:0:0:0:
320,192,45061,1,8,0:0:0:0:
448,192,45228,1,0,0:0:0:0:
448,192,45395,1,0,0:0:0:0:
192,192,45561,1,2,0:0:0:0:
320,192,45728,1,8,0:0:0:0:
448,192,45728,1,0,0:0:0:0:
192,192,45895,128,0,47061:0:0:0:0:
64,192,45895,1,0,0:0:0:0:
320,192,46061,1,0,0:0:0:0:
448,192,46061,1,2,0:0:0:0:
320,192,46228,1,2,0:0:0:0:
64,192,46395,1,0,0:0:0:0:
448,192,46395,1,8,0:0:0:0:
320,192,46561,1,0,0:0:0:0:
448,192,46645,1,0,0:0:0:0:
64,192,46728,1,0,0:0:0:0:
448,192,46895,1,2,0:0:0:0:
320,192,47061,1,8,0:0:0:0:
64,192,47061,1,0,0:0:0:0:
448,192,47228,128,0,48395:0:0:0:0:
320,192,47228,1,0,0:0:0:0:
192,192,47395,1,2,0:0:0:0:
64,192,47395,1,0,0:0:0:0:
64,192,47561,1,2,0:0:0:0:
192,192,47728,1,0,0:0:0:0:
320,192,47728,1,8,0:0:0:0:
64,192,47895,1,0,0:0:0:0:
320,192,48061,1,0,0:0:0:0:
64,192,48228,1,2,0:0:0:0:
192,192,48395,1,8,0:0:0:0:
320,192,48395,1,0,0:0:0:0:
64,192,48561,1,0,0:0:0:0:
192,192,48728,1,0,0:0:0:0:
320,192,48728,1,2,0:0:0:0:
448,192,48728,1,0,0:0:0:0:
320,192,48895,1,0,0:0:0:0:
192,192,48895,1,2,0:0:0:0:
64,192,48895,1,0,0:0:0:0:
320,192,49061,1,8,0:0:0:0:
448,192,49061,1,0,0:0:0:0:
192,192,49228,1,0,0:0:0:0:
64,192,49395,1,0,0:0:0:0:
320,192,49395,1,0,0:0:0:0:
192,192,49478,1,0,0:0:0:0:
448,192,49478,1,0,0:0:0:0:
320,192,49561,1,2,0:0:0:0:
64,192,49561,1,0,0:0:0:0:
192,192,49728,1,0,0:0:0:0:
448,192,49728,1,8,0:0:0:0:
64,192,49728,1,0,0:0:0:0:
320,192,49895,1,0,0:0:0:0:
448,192,49895,1,0,0:0:0:0:
192,192,49978,1,0,0:0:0:0:
64,192,49978,1,0,0:0:0:0:
320,192,50061,1,2,0:0:0:0:
448,192,50061,1,0,0:0:0:0:
192,192,50228,128,0,50395:0:0:0:0:
64,192,50228,1,0,0:0:0:0:
320,192,50395,128,0,50561:0:0:0:0:
448,192,50395,1,8,0:0:0:0:
64,192,50561,128,0,50728:0:0:0:0:
192,192,50561,1,0,0:0:0:0:
448,192,50728,128,0,50895:0:0:0:0:
320,192,50728,1,0,0:0:0:0:
192,192,50895,1,2,0:0:0:0:
448,192,50978,128,0,51145:0:0:0:0:
64,192,51061,1,8,0:0:0:0:
192,192,51061,1,0,0:0:0:0:
448,192,51228,128,0,51395:0:0:0:0:
320,192,51228,1,0,0:0:0:0:
64,192,51395,1,0,0:0:0:0:
192,192,51395,1,2,0:0:0:0:
64,192,51561,1,0,0:0:0:0:
320,192,51561,1,2,0:0:0:0:
192,192,51728,1,0,0:0:0:0:
448,192,51728,1,8,0:0:0:0:
320,192,51728,1,0,0:0:0:0:
320,192,51895,1,0,0:0:0:0:
64,192,51895,1,0,0:0:0:0:
192,192,52061,1,0,0:0:0:0:
320,192,52061,1,0,0:0:0:0:
64,192,52145,1,0,0:0:0:0:
448,192,52145,1,0,0:0:0:0:
192,192,52228,1,0,0:0:0:0:
320,192,52228,1,2,0:0:0:0:
64,192,52395,1,0,0:0:0:0:
320,192,52395,1,8,0:0:0:0:
448,192,52395,1,0,0:0:0:0:
192,192,52561,1,0,0:0:0:0:
64,192,52728,128,0,53061:0:0:0:0:
320,192,52728,1,2,0:0:0:0:
192,192,53061,1,0,0:0:0:0:
448,192,53061,1,8,0:0:0:0:
320,192,53228,1,0,0:0:0:0:
64,192,53395,128,0,53561:0:0:0:0:
448,192,53395,1,0,0:0:0:0:
192,192,53561,1,2,0:0:0:0:
64,192,53645,128,0,53811:0:0:0:0:
320,192,53728,1,8,0:0:0:0:
448,192,53728,1,0,0:0:0:0:
64,192,53895,128,0,54061:0:0:0:0:
192,192,53895,1,0,0:0:0:0:
320,192,54061,1,0,0:0:0:0:
448,192,54061,1,2,0:0:0:0:
320,192,54228,1,0,0:0:0:0:
448,192,54228,1,2,0:0:0:0:
64,192,54395,1,0,0:0:0:0:
192,192,54395,1,8,0:0:0:0:
448,192,54395,1,0,0:0:0:0:
320,192,54478,1,0,0:0:0:0:
64,192,54561,1,0,0:0:0:0:
448,192,54561,1,0,0:0:0:0:
192,192,54645,1,0,0:0:0:0:
320,192,54728,1,0,0:0:0:0:
448,192,54728,1,0,0:0:0:0:
192,192,54811,1,0,0:0:0:0:
64,192,54895,1,0,0:0:0:0:
320,192,54895,1,2,0:0:0:0:
192,192,54978,1,8,0:0:0:0:
448,192,55061,1,8,0:0:0:0:
64,192,55061,1,0,0:0:0:0:
320,192,55145,1,8,0:0:0:0:
192,192,55145,1,0,0:0:0:0:
448,192,55228,1,0,0:0:0:0:
192,192,55311,1,0,0:0:0:0:
64,192,55395,1,0,0:0:0:0:
448,192,55395,1,0,0:0:0:0:
320,192,55395,1,4,0:0:0:0:
192,192,55561,1,0,0:0:0:0:
320,192,55728,1,8,0:0:0:0:
448,192,55728,1,0,0:0:0:0:
64,192,55895,1,0,0:0:0:0:
448,192,56061,1,2,0:0:0:0:
192,192,56061,1,0,0:0:0:0:
320,192,56228,1,8,0:0:0:0:
192,192,56228,1,0,0:0:0:0:
448,192,56395,1,0,0:0:0:0:
64,192,56561,1,0,0:0:0:0:
192,192,56617,1,0,0:0:0:0:
320,192,56673,1,0,0:0:0:0:
448,192,56728,1,0,0:0:0:0:
64,192,56895,1,0,0:0:0:0:
320,192,56895,1,2,0:0:0:0:
192,192,57061,1,8,0:0:0:0:
320,192,57061,1,0,0:0:0:0:
448,192,57145,1,0,0:0:0:0:
320,192,57228,1,0,0:0:0:0:
64,192,57311,1,0,0:0:0:0:
448,192,57395,1,2,0:0:0:0:
192,192,57395,1,0,0:0:0:0:
64,192,57561,1,0,0:0:0:0:
320,192,57561,1,8,0:0:0:0:
192,192,57728,1,0,0:0:0:0:
320,192,57811,1,0,0:0:0:0:
448,192,57895,1,0,0:0:0:0:
64,192,57895,1,0,0:0:0:0:
192,192,57978,1,0,0:0:0:0:
320,192,58061,1,2,0:0:0:0:
448,192,58061,1,0,0:0:0:0:
64,192,58061,1,0,0:0:0:0:
448,192,58228,1,8,0:0:0:0:
192,192,58228,1,0,0:0:0:0:
320,192,58395,1,2,0:0:0:0:
192,192,58395,1,0,0:0:0:0:
64,192,58561,1,0,0:0:0:0:
448,192,58561,1,8,0:0:0:0:
192,192,58728,1,8,0:0:0:0:
448,192,58728,1,0,0:0:0:0:
64,192,58811,1,0,0:0:0:0:
320,192,58895,1,0,0:0:0:0:
192,192,58895,1,2,0:0:0:0:
64,192,59061,1,0,0:0:0:0:
448,192,59228,1,0,0:0:0:0:
320,192,59284,1,0,0:0:0:0:
192,192,59339,1,0,0:0:0:0:
64,192,59395,1,0,0:0:0:0:
320,192,59561,1,0,0:0:0:0:
448,192,59561,1,0,0:0:0:0:
64,192,59728,1,0,0:0:0:0:
320,192,59728,1,8,0:0:0:0:
192,192,59811,1,0,0:0:0:0:
320,192,59895,1,0,0:0:0:0:
64,192,59978,1,0,0:0:0:0:
448,192,60061,1,2,0:0:0:0:
192,192,60061,1,0,0:0:0:0:
64,192,60228,1,0,0:0:0:0:
320,192,60228,1,8,0:0:0:0:
192,192,60395,128,0,60561:0:0:0:0:
448,192,60561,128,0,60728:0:0:0:0:
64,192,60728,1,0,0:0:0:0:
320,192,60728,1,4,0:0:0:0:
192,192,60728,1,0,0:0:0:0:
448,192,60895,1,0,0:0:0:0:
192,192,61061,1,0,0:0:0:0:
320,192,61061,1,8,0:0:0:0:
64,192,61228,1,0,0:0:0:0:
192,192,61395,1,2,0:0:0:0:
320,192,61395,1,0,0:0:0:0:
448,192,61561,1,8,0:0:0:0:
192,192,61561,1,0,0:0:0:0:
64,192,61728,1,0,0:0:0:0:
192,192,61811,1,0,0:0:0:0:
320,192,61895,1,0,0:0:0:0:
448,192,61978,1,0,0:0:0:0:
192,192,62061,1,2,0:0:0:0:
64,192,62061,1,0,0:0:0:0:
448,192,62228,1,0,0:0:0:0:
320,192,62228,1,2,0:0:0:0:
192,192,62395,1,8,0:0:0:0:
64,192,62395,1,0,0:0:0:0:
320,192,62561,1,0,0:0:0:0:
192,192,62645,1,0,0:0:0:0:
320,192,62728,1,0,0:0:0:0:
64,192,62728,1,2,0:0:0:0:
448,192,62895,1,8,0:0:0:0:
192,192,62895,1,0,0:0:0:0:
64,192,63061,1,0,0:0:0:0:
448,192,63145,1,8,0:0:0:0:
320,192,63228,1,0,0:0:0:0:
64,192,63311,1,8,0:0:0:0:
192,192,63395,1,0,0:0:0:0:
448,192,63395,1,2,0:0:0:0:
320,192,63395,1,0,0:0:0:0:
64,192,63561,1,0,0:0:0:0:
192,192,63728,1,0,0:0:0:0:
320,192,63728,1,8,0:0:0:0:
448,192,63895,1,0,0:0:0:0:
320,192,64061,1,2,0:0:0:0:
64,192,64061,1,0,0:0:0:0:
192,192,64228,1,0,0:0:0:0:
448,192,64228,1,8,0:0:0:0:
320,192,64395,1,0,0:0:0:0:
64,192,64478,1,8,0:0:0:0:
192,192,64561,1,0,0:0:0:0:
448,192,64645,1,8,0:0:0:0:
320,192,64728,1,2,0:0:0:0:
64,192,64728,1,0,0:0:0:0:
192,192,64895,1,0,0:0:0:0:
448,192,64895,1,2,0:0:0:0:
320,192,65061,1,8,0:0:0:0:
64,192,65061,1,0,0:0:0:0:
448,192,65228,1,0,0:0:0:0:
320,192,65311,1,0,0:0:0:0:
192,192,65395,1,2,0:0:0:0:
64,192,65395,1,0,0:0:0:0:
320,192,65561,128,0,66061:0:0:0:0:
448,192,65728,1,0,0:0:0:0:
64,192,65895,1,0,0:0:0:0:
192,192,66061,1,2,0:0:0:0:
448,192,66061,1,4,0:0:0:0:
64,192,66061,1,0,0:0:0:0:
64,192,66228,1,0,0:0:0:0:
320,192,66228,1,0,0:0:0:0:
192,192,66311,1,0,0:0:0:0:
448,192,66311,1,0,0:0:0:0:
320,192,66395,1,8,0:0:0:0:
64,192,66395,1,0,0:0:0:0:
192,192,66478,1,0,0:0:0:0:
448,192,66478,1,0,0:0:0:0:
320,192,66561,1,0,0:0:0:0:
64,192,66561,1,0,0:0:0:0:
192,192,66728,1,0,0:0:0:0:
448,192,66728,1,2,0:0:0:0:
64,192,66811,1,0,0:0:0:0:
320,192,66811,1,0,0:0:0:0:
192,192,66895,1,0,0:0:0:0:
448,192,66895,1,8,0:0:0:0:
320,192,66978,1,0,0:0:0:0:
64,192,66978,1,0,0:0:0:0:
192,192,67061,1,0,0:0:0:0:
448,192,67061,1,0,0:0:0:0:
320,192,67228,1,0,0:0:0:0:
64,192,67228,1,0,0:0:0:0:
192,192,67311,1,0,0:0:0:0:
448,192,67311,1,0,0:0:0:0:
320,192,67395,1,2,0:0:0:0:
64,192,67395,1,0,0:0:0:0:
192,192,67478,1,0,0:0:0:0:
448,192,67478,1,0,0:0:0:0:
320,192,67561,1,0,0:0:0:0:
64,192,67561,1,0,0:0:0:0:
192,192,67728,1,0,0:0:0:0:
448,192,67728,1,8,0:0:0:0:
320,192,67811,1,0,0:0:0:0:
64,192,67811,1,0,0:0:0:0:
192,192,67895,1,0,0:0:0:0:
448,192,67895,1,0,0:0:0:0:
320,192,67978,1,0,0:0:0:0:
64,192,67978,1,0,0:0:0:0:
192,192,68061,1,2,0:0:0:0:
448,192,68061,1,0,0:0:0:0:
64,192,68228,1,0,0:0:0:0:
448,192,68228,1,8,0:0:0:0:
320,192,68228,128,0,68895:0:0:0:0:
64,192,68478,1,0,0:0:0:0:
448,192,68478,1,8,0:0:0:0:
448,192,68645,1,8,0:0:0:0:
64,192,68645,1,0,0:0:0:0:
192,192,68728,1,2,0:0:0:0:
64,192,68895,1,0,0:0:0:0:
448,192,68895,1,8,0:0:0:0:
192,192,69061,1,2,0:0:0:0:
320,192,69228,1,0,0:0:0:0:
448,192,69228,1,8,0:0:0:0:
192,192,69395,1,2,0:0:0:0:
320,192,69395,1,0,0:0:0:0:
64,192,69478,1,0,0:0:0:0:
448,192,69478,1,8,0:0:0:0:
192,192,69561,1,0,0:0:0:0:
320,192,69561,1,0,0:0:0:0:
64,192,69645,1,0,0:0:0:0:
448,192,69645,1,0,0:0:0:0:
192,192,69728,1,0,0:0:0:0:
320,192,69728,1,8,0:0:0:0:
64,192,69895,1,0,0:0:0:0:
448,192,69895,1,0,0:0:0:0:
192,192,69978,1,0,0:0:0:0:
320,192,69978,1,0,0:0:0:0:
64,192,70061,1,0,0:0:0:0:
448,192,70061,1,0,0:0:0:0:
192,192,70145,1,0,0:0:0:0:
320,192,70145,1,0,0:0:0:0:
64,192,70228,1,0,0:0:0:0:
448,192,70228,1,0,0:0:0:0:
192,192,70395,1,0,0:0:0:0:
320,192,70395,1,8,0:0:0:0:
64,192,70478,1,0,0:0:0:0:
448,192,70478,1,0,0:0:0:0:
192,192,70561,1,0,0:0:0:0:
320,192,70561,1,0,0:0:0:0:
64,192,70645,1,0,0:0:0:0:
448,192,70645,1,0,0:0:0:0:
192,192,70728,1,0,0:0:0:0:
320,192,70728,1,2,0:0:0:0:
64,192,70895,128,0,71395:0:0:0:0:
192,192,70895,1,8,0:0:0:0:
448,192,70895,1,0,0:0:0:0:
192,192,71145,1,0,0:0:0:0:
448,192,71145,1,8,0:0:0:0:
192,192,71311,1,0,0:0:0:0:
448,192,71311,1,8,0:0:0:0:
320,192,71395,1,4,0:0:0:0:
320,192,71561,1,0,0:0:0:0:
448,192,71561,1,0,0:0:0:0:
192,192,71645,1,0,0:0:0:0:
64,192,71645,1,0,0:0:0:0:
320,192,71728,1,8,0:0:0:0:
448,192,71728,1,0,0:0:0:0:
192,192,71811,1,0,0:0:0:0:
64,192,71811,1,0,0:0:0:0:
320,192,71895,1,0,0:0:0:0:
448,192,71895,1,0,0:0:0:0:
192,192,72061,1,2,0:0:0:0:
64,192,72061,1,0,0:0:0:0:
320,192,72145,1,0,0:0:0:0:
448,192,72145,1,0,0:0:0:0:
192,192,72228,1,8,0:0:0:0:
64,192,72228,1,0,0:0:0:0:
320,192,72311,1,0,0:0:0:0:
448,192,72311,1,0,0:0:0:0:
192,192,72395,1,0,0:0:0:0:
64,192,72395,1,0,0:0:0:0:
320,192,72561,1,0,0:0:0:0:
448,192,72561,1,0,0:0:0:0:
192,192,72645,1,0,0:0:0:0:
64,192,72645,1,0,0:0:0:0:
320,192,72728,1,0,0:0:0:0:
448,192,72728,1,2,0:0:0:0:
192,192,72811,1,0,0:0:0:0:
64,192,72811,1,0,0:0:0:0:
320,192,72895,1,0,0:0:0:0:
448,192,72895,1,0,0:0:0:0:
192,192,73061,1,8,0:0:0:0:
64,192,73061,1,0,0:0:0:0:
320,192,73145,1,0,0:0:0:0:
448,192,73145,1,0,0:0:0:0:
192,192,73228,1,0,0:0:0:0:
64,192,73228,1,0,0:0:0:0:
320,192,73311,1,0,0:0:0:0:
448,192,73311,1,0,0:0:0:0:
192,192,73395,1,2,0:0:0:0:
64,192,73395,1,0,0:0:0:0:
448,192,73561,128,0,74228:0:0:0:0:
64,192,73561,1,0,0:0:0:0:
320,192,73561,1,8,0:0:0:0:
64,192,73811,1,0,0:0:0:0:
320,192,73811,1,8,0:0:0:0:
64,192,73978,1,0,0:0:0:0:
320,192,73978,1,8,0:0:0:0:
192,192,74061,1,2,0:0:0:0:
64,192,74228,1,0,0:0:0:0:
320,192,74228,1,0,0:0:0:0:
192,192,74395,1,8,0:0:0:0:
320,192,74395,1,0,0:0:0:0:
192,192,74561,1,0,0:0:0:0:
448,192,74561,1,2,0:0:0:0:
64,192,74728,1,0,0:0:0:0:
192,192,74728,1,0,0:0:0:0:
320,192,74811,1,0,0:0:0:0:
448,192,74811,1,0,0:0:0:0:
192,192,74895,1,8,0:0:0:0:
64,192,74895,1,0,0:0:0:0:
320,192,74978,1,0,0:0:0:0:
448,192,74978,1,0,0:0:0:0:
192,192,75061,1,0,0:0:0:0:
64,192,75061,1,0,0:0:0:0:
320,192,75228,1,0,0:0:0:0:
448,192,75228,1,0,0:0:0:0:
192,192,75311,1,0,0:0:0:0:
64,192,75311,1,0,0:0:0:0:
320,192,75395,1,2,0:0:0:0:
448,192,75395,1,0,0:0:0:0:
192,192,75478,1,0,0:0:0:0:
64,192,75478,1,0,0:0:0:0:
320,192,75561,1,0,0:0:0:0:
448,192,75561,1,0,0:0:0:0:
192,192,75728,1,8,0:0:0:0:
64,192,75728,1,0,0:0:0:0:
320,192,75811,1,0,0:0:0:0:
448,192,75811,1,0,0:0:0:0:
192,192,75895,1,0,0:0:0:0:
64,192,75895,1,0,0:0:0:0:
320,192,75978,1,0,0:0:0:0:
448,192,75978,1,0,0:0:0:0:
192,192,76061,1,2,0:0:0:0:
64,192,76061,1,0,0:0:0:0:
192,192,76228,1,0,0:0:0:0:
448,192,76228,1,8,0:0:0:0:
320,192,76395,1,0,0:0:0:0:
64,192,76395,1,0,0:0:0:0:
192,192,76561,1,0,0:0:0:0:
64,192,76728,1,0,0:0:0:0:
320,192,76728,1,4,0:0:0:0:
448,192,76728,1,2,0:0:0:0:
192,192,76950,1,0,0:0:0:0:
192,192,77173,1,0,0:0:0:0:
448,192,77395,1,0,0:0:0:0:
448,192,77617,1,0,0:0:0:0:
64,192,77839,1,0,0:0:0:0:
64,192,78061,1,0,0:0:0:0:
320,192,78284,1,0,0:0:0:0:
320,192,78506,1,0,0:0:0:0:
192,192,78728,1,0,0:0:0:0:
192,192,78950,1,0,0:0:0:0:
448,192,79061,1,0,0:0:0:0:
320,192,79061,1,0,0:0:0:0:
64,192,79145,1,0,0:0:0:0:
192,192,79145,1,0,0:0:0:0:
320,192,79228,1,0,0:0:0:0:
448,192,79228,1,0,0:0:0:0:
192,192,79311,1,0,0:0:0:0:
64,192,79311,1,0,0:0:0:0:
64,192,79395,1,0,0:0:0:0:
448,192,79395,1,0,0:0:0:0:
320,192,79395,1,4,0:0:0:0:
192,192,79617,1,0,0:0:0:0:
320,192,79617,1,0,0:0:0:0:
192,192,79839,1,0,0:0:0:0:
64,192,79839,1,0,0:0:0:0:
448,192,79839,1,0,0:0:0:0:
320,192,80061,1,0,0:0:0:0:
64,192,80173,1,0,0:0:0:0:
192,192,80284,1,0,0:0:0:0:
448,192,80284,1,0,0:0:0:0:
192,192,80506,1,0,0:0:0:0:
64,192,80617,1,0,0:0:0:0:
192,192,80728,1,0,0:0:0:0:
320,192,80728,1,0,0:0:0:0:
448,192,80728,1,0,0:0:0:0:
64,192,80839,1,0,0:0:0:0:
320,192,80950,1,0,0:0:0:0:
64,192,81061,1,0,0:0:0:0:
448,192,81173,1,0,0:0:0:0:
320,192,81173,1,0,0:0:0:0:
192,192,81395,1,0,0:0:0:0:
320,192,81617,1,0,0:0:0:0:
448,192,81617,1,0,0:0:0:0:
64,192,81617,1,0,0:0:0:0:
192,192,81839,1,0,0:0:0:0:
320,192,82061,1,0,0:0:0:0:
448,192,82061,1,0,0:0:0:0:
64,192,82284,1,0,0:0:0:0:
192,192,82395,1,0,0:0:0:0:
448,192,82506,1,0,0:0:0:0:
64,192,82506,1,0,0:0:0:0:
320,192,82506,1,0,0:0:0:0:
192,192,82728,1,0,0:0:0:0:
64,192,82839,1,0,0:0:0:0:
320,192,82950,1,0,0:0:0:0:
448,192,82950,1,0,0:0:0:0:
192,192,83061,1,0,0:0:0:0:
64,192,83173,1,0,0:0:0:0:
192,192,83395,1,0,0:0:0:0:
320,192,83395,1,0,0:0:0:0:
448,192,83395,1,0,0:0:0:0:
64,192,83617,1,0,0:0:0:0:
448,192,83728,1,0,0:0:0:0:
320,192,83839,1,0,0:0:0:0:
192,192,83839,1,0,0:0:0:0:
64,192,83950,1,0,0:0:0:0:
320,192,84061,1,0,0:0:0:0:
448,192,84173,1,0,0:0:0:0:
192,192,84284,1,0,0:0:0:0:
64,192,84284,1,0,0:0:0:0:
320,192,84284,1,0,0:0:0:0:
448,192,84395,1,0,0:0:0:0:
192,192,84506,1,0,0:0:0:0:
320,192,84617,1,0,0:0:0:0:
64,192,84728,1,2,0:0:0:0:
448,192,84728,1,0,0:0:0:0:
192,192,84728,1,0,0:0:0:0:
320,192,84978,1,0,0:0:0:0:
192,192,85061,1,0,0:0:0:0:
448,192,85228,1,0,0:0:0:0:
192,192,85395,1,2,0:0:0:0:
64,192,85395,1,0,0:0:0:0:
320,192,85478,1,0,0:0:0:0:
192,192,85561,1,0,0:0:0:0:
448,192,85561,1,8,0:0:0:0:
320,192,85728,1,0,0:0:0:0:
448,192,85728,1,0,0:0:0:0:
192,192,85811,1,0,0:0:0:0:
64,192,85811,1,0,0:0:0:0:
320,192,85895,1,0,0:0:0:0:
448,192,85895,1,0,0:0:0:0:
192,192,85978,1,0,0:0:0:0:
64,192,85978,1,0,0:0:0:0:
448,192,86061,128,4,86395:0:0:0:0:
320,192,86061,1,2,0:0:0:0:
192,192,86395,128,0,86728:0:0:0:0:
64,192,86395,1,0,0:0:0:0:
320,192,86395,1,8,0:0:0:0:
64,192,86561,1,0,0:0:0:0:
448,192,86728,1,0,0:0:0:0:
320,192,86895,1,2,0:0:0:0:
64,192,86895,1,0,0:0:0:0:
64,192,87061,128,0,87728:0:0:0:0:
192,192,87061,1,0,0:0:0:0:
448,192,87061,1,8,0:0:0:0:
320,192,87228,1,0,0:0:0:0:
192,192,87311,1,0,0:0:0:0:
448,192,87395,1,2,0:0:0:0:
320,192,87561,1,2,0:0:0:0:
192,192,87728,1,0,0:0:0:0:
448,192,87728,1,8,0:0:0:0:
320,192,87895,1,0,0:0:0:0:
192,192,87978,1,0,0:0:0:0:
64,192,88061,1,0,0:0:0:0:
448,192,88061,1,0,0:0:0:0:
192,192,88228,1,0,0:0:0:0:
320,192,88228,1,2,0:0:0:0:
192,192,88395,1,0,0:0:0:0:
448,192,88395,1,8,0:0:0:0:
64,192,88395,1,0,0:0:0:0:
320,192,88561,1,0,0:0:0:0:
192,192,88645,1,0,0:0:0:0:
64,192,88728,1,0,0:0:0:0:
448,192,88728,1,2,0:0:0:0:
320,192,88895,1,0,0:0:0:0:
192,192,88895,1,0,0:0:0:0:
64,192,89061,1,0,0:0:0:0:
448,192,89061,1,8,0:0:0:0:
192,192,89061,1,0,0:0:0:0:
320,192,89228,1,0,0:0:0:0:
448,192,89395,1,0,0:0:0:0:
320,192,89450,1,0,0:0:0:0:
192,192,89506,1,0,0:0:0:0:
64,192,89561,1,2,0:0:0:0:
192,192,89728,1,0,0:0:0:0:
448,192,89728,1,8,0:0:0:0:
320,192,89728,128,0,90395:0:0:0:0:
64,192,89895,1,0,0:0:0:0:
192,192,89978,1,0,0:0:0:0:
64,192,90061,1,0,0:0:0:0:
448,192,90061,1,2,0:0:0:0:
192,192,90228,1,0,0:0:0:0:
448,192,90395,1,8,0:0:0:0:
64,192,90395,1,0,0:0:0:0:
192,192,90561,1,0,0:0:0:0:
448,192,90728,1,0,0:0:0:0:
64,192,90811,1,0,0:0:0:0:
320,192,90895,1,2,0:0:0:0:
192,192,90895,1,0,0:0:0:0:
192,192,91061,1,0,0:0:0:0:
448,192,91061,1,8,0:0:0:0:
64,192,91061,1,0,0:0:0:0:
320,192,91228,1,2,0:0:0:0:
64,192,91228,1,0,0:0:0:0:
192,192,91311,1,0,0:0:0:0:
448,192,91395,128,4,91895:0:0:0:0:
320,192,91395,1,0,0:0:0:0:
64,192,91395,1,0,0:0:0:0:
192,192,91561,1,0,0:0:0:0:
192,192,91728,1,0,0:0:0:0:
320,192,91728,1,8,0:0:0:0:
64,192,91895,128,0,92395:0:0:0:0:
320,192,92061,1,0,0:0:0:0:
192,192,92228,1,0,0:0:0:0:
448,192,92228,1,2,0:0:0:0:
320,192,92395,128,8,93061:0:0:0:0:
192,192,92395,1,0,0:0:0:0:
448,192,92561,1,0,0:0:0:0:
192,192,92728,1,2,0:0:0:0:
64,192,92728,1,0,0:0:0:0:
448,192,92895,1,0,0:0:0:0:
64,192,92895,1,0,0:0:0:0:
192,192,93061,1,8,0:0:0:0:
64,192,93228,1,0,0:0:0:0:
448,192,93395,1,0,0:0:0:0:
320,192,93478,1,0,0:0:0:0:
192,192,93561,1,2,0:0:0:0:
64,192,93561,1,0,0:0:0:0:
320,192,93728,1,8,0:0:0:0:
448,192,93728,1,0,0:0:0:0:
192,192,93728,1,0,0:0:0:0:
64,192,93895,1,0,0:0:0:0:
192,192,94061,1,0,0:0:0:0:
448,192,94061,1,2,0:0:0:0:
320,192,94061,1,0,0:0:0:0:
64,192,94228,1,0,0:0:0:0:
448,192,94395,1,8,0:0:0:0:
320,192,94450,1,0,0:0:0:0:
192,192,94506,1,0,0:0:0:0:
64,192,94561,1,0,0:0:0:0:
320,192,94728,1,0,0:0:0:0:
448,192,94895,1,0,0:0:0:0:
192,192,94895,1,2,0:0:0:0:
64,192,95061,1,0,0:0:0:0:
320,192,95061,1,8,0:0:0:0:
448,192,95061,1,0,0:0:0:0:
192,192,95228,1,0,0:0:0:0:
64,192,95395,1,2,0:0:0:0:
192,192,95450,1,0,0:0:0:0:
320,192,95506,1,0,0:0:0:0:
448,192,95561,1,0,0:0:0:0:
192,192,95728,1,8,0:0:0:0:
320,192,95728,1,0,0:0:0:0:
64,192,95728,1,0,0:0:0:0:
64,192,95895,1,0,0:0:0:0:
320,192,96061,1,0,0:0:0:0:
448,192,96061,1,0,0:0:0:0:
192,192,96228,1,2,0:0:0:0:
64,192,96228,1,0,0:0:0:0:
448,192,96395,1,8,0:0:0:0:
320,192,96395,1,0,0:0:0:0:
64,192,96395,1,0,0:0:0:0:
192,192,96561,1,0,0:0:0:0:
448,192,96645,1,8,0:0:0:0:
320,192,96728,1,2,0:0:0:0:
192,192,96728,1,0,0:0:0:0:
64,192,96728,128,4,97061:0:0:0:0:
448,192,96895,1,0,0:0:0:0:
320,192,97061,1,8,0:0:0:0:
192,192,97061,1,0,0:0:0:0:
448,192,97061,1,0,0:0:0:0:
320,192,97228,1,0,0:0:0:0:
192,192,97395,1,0,0:0:0:0:
64,192,97395,1,0,0:0:0:0:
320,192,97561,1,2,0:0:0:0:
448,192,97561,1,0,0:0:0:0:
192,192,97728,1,8,0:0:0:0:
64,192,97728,1,0,0:0:0:0:
448,192,97728,1,0,0:0:0:0:
320,192,97895,1,0,0:0:0:0:
64,192,97978,1,0,0:0:0:0:
192,192,98061,1,0,0:0:0:0:
448,192,98061,1,2,0:0:0:0:
320,192,98228,1,0,0:0:0:0:
64,192,98228,1,0,0:0:0:0:
192,192,98395,1,0,0:0:0:0:
448,192,98395,1,8,0:0:0:0:
320,192,98395,1,0,0:0:0:0:
64,192,98561,1,0,0:0:0:0:
320,192,98645,1,0,0:0:0:0:
192,192,98728,1,0,0:0:0:0:
320,192,98895,1,2,0:0:0:0:
448,192,98895,1,0,0:0:0:0:
64,192,99061,1,0,0:0:0:0:
192,192,99061,1,8,0:0:0:0:
448,192,99061,1,0,0:0:0:0:
320,192,99228,1,0,0:0:0:0:
448,192,99311,1,0,0:0:0:0:
64,192,99395,128,0,99728:0:0:0:0:
192,192,99395,1,2,0:0:0:0:
320,192,99561,1,0,0:0:0:0:
192,192,99728,1,0,0:0:0:0:
448,192,99728,1,8,0:0:0:0:
320,192,99895,1,0,0:0:0:0:
64,192,100061,1,0,0:0:0:0:
192,192,100117,1,0,0:0:0:0:
320,192,100173,1,0,0:0:0:0:
448,192,100228,1,2,0:0:0:0:
192,192,100395,1,8,0:0:0:0:
64,192,100395,1,0,0:0:0:0:
320,192,100395,1,0,0:0:0:0:
320,192,100561,1,0,0:0:0:0:
448,192,100645,1,0,0:0:0:0:
64,192,100728,1,0,0:0:0:0:
192,192,100728,1,2,0:0:0:0:
320,192,100895,1,0,0:0:0:0:
192,192,101061,1,0,0:0:0:0:
448,192,101061,1,8,0:0:0:0:
64,192,101061,1,0,0:0:0:0:
64,192,101228,1,0,0:0:0:0:
192,192,101395,1,0,0:0:0:0:
320,192,101478,1,0,0:0:0:0:
64,192,101561,1,0,0:0:0:0:
448,192,101561,1,2,0:0:0:0:
192,192,101728,1,8,0:0:0:0:
320,192,101728,1,0,0:0:0:0:
448,192,101728,1,0,0:0:0:0:
64,192,101895,1,0,0:0:0:0:
320,192,101895,1,2,0:0:0:0:
192,192,101978,1,0,0:0:0:0:
320,192,102061,1,0,0:0:0:0:
448,192,102061,1,0,0:0:0:0:
192,192,102145,1,0,0:0:0:0:
64,192,102145,1,0,0:0:0:0:
320,192,102228,1,0,0:0:0:0:
448,192,102228,1,0,0:0:0:0:
192,192,102311,1,0,0:0:0:0:
64,192,102311,1,0,0:0:0:0:
320,192,102395,1,0,0:0:0:0:
448,192,102395,1,0,0:0:0:0:
192,192,102478,1,0,0:0:0:0:
64,192,102478,1,0,0:0:0:0:
448,192,102561,1,0,0:0:0:0:
320,192,102561,1,0,0:0:0:0:
192,192,102645,1,0,0:0:0:0:
64,192,102645,1,0,0:0:0:0:
320,192,102728,1,0,0:0:0:0:
448,192,102728,1,0,0:0:0:0:
64,192,102811,1,0,0:0:0:0:
192,192,102811,1,0,0:0:0:0:
320,192,102895,1,0,0:0:0:0:
448,192,102895,1,0,0:0:0:0:
192,192,102978,1,0,0:0:0:0:
64,192,102978,1,0,0:0:0:0:
320,192,103061,1,0,0:0:0:0:
448,192,103061,128,4,103728:0:0:0:0:
192,192,103395,1,0,0:0:0:0:
64,192,103561,1,0,0:0:0:0:
320,192,103561,1,2,0:0:0:0:
192,192,103728,1,8,0:0:0:0:
64,192,103728,1,0,0:0:0:0:
320,192,103895,1,0,0:0:0:0:
64,192,104061,1,0,0:0:0:0:
192,192,104145,1,0,0:0:0:0:
448,192,104228,1,0,0:0:0:0:
320,192,104228,1,2,0:0:0:0:
192,192,104395,1,0,0:0:0:0:
64,192,104395,1,0,0:0:0:0:
448,192,104395,1,8,0:0:0:0:
320,192,104561,1,0,0:0:0:0:
192,192,104728,1,2,0:0:0:0:
64,192,104728,1,0,0:0:0:0:
448,192,104728,1,0,0:0:0:0:
320,192,104895,1,0,0:0:0:0:
64,192,105061,1,8,0:0:0:0:
192,192,105117,1,0,0:0:0:0:
320,192,105173,1,0,0:0:0:0:
448,192,105228,1,0,0:0:0:0:
192,192,105395,1,0,0:0:0:0:
64,192,105561,1,0,0:0:0:0:
320,192,105561,1,2,0:0:0:0:
192,192,105728,1,0,0:0:0:0:
448,192,105728,1,8,0:0:0:0:
320,192,105728,1,0,0:0:0:0:
64,192,105895,1,0,0:0:0:0:
448,192,106061,1,2,0:0:0:0:
320,192,106117,1,0,0:0:0:0:
192,192,106173,1,0,0:0:0:0:
64,192,106228,1,0,0:0:0:0:
192,192,106395,1,0,0:0:0:0:
320,192,106395,1,0,0:0:0:0:
448,192,106395,1,8,0:0:0:0:
64,192,106561,1,0,0:0:0:0:
192,192,106728,1,0,0:0:0:0:
320,192,106895,1,2,0:0:0:0:
448,192,107061,1,8,0:0:0:0:
320,192,107117,1,0,0:0:0:0:
192,192,107173,1,0,0:0:0:0:
64,192,107228,1,8,0:0:0:0:
192,192,107395,1,0,0:0:0:0:
320,192,107395,1,4,0:0:0:0:
448,192,107395,1,0,0:0:0:0:
64,192,107617,1,0,0:0:0:0:
64,192,107839,1,0,0:0:0:0:
192,192,108061,1,0,0:0:0:0:
192,192,108284,1,0,0:0:0:0:
320,192,108506,1,0,0:0:0:0:
320,192,108728,1,0,0:0:0:0:
448,192,108950,1,0,0:0:0:0:
448,192,109173,1,0,0:0:0:0:
320,192,109395,1,0,0:0:0:0:
320,192,109617,1,0,0:0:0:0:
192,192,109728,128,0,110061:0:0:0:0:
320,192,110061,1,2,0:0:0:0:
64,192,110061,1,0,0:0:0:0:
448,192,110061,1,4,0:0:0:0:
192,192,110561,1,0,0:0:0:0:
320,192,110561,1,4,0:0:0:0:
448,192,110561,1,2,0:0:0:0:
64,192,111061,1,0,0:0:0:0:
192,192,111061,1,4,0:0:0:0:
448,192,111061,1,2,0:0:0:0:
