osu file format v14

[General]
AudioFilename: Far east nightbird.mp3
AudioLeadIn: 0
PreviewTime: 85561
Countdown: 0
SampleSet: Normal
StackLeniency: 0.7
Mode: 3
LetterboxInBreaks: 0
SpecialStyle: 0
WidescreenStoryboard: 1

[Editor]
DistanceSpacing: 0.9
BeatDivisor: 4
GridSize: 16
TimelineZoom: 1

[Metadata]
Title:Far east nightbird
TitleUnicode:Far east nightbird
Artist:Nekomata Master
ArtistUnicode:猫叉Master
Creator:Meiko Senpai
Version:Easy
Source:Jubeat knit
Tags:Naoyuki Sato beatmania IIDX plus jukebeat pop'n music Sunny Park konami benami 佐藤直之 DRUM'N'BASS ドラムンベース
BeatmapID:684683
BeatmapSetID:305792

[Difficulty]
HPDrainRate:7
CircleSize:4
OverallDifficulty:7
ApproachRate:5
SliderMultiplier:1.4
SliderTickRate:1

[Events]
//Background and Video events
0,0,"night_starry_sky_shine_water_island_rock_galaxy.jpg",0,0
//Break Periods
//Storyboard Layer 0 (Background)
//Storyboard Layer 1 (Fail)
//Storyboard Layer 2 (Pass)
//Storyboard Layer 3 (Foreground)
//Storyboard Sound Samples

[TimingPoints]
62,333.333333333333,4,1,3,40,1,0
6061,-100,4,1,3,10,0,0
11395,-100,4,1,3,40,0,0
12728,-100,4,1,3,40,0,1
23395,-100,4,1,3,10,0,1
23478,-100,4,1,3,40,0,1
34061,-100,4,1,3,40,0,0
55395,-100,4,1,3,40,0,1
76728,-100,4,1,3,40,0,0
86061,-100,4,1,3,40,0,1
107395,-100,4,1,3,40,0,0

[HitObjects]
448,192,395,5,0,0:0:0:0:
64,192,561,1,0,0:0:0:0:
320,192,1061,1,0,0:0:0:0:
192,192,1228,1,0,0:0:0:0:
64,192,1728,1,0,0:0:0:0:
448,192,1895,1,0,0:0:0:0:
192,192,2395,1,0,0:0:0:0:
320,192,2561,1,0,0:0:0:0:
448,192,3061,1,0,0:0:0:0:
320,192,3228,1,0,0:0:0:0:
64,192,3728,1,0,0:0:0:0:
192,192,3895,1,0,0:0:0:0:
320,192,4395,1,0,0:0:0:0:
448,192,4561,1,0,0:0:0:0:
192,192,5061,1,0,0:0:0:0:
64,192,5228,1,0,0:0:0:0:
448,192,5728,1,0,0:0:0:0:
192,192,5895,1,0,0:0:0:0:
64,192,6395,1,0,0:0:0:0:
320,192,6561,1,0,0:0:0:0:
192,192,7061,1,0,0:0:0:0:
448,192,7228,1,0,0:0:0:0:
320,192,7728,1,0,0:0:0:0:
64,192,7895,1,0,0:0:0:0:
320,192,8395,1,0,0:0:0:0:
448,192,8561,1,0,0:0:0:0:
192,192,9061,1,0,0:0:0:0:
64,192,9228,1,0,0:0:0:0:
320,192,9728,1,0,0:0:0:0:
64,192,9895,1,0,0:0:0:0:
448,192,10395,1,0,0:0:0:0:
192,192,10561,1,0,0:0:0:0:
64,192,11061,1,0,0:0:0:0:
448,192,11395,128,0,11895:0:0:0:0:
320,192,11395,1,2,0:0:0:0:
64,192,11895,1,8,0:0:0:0:
320,192,12395,128,0,12728:0:0:0:0:
64,192,12728,128,4,13061:0:0:0:0:
192,192,13061,1,0,0:0:0:0:
448,192,13228,1,0,0:0:0:0:
192,192,13395,1,0,0:0:0:0:
448,192,13645,1,0,0:0:0:0:
192,192,13895,1,0,0:0:0:0:
320,192,14561,1,0,0:0:0:0:
64,192,14728,128,0,15061:0:0:0:0:
192,192,15061,128,0,15395:0:0:0:0:
448,192,15395,128,2,15728:0:0:0:0:
64,192,15728,1,8,0:0:0:0:
320,192,15895,1,0,0:0:0:0:
64,192,16061,1,0,0:0:0:0:
320,192,16311,1,0,0:0:0:0:
64,192,16561,1,0,0:0:0:0:
448,192,17228,1,0,0:0:0:0:
320,192,17395,1,0,0:0:0:0:
192,192,17561,1,2,0:0:0:0:
64,192,17728,128,0,18061:0:0:0:0:
320,192,18061,1,2,0:0:0:0:
192,192,18228,1,0,0:0:0:0:
448,192,18395,1,8,0:0:0:0:
64,192,18561,1,0,0:0:0:0:
320,192,18728,1,0,0:0:0:0:
192,192,18978,1,0,0:0:0:0:
320,192,19228,1,0,0:0:0:0:
64,192,19728,1,0,0:0:0:0:
192,192,19895,1,0,0:0:0:0:
448,192,20061,128,0,20395:0:0:0:0:
320,192,20395,128,0,20728:0:0:0:0:
64,192,20728,128,2,21061:0:0:0:0:
448,192,21061,1,8,0:0:0:0:
192,192,21228,1,0,0:0:0:0:
448,192,21395,1,0,0:0:0:0:
192,192,21645,1,0,0:0:0:0:
448,192,21895,1,0,0:0:0:0:
192,192,22395,128,0,23395:0:0:0:0:
320,192,22395,1,0,0:0:0:0:
448,192,22728,1,0,0:0:0:0:
64,192,23061,1,0,0:0:0:0:
448,192,23395,1,0,0:0:0:0:
64,192,23617,1,0,0:0:0:0:
320,192,23839,1,0,0:0:0:0:
192,192,24061,1,0,0:0:0:0:
448,192,24311,1,0,0:0:0:0:
64,192,24561,1,4,0:0:0:0:
320,192,24561,1,0,0:0:0:0:
448,192,25228,1,0,0:0:0:0:
320,192,25395,128,0,25728:0:0:0:0:
192,192,25728,128,8,26061:0:0:0:0:
64,192,26061,1,2,0:0:0:0:
448,192,26228,1,0,0:0:0:0:
192,192,26395,1,2,0:0:0:0:
320,192,26561,1,0,0:0:0:0:
64,192,26728,1,0,0:0:0:0:
448,192,26978,1,2,0:0:0:0:
192,192,27228,1,8,0:0:0:0:
320,192,27895,1,0,0:0:0:0:
64,192,28061,128,0,28395:0:0:0:0:
448,192,28395,128,8,28728:0:0:0:0:
192,192,28728,1,0,0:0:0:0:
64,192,29228,1,0,0:0:0:0:
320,192,29228,1,4,0:0:0:0:
448,192,29395,1,0,0:0:0:0:
192,192,29645,1,0,0:0:0:0:
448,192,29895,1,0,0:0:0:0:
320,192,30561,1,0,0:0:0:0:
448,192,30728,128,0,31061:0:0:0:0:
192,192,31061,128,0,31395:0:0:0:0:
64,192,31395,128,2,31728:0:0:0:0:
448,192,31728,1,8,0:0:0:0:
192,192,31895,1,0,0:0:0:0:
448,192,32061,1,2,0:0:0:0:
192,192,32311,1,2,0:0:0:0:
448,192,32561,1,8,0:0:0:0:
64,192,32728,1,2,0:0:0:0:
320,192,32895,1,8,0:0:0:0:
192,192,33061,1,2,0:0:0:0:
448,192,33228,1,8,0:0:0:0:
64,192,33395,128,0,33728:0:0:0:0:
320,192,33728,128,0,34061:0:0:0:0:
448,192,34061,128,4,35061:0:0:0:0:
192,192,35061,1,8,0:0:0:0:
64,192,35228,128,0,36395:0:0:0:0:
448,192,36395,1,8,0:0:0:0:
320,192,36561,128,0,37728:0:0:0:0:
64,192,37728,1,8,0:0:0:0:
448,192,38061,1,2,0:0:0:0:
192,192,38395,1,8,0:0:0:0:
448,192,38728,1,0,0:0:0:0:
320,192,38895,1,2,0:0:0:0:
64,192,39061,128,8,40561:0:0:0:0:
192,192,40561,1,0,0:0:0:0:
448,192,40728,1,2,0:0:0:0:
320,192,41061,1,8,0:0:0:0:
448,192,41395,1,0,0:0:0:0:
64,192,41561,1,2,0:0:0:0:
448,192,41728,128,8,43061:0:0:0:0:
320,192,42395,128,8,43061:0:0:0:0:
64,192,43395,1,2,0:0:0:0:
192,192,43561,1,2,0:0:0:0:
448,192,43728,1,8,0:0:0:0:
320,192,43895,1,0,0:0:0:0:
64,192,44061,1,0,0:0:0:0:
448,192,44228,1,2,0:0:0:0:
192,192,44395,1,8,0:0:0:0:
320,192,44561,1,0,0:0:0:0:
64,192,44728,128,4,45728:0:0:0:0:
448,192,45728,1,8,0:0:0:0:
320,192,45895,128,0,47061:0:0:0:0:
192,192,47061,1,8,0:0:0:0:
64,192,47228,128,0,48395:0:0:0:0:
192,192,48395,1,8,0:0:0:0:
320,192,48728,1,2,0:0:0:0:
448,192,49061,1,8,0:0:0:0:
320,192,49395,1,0,0:0:0:0:
192,192,49561,1,2,0:0:0:0:
64,192,49728,128,8,51061:0:0:0:0:
320,192,51061,1,8,0:0:0:0:
192,192,51228,128,0,51728:0:0:0:0:
448,192,51728,1,8,0:0:0:0:
320,192,51895,128,0,52395:0:0:0:0:
64,192,52395,1,8,0:0:0:0:
192,192,52561,128,0,53728:0:0:0:0:
448,192,53061,128,8,53728:0:0:0:0:
320,192,54061,1,2,0:0:0:0:
192,192,54228,1,2,0:0:0:0:
64,192,54395,128,8,55395:0:0:0:0:
448,192,54728,1,0,0:0:0:0:
320,192,55061,1,8,0:0:0:0:
192,192,55395,1,4,0:0:0:0:
448,192,55728,1,8,0:0:0:0:
192,192,56061,1,2,0:0:0:0:
320,192,56395,1,0,0:0:0:0:
64,192,56728,1,2,0:0:0:0:
448,192,57061,1,8,0:0:0:0:
320,192,57395,1,2,0:0:0:0:
192,192,57728,1,0,0:0:0:0:
64,192,58061,1,0,0:0:0:0:
320,192,58061,1,2,0:0:0:0:
448,192,58395,1,2,0:0:0:0:
192,192,58728,1,2,0:0:0:0:
320,192,59061,1,0,0:0:0:0:
448,192,59395,1,2,0:0:0:0:
320,192,59728,1,8,0:0:0:0:
192,192,60061,1,2,0:0:0:0:
64,192,60395,1,0,0:0:0:0:
192,192,60728,1,0,0:0:0:0:
448,192,60728,1,4,0:0:0:0:
320,192,61061,1,8,0:0:0:0:
64,192,61395,1,2,0:0:0:0:
448,192,61728,1,0,0:0:0:0:
192,192,62061,1,2,0:0:0:0:
320,192,62395,1,8,0:0:0:0:
64,192,62728,1,2,0:0:0:0:
448,192,63061,1,0,0:0:0:0:
320,192,63395,1,2,0:0:0:0:
64,192,63395,1,0,0:0:0:0:
192,192,63728,1,8,0:0:0:0:
448,192,64061,1,2,0:0:0:0:
64,192,64395,1,0,0:0:0:0:
320,192,64728,1,2,0:0:0:0:
192,192,65061,1,8,0:0:0:0:
448,192,65395,1,2,0:0:0:0:
320,192,65728,1,8,0:0:0:0:
192,192,66061,1,0,0:0:0:0:
64,192,66228,128,0,66728:0:0:0:0:
448,192,66728,128,2,67228:0:0:0:0:
192,192,67228,128,0,67728:0:0:0:0:
320,192,67728,128,8,68228:0:0:0:0:
448,192,68228,1,8,0:0:0:0:
64,192,68895,1,8,0:0:0:0:
448,192,69145,1,0,0:0:0:0:
192,192,69395,128,2,69895:0:0:0:0:
320,192,69895,128,0,70395:0:0:0:0:
64,192,70395,128,8,70895:0:0:0:0:
448,192,70895,1,8,0:0:0:0:
192,192,71395,1,4,0:0:0:0:
448,192,71561,128,0,72061:0:0:0:0:
320,192,72061,128,2,72561:0:0:0:0:
192,192,72561,128,0,73061:0:0:0:0:
64,192,73061,128,8,73561:0:0:0:0:
448,192,73561,1,8,0:0:0:0:
320,192,74228,1,0,0:0:0:0:
64,192,74478,1,0,0:0:0:0:
192,192,74728,128,0,75228:0:0:0:0:
320,192,75228,128,0,75728:0:0:0:0:
448,192,75728,128,0,76228:0:0:0:0:
192,192,76228,1,8,0:0:0:0:
64,192,76395,1,0,0:0:0:0:
192,192,76728,1,4,0:0:0:0:
320,192,76728,1,2,0:0:0:0:
448,192,76950,1,0,0:0:0:0:
64,192,77173,1,0,0:0:0:0:
192,192,77395,1,0,0:0:0:0:
320,192,77617,1,0,0:0:0:0:
448,192,77839,1,0,0:0:0:0:
192,192,78061,1,0,0:0:0:0:
64,192,78284,1,0,0:0:0:0:
320,192,78506,1,0,0:0:0:0:
64,192,78728,1,0,0:0:0:0:
192,192,78950,1,0,0:0:0:0:
448,192,79173,1,0,0:0:0:0:
320,192,79395,1,4,0:0:0:0:
192,192,79395,1,0,0:0:0:0:
64,192,79617,1,0,0:0:0:0:
448,192,79839,1,0,0:0:0:0:
320,192,80061,1,0,0:0:0:0:
192,192,80284,1,0,0:0:0:0:
64,192,80506,1,0,0:0:0:0:
448,192,80728,1,0,0:0:0:0:
320,192,80950,1,0,0:0:0:0:
192,192,81173,1,0,0:0:0:0:
64,192,81395,1,0,0:0:0:0:
448,192,81617,1,0,0:0:0:0:
192,192,81839,1,0,0:0:0:0:
320,192,82061,1,0,0:0:0:0:
448,192,82284,1,0,0:0:0:0:
64,192,82506,1,0,0:0:0:0:
192,192,82728,1,0,0:0:0:0:
320,192,82950,1,0,0:0:0:0:
448,192,83173,1,0,0:0:0:0:
192,192,83395,1,0,0:0:0:0:
320,192,83617,1,0,0:0:0:0:
64,192,83839,1,0,0:0:0:0:
192,192,84061,1,0,0:0:0:0:
320,192,84284,1,0,0:0:0:0:
448,192,84506,1,0,0:0:0:0:
192,192,84728,1,0,0:0:0:0:
64,192,84728,1,0,0:0:0:0:
448,192,85728,128,0,86061:0:0:0:0:
64,192,86061,128,4,86395:0:0:0:0:
192,192,86061,1,0,0:0:0:0:
320,192,86395,128,0,86728:0:0:0:0:
192,192,86728,1,0,0:0:0:0:
448,192,86895,1,2,0:0:0:0:
64,192,87061,128,8,87728:0:0:0:0:
192,192,87728,1,8,0:0:0:0:
320,192,87895,1,0,0:0:0:0:
448,192,88061,1,0,0:0:0:0:
192,192,88228,1,8,0:0:0:0:
320,192,88395,1,2,0:0:0:0:
64,192,88561,1,0,0:0:0:0:
448,192,88728,128,2,89061:0:0:0:0:
192,192,89061,128,8,89395:0:0:0:0:
320,192,89395,1,0,0:0:0:0:
64,192,89561,1,2,0:0:0:0:
448,192,89728,128,8,90395:0:0:0:0:
320,192,90395,1,8,0:0:0:0:
192,192,90561,1,0,0:0:0:0:
64,192,90728,1,0,0:0:0:0:
320,192,90895,1,2,0:0:0:0:
192,192,91061,1,8,0:0:0:0:
448,192,91228,1,0,0:0:0:0:
64,192,91395,128,4,91895:0:0:0:0:
192,192,91395,1,0,0:0:0:0:
320,192,91895,128,0,92395:0:0:0:0:
448,192,92395,128,8,93061:0:0:0:0:
64,192,93061,1,8,0:0:0:0:
192,192,93228,1,0,0:0:0:0:
320,192,93395,1,0,0:0:0:0:
448,192,93561,1,2,0:0:0:0:
320,192,93728,1,8,0:0:0:0:
192,192,93895,1,0,0:0:0:0:
64,192,94061,1,2,0:0:0:0:
448,192,94228,1,0,0:0:0:0:
192,192,94395,1,8,0:0:0:0:
320,192,94561,1,0,0:0:0:0:
64,192,94728,1,0,0:0:0:0:
448,192,94895,1,2,0:0:0:0:
192,192,95061,1,8,0:0:0:0:
320,192,95228,1,0,0:0:0:0:
64,192,95395,1,2,0:0:0:0:
448,192,95561,1,0,0:0:0:0:
192,192,95728,1,8,0:0:0:0:
320,192,95895,1,0,0:0:0:0:
64,192,96061,1,0,0:0:0:0:
192,192,96228,1,2,0:0:0:0:
320,192,96395,1,8,0:0:0:0:
448,192,96561,1,0,0:0:0:0:
192,192,96728,128,4,97061:0:0:0:0:
320,192,97061,128,8,97395:0:0:0:0:
448,192,97395,1,0,0:0:0:0:
64,192,97561,1,2,0:0:0:0:
192,192,97728,128,8,98395:0:0:0:0:
448,192,98395,1,8,0:0:0:0:
320,192,98561,1,0,0:0:0:0:
64,192,98728,1,0,0:0:0:0:
192,192,98895,1,2,0:0:0:0:
320,192,99061,1,8,0:0:0:0:
448,192,99228,1,0,0:0:0:0:
192,192,99395,128,2,99728:0:0:0:0:
320,192,99728,128,8,100061:0:0:0:0:
448,192,100061,1,0,0:0:0:0:
64,192,100228,1,2,0:0:0:0:
192,192,100395,128,8,101561:0:0:0:0:
64,192,101728,1,0,0:0:0:0:
448,192,101895,1,8,0:0:0:0:
320,192,102061,128,0,102561:0:0:0:0:
192,192,102561,128,0,103061:0:0:0:0:
64,192,103061,128,4,103728:0:0:0:0:
192,192,103728,1,8,0:0:0:0:
320,192,103895,1,0,0:0:0:0:
448,192,104061,1,0,0:0:0:0:
320,192,104228,1,2,0:0:0:0:
192,192,104395,1,8,0:0:0:0:
64,192,104561,1,0,0:0:0:0:
448,192,104728,1,2,0:0:0:0:
192,192,104895,1,0,0:0:0:0:
320,192,105061,1,8,0:0:0:0:
64,192,105228,1,0,0:0:0:0:
448,192,105395,1,0,0:0:0:0:
192,192,105561,1,2,0:0:0:0:
320,192,105728,1,8,0:0:0:0:
64,192,105895,1,0,0:0:0:0:
448,192,106061,1,2,0:0:0:0:
192,192,106228,1,0,0:0:0:0:
320,192,106395,1,8,0:0:0:0:
64,192,106561,1,0,0:0:0:0:
448,192,106728,1,0,0:0:0:0:
320,192,106895,1,2,0:0:0:0:
192,192,107061,1,8,0:0:0:0:
64,192,107228,1,0,0:0:0:0:
192,192,107395,1,4,0:0:0:0:
448,192,107395,1,2,0:0:0:0:
320,192,107617,1,0,0:0:0:0:
64,192,107839,1,0,0:0:0:0:
448,192,108061,1,0,0:0:0:0:
192,192,108284,1,0,0:0:0:0:
64,192,108506,1,0,0:0:0:0:
320,192,108728,1,0,0:0:0:0:
192,192,108950,1,0,0:0:0:0:
448,192,109173,1,0,0:0:0:0:
320,192,109395,1,0,0:0:0:0:
192,192,109617,1,0,0:0:0:0:
448,192,109839,1,0,0:0:0:0:
64,192,110061,1,2,0:0:0:0:
320,192,110061,1,4,0:0:0:0:
192,192,110561,1,6,0:0:0:0:
448,192,110561,1,0,0:0:0:0:
64,192,111061,1,2,0:0:0:0:
320,192,111061,1,4,0:0:0:0:
