osu file format v12

[General]
AudioFilename: Far east nightbird.mp3
AudioLeadIn: 1000
PreviewTime: 34045
Countdown: 0
SampleSet: Soft
StackLeniency: 0.7
Mode: 3
LetterboxInBreaks: 0

[Editor]
DistanceSpacing: 0.9
BeatDivisor: 4
GridSize: 16

[Metadata]
Title:Far east nightbird
TitleUnicode:Far east nightbird
Artist:Nekomata Master
ArtistUnicode:猫叉Master
Creator:Lieselotte
Version:LV.8
Source:Jubeat
Tags:knit
BeatmapID:244923
BeatmapSetID:90042

[Difficulty]
HPDrainRate:7
CircleSize:7
OverallDifficulty:7
ApproachRate:5
SliderMultiplier:1.8
SliderTickRate:1

[Events]
//Background and Video events
0,0,"BG.jpg",0,0
//Break Periods
//Storyboard Layer 0 (Background)
//Storyboard Layer 1 (Fail)
//Storyboard Layer 2 (Pass)
//Storyboard Layer 3 (Foreground)
//Storyboard Sound Samples
//Background Colour Transformations
3,100,0,0,0

[TimingPoints]
62,333.333333333333,4,2,0,50,1,0

[Colours]
Combo1 : 255,157,206
Combo2 : 179,179,255

[HitObjects]
402,192,395,1,0,0:0:0:0:
109,192,561,1,0,0:0:0:0:
256,192,728,1,0,0:0:0:0:
109,192,1061,1,0,0:0:0:0:
402,192,1228,1,0,0:0:0:0:
402,192,1728,1,0,0:0:0:0:
109,192,1895,1,0,0:0:0:0:
109,192,2395,1,0,0:0:0:0:
402,192,2561,1,0,0:0:0:0:
329,192,3061,1,0,0:0:0:0:
182,192,3228,1,0,0:0:0:0:
182,192,3728,1,0,0:0:0:0:
329,192,3895,1,0,0:0:0:0:
36,192,4395,1,0,0:0:0:0:
182,192,4561,1,0,0:0:0:0:
475,192,5061,1,0,0:0:0:0:
329,192,5228,1,0,0:0:0:0:
329,192,5728,1,0,0:0:0:0:
182,192,5895,1,0,0:0:0:0:
182,192,6395,1,0,0:0:0:0:
329,192,6561,1,0,0:0:0:0:
109,192,7061,1,0,0:0:0:0:
402,192,7228,1,0,0:0:0:0:
402,192,7728,1,0,0:0:0:0:
109,192,7895,1,0,0:0:0:0:
182,192,8395,1,0,0:0:0:0:
329,192,8561,1,0,0:0:0:0:
329,192,9061,1,0,0:0:0:0:
182,192,9228,1,0,0:0:0:0:
475,192,9728,1,0,0:0:0:0:
329,192,9895,1,0,0:0:0:0:
36,192,10395,1,0,0:0:0:0:
182,192,10561,1,0,0:0:0:0:
402,192,11061,1,0,0:0:0:0:
109,192,11395,1,0,0:0:0:0:
109,192,11728,1,0,0:0:0:0:
402,192,12061,1,0,0:0:0:0:
182,192,12228,1,0,0:0:0:0:
402,192,12395,1,0,0:0:0:0:
109,192,12728,128,0,13061:0:0:0:70:kick3.wav
402,192,13061,1,0,0:0:0:0:
182,192,13395,1,0,0:0:0:0:
329,192,13645,1,0,0:0:0:0:
182,192,13895,1,0,0:0:0:0:
109,192,14561,1,0,0:0:0:0:
329,192,14728,1,0,0:0:0:0:
182,192,15061,1,0,0:0:0:0:
402,192,15395,128,0,15728:0:0:0:70:kick3.wav
109,192,15728,1,0,0:0:0:0:
329,192,16061,1,0,0:0:0:0:
182,192,16311,1,0,0:0:0:0:
329,192,16561,1,0,0:0:0:0:
109,192,17228,1,0,0:0:0:0:
402,192,17395,1,0,0:0:0:0:
182,192,17561,1,0,0:0:0:70:kick3.wav
329,192,17728,1,0,0:0:0:0:
182,192,18061,1,0,0:0:0:70:kick3.wav
36,192,18228,1,0,0:0:0:0:
329,192,18395,1,0,0:0:0:0:
182,192,18561,1,0,0:0:0:0:
402,192,18728,1,0,0:0:0:0:
182,192,18978,1,0,0:0:0:0:
402,192,19228,1,0,0:0:0:0:
109,192,19895,1,0,0:0:0:0:
329,192,20061,1,0,0:0:0:0:
182,192,20395,1,0,0:0:0:0:
475,192,20728,128,0,21061:0:0:0:70:kick3.wav
182,192,21061,1,0,0:0:0:0:
402,192,21395,1,0,0:0:0:0:
109,192,21645,1,0,0:0:0:0:
402,192,21895,1,0,0:0:0:0:
256,192,22395,128,0,23395:0:0:0:0:
36,192,23395,128,0,24061:0:0:0:0:
329,192,24061,1,0,0:0:0:0:
182,192,24311,1,0,0:0:0:0:
329,192,24561,1,0,0:0:0:0:
402,192,25228,1,0,0:0:0:0:
182,192,25395,1,0,0:0:0:0:
329,192,25728,1,0,0:0:0:0:
109,192,26061,128,0,26395:0:0:0:70:kick3.wav
402,192,26395,1,0,0:0:0:70:kick3.wav
329,192,26728,1,0,0:0:0:0:
182,192,26978,1,0,0:0:0:70:kick3.wav
329,192,27228,1,0,0:0:0:0:
402,192,27895,1,0,0:0:0:0:
109,192,28061,1,0,0:0:0:0:
402,192,28228,1,0,0:0:0:70:kick3.wav
182,192,28395,1,0,0:0:0:0:
329,192,28728,1,0,0:0:0:70:kick3.wav
475,192,28895,1,0,0:0:0:0:
182,192,29061,1,0,0:0:0:0:
329,192,29228,1,0,0:0:0:0:
475,192,29228,1,0,0:0:0:0:
109,192,29561,1,0,0:0:0:70:kick3.wav
402,192,29728,1,0,0:0:0:0:
109,192,30061,1,0,0:0:0:70:kick3.wav
402,192,30561,1,0,0:0:0:0:
182,192,30728,1,0,0:0:0:0:
329,192,31061,1,0,0:0:0:0:
182,192,31395,128,0,31728:0:0:0:70:kick3.wav
475,192,31728,1,0,0:0:0:0:
402,192,32061,1,0,0:0:0:70:kick3.wav
182,192,32311,1,0,0:0:0:70:kick3.wav
402,192,32561,1,0,0:0:0:0:
109,192,32728,1,0,0:0:0:70:kick3.wav
329,192,32895,1,0,0:0:0:0:
109,192,33061,1,0,0:0:0:70:kick3.wav
329,192,33228,1,0,0:0:0:0:
256,192,33395,128,0,34061:0:0:0:0:
36,192,34061,1,0,0:0:0:70:kick3.wav
109,192,35061,1,0,0:0:0:0:
402,192,35228,1,0,0:0:0:0:
402,192,36395,1,0,0:0:0:0:
109,192,36561,1,0,0:0:0:0:
329,192,37728,1,0,0:0:0:0:
182,192,38061,1,0,0:0:0:70:kick3.wav
109,192,38395,1,0,0:0:0:0:
402,192,38728,1,0,0:0:0:0:
109,192,38895,1,0,0:0:0:70:kick3.wav
402,192,39061,1,0,0:0:0:0:
36,192,40561,1,0,0:0:0:0:
109,192,40645,1,0,0:0:0:0:
182,192,40728,1,0,0:0:0:70:kick3.wav
329,192,41061,1,0,0:0:0:0:
182,192,41395,1,0,0:0:0:0:
329,192,41561,1,0,0:0:0:70:kick3.wav
182,192,41728,1,0,0:0:0:0:
402,192,42061,1,0,0:0:0:70:kick3.wav
182,192,42395,1,0,0:0:0:0:
402,192,42728,1,0,0:0:0:0:
109,192,42895,1,0,0:0:0:70:kick3.wav
329,192,43061,1,0,0:0:0:0:
182,192,43395,1,0,0:0:0:70:kick3.wav
329,192,43561,1,0,0:0:0:70:kick3.wav
109,192,43728,1,0,0:0:0:0:
402,192,43895,128,0,44728:0:0:0:0:
109,192,44728,1,0,0:0:0:70:kick3.wav
329,192,45728,1,0,0:0:0:0:
182,192,45895,1,0,0:0:0:0:
182,192,47061,1,0,0:0:0:0:
329,192,47228,1,0,0:0:0:0:
109,192,48395,1,0,0:0:0:0:
402,192,48728,1,0,0:0:0:70:kick3.wav
329,192,49061,1,0,0:0:0:0:
182,192,49395,1,0,0:0:0:0:
329,192,49561,1,0,0:0:0:70:kick3.wav
182,192,49728,1,0,0:0:0:0:
109,192,51061,1,0,0:0:0:0:
402,192,51228,1,0,0:0:0:0:
402,192,51728,1,0,0:0:0:0:
109,192,51895,1,0,0:0:0:0:
182,192,52395,1,0,0:0:0:0:
329,192,52561,1,0,0:0:0:0:
109,192,52728,1,0,0:0:0:70:kick3.wav
402,192,53061,1,0,0:0:0:0:
109,192,53395,1,0,0:0:0:0:
402,192,53561,1,0,0:0:0:70:kick3.wav
109,192,53728,1,0,0:0:0:0:
182,192,54061,1,0,0:0:0:70:kick3.wav
329,192,54228,1,0,0:0:0:70:kick3.wav
475,192,54395,1,0,0:0:0:0:
36,192,54395,128,0,55395:0:0:0:0:
475,192,55395,1,0,0:0:0:70:kick3.wav
329,192,55561,1,0,0:0:0:0:
402,192,55728,1,0,0:0:0:0:
329,192,55895,1,0,0:0:0:0:
109,192,56061,1,0,0:0:0:70:kick3.wav
402,192,56228,1,0,0:0:0:0:
182,192,56395,1,0,0:0:0:0:
329,192,56561,1,0,0:0:0:0:
182,192,56728,1,0,0:0:0:70:kick3.wav
36,192,56895,1,0,0:0:0:70:kick3.wav
182,192,57061,128,0,57395:0:0:0:0:
402,192,57395,1,0,0:0:0:70:kick3.wav
329,192,57561,1,0,0:0:0:0:
475,192,57728,1,0,0:0:0:0:
329,192,57895,1,0,0:0:0:0:
36,192,58061,1,0,0:0:0:70:kick3.wav
182,192,58228,1,0,0:0:0:0:
109,192,58395,1,0,0:0:0:70:kick3.wav
182,192,58561,1,0,0:0:0:0:
402,192,58728,1,0,0:0:0:70:kick3.wav
109,192,58895,1,0,0:0:0:70:kick3.wav
329,192,59061,1,0,0:0:0:0:
182,192,59228,1,0,0:0:0:0:
329,192,59395,1,0,0:0:0:70:kick3.wav
475,192,59561,1,0,0:0:0:70:kick3.wav
329,192,59728,128,0,60061:0:0:0:0:
109,192,60061,1,0,0:0:0:70:kick3.wav
182,192,60228,1,0,0:0:0:0:
402,192,60395,1,0,0:0:0:0:
329,192,60561,1,0,0:0:0:0:
182,192,60728,1,0,0:0:0:70:kick3.wav
402,192,60895,1,0,0:0:0:0:
329,192,61061,1,0,0:0:0:0:
402,192,61228,1,0,0:0:0:0:
182,192,61395,1,0,0:0:0:70:kick3.wav
329,192,61561,1,0,0:0:0:0:
109,192,61728,1,0,0:0:0:0:
402,192,61895,1,0,0:0:0:0:
109,192,62061,1,0,0:0:0:70:kick3.wav
329,192,62228,1,0,0:0:0:70:kick3.wav
182,192,62395,128,0,62728:0:0:0:0:
402,192,62728,1,0,0:0:0:70:kick3.wav
36,192,62895,1,0,0:0:0:0:
109,192,63061,1,0,0:0:0:0:
182,192,63228,1,0,0:0:0:0:
329,192,63395,1,0,0:0:0:70:kick3.wav
109,192,63561,1,0,0:0:0:0:
182,192,63728,1,0,0:0:0:0:
109,192,63895,1,0,0:0:0:0:
329,192,64061,1,0,0:0:0:70:kick3.wav
182,192,64228,1,0,0:0:0:0:
402,192,64395,1,0,0:0:0:0:
109,192,64561,1,0,0:0:0:0:
402,192,64728,1,0,0:0:0:70:kick3.wav
182,192,64895,1,0,0:0:0:70:kick3.wav
329,192,65061,128,0,65395:0:0:0:0:
36,192,65395,1,0,0:0:0:70:kick3.wav
182,192,65561,1,0,0:0:0:0:
329,192,65728,1,0,0:0:0:0:
475,192,65895,1,0,0:0:0:0:
256,192,66061,1,0,0:0:0:70:kick3.wav
36,192,66228,128,0,66561:0:0:0:0:
182,192,66728,128,0,67061:0:0:0:0:
329,192,67228,128,0,67561:0:0:0:0:
475,192,67728,128,0,68061:0:0:0:0:
256,192,68228,1,0,0:0:0:0:
402,192,68895,1,0,0:0:0:0:
402,192,69145,1,0,0:0:0:0:
109,192,69395,128,0,69728:0:0:0:0:
402,192,69895,128,0,70228:0:0:0:0:
109,192,70395,128,0,70728:0:0:0:0:
402,192,70895,1,0,0:0:0:0:
475,192,71561,128,0,71895:0:0:0:0:
329,192,72061,128,0,72395:0:0:0:0:
182,192,72561,128,0,72895:0:0:0:0:
36,192,73061,128,0,73395:0:0:0:0:
256,192,73561,1,0,0:0:0:0:
109,192,74228,1,0,0:0:0:0:
109,192,74478,1,0,0:0:0:0:
402,192,74728,128,0,75061:0:0:0:0:
109,192,75228,128,0,75561:0:0:0:0:
402,192,75728,128,0,76061:0:0:0:0:
109,192,76228,1,0,0:0:0:0:
256,192,76728,1,0,0:0:0:0:
475,192,79061,1,0,0:0:0:0:
402,192,79145,1,0,0:0:0:0:
329,192,79228,1,0,0:0:0:0:
256,192,79311,1,0,0:0:0:0:
182,192,79395,1,0,0:0:0:0:
329,192,79617,1,0,0:0:0:0:
182,192,79839,1,0,0:0:0:0:
329,192,80061,1,0,0:0:0:0:
329,192,80284,1,0,0:0:0:0:
109,192,80506,1,0,0:0:0:0:
109,192,80728,1,0,0:0:0:0:
329,192,80950,1,0,0:0:0:0:
182,192,81173,1,0,0:0:0:0:
329,192,81395,1,0,0:0:0:0:
329,192,81617,1,0,0:0:0:0:
109,192,81839,1,0,0:0:0:0:
182,192,82061,1,0,0:0:0:0:
402,192,82284,1,0,0:0:0:0:
182,192,82506,1,0,0:0:0:0:
329,192,82728,1,0,0:0:0:0:
329,192,82950,1,0,0:0:0:0:
109,192,83173,1,0,0:0:0:0:
109,192,83395,1,0,0:0:0:0:
402,192,83617,1,0,0:0:0:0:
182,192,83839,1,0,0:0:0:0:
402,192,84061,128,0,84395:0:0:0:0:
182,192,84395,1,0,0:0:0:0:
36,192,84561,1,0,0:0:0:0:
182,192,84645,1,0,0:0:0:0:
329,192,84728,1,0,0:0:0:0:
475,192,86061,1,0,0:0:0:70:kick3.wav
36,192,86061,1,0,0:0:0:0:
109,192,86395,1,0,0:0:0:0:
329,192,86728,1,0,0:0:0:0:
182,192,86895,1,0,0:0:0:70:kick3.wav
329,192,87061,1,0,0:0:0:0:
402,192,87728,1,0,0:0:0:0:
109,192,87895,1,0,0:0:0:0:
402,192,88061,1,0,0:0:0:0:
182,192,88228,1,0,0:0:0:70:kick3.wav
402,192,88395,1,0,0:0:0:0:
329,192,88561,1,0,0:0:0:0:
182,192,88728,1,0,0:0:0:70:kick3.wav
109,192,89061,1,0,0:0:0:0:
329,192,89395,128,0,89728:0:0:0:0:
36,192,89728,1,0,0:0:0:0:
109,192,90395,1,0,0:0:0:0:
329,192,90561,1,0,0:0:0:0:
109,192,90728,1,0,0:0:0:0:
402,192,90895,1,0,0:0:0:70:kick3.wav
109,192,91061,1,0,0:0:0:0:
329,192,91228,1,0,0:0:0:0:
182,192,91395,1,0,0:0:0:70:kick3.wav
402,192,91895,1,0,0:0:0:0:
109,192,92395,1,0,0:0:0:0:
182,192,93061,1,0,0:0:0:0:
402,192,93228,1,0,0:0:0:0:
182,192,93395,1,0,0:0:0:0:
329,192,93561,1,0,0:0:0:70:kick3.wav
182,192,93728,1,0,0:0:0:0:
402,192,93895,1,0,0:0:0:0:
109,192,94061,1,0,0:0:0:70:kick3.wav
329,192,94228,1,0,0:0:0:0:
182,192,94395,128,0,94728:0:0:0:0:
475,192,94728,1,0,0:0:0:0:
329,192,94895,1,0,0:0:0:70:kick3.wav
109,192,95061,1,0,0:0:0:0:
329,192,95228,1,0,0:0:0:0:
182,192,95395,128,0,95728:0:0:0:0:
475,192,95728,1,0,0:0:0:0:
329,192,95895,1,0,0:0:0:0:
109,192,96061,1,0,0:0:0:0:
182,192,96228,1,0,0:0:0:70:kick3.wav
402,192,96395,1,0,0:0:0:0:
329,192,96561,1,0,0:0:0:0:
109,192,96728,1,0,0:0:0:70:kick3.wav
182,192,97061,1,0,0:0:0:0:
402,192,97395,1,0,0:0:0:0:
109,192,97561,1,0,0:0:0:70:kick3.wav
402,192,97728,1,0,0:0:0:0:
329,192,98395,1,0,0:0:0:0:
109,192,98561,1,0,0:0:0:0:
329,192,98728,1,0,0:0:0:0:
36,192,98895,1,0,0:0:0:70:kick3.wav
329,192,99061,128,0,99395:0:0:0:0:
109,192,99395,1,0,0:0:0:70:kick3.wav
182,192,99728,1,0,0:0:0:0:
329,192,100061,128,0,100395:0:0:0:0:
109,192,100395,1,0,0:0:0:0:
402,192,101728,1,0,0:0:0:0:
109,192,101895,1,0,0:0:0:70:kick3.wav
256,192,102061,1,0,0:0:0:0:
256,192,102561,1,0,0:0:0:70:kick3.wav
256,192,103061,1,0,0:0:0:70:kick3.wav
109,192,103728,1,0,0:0:0:0:
402,192,103895,1,0,0:0:0:0:
109,192,104061,1,0,0:0:0:0:
329,192,104228,1,0,0:0:0:70:kick3.wav
109,192,104395,1,0,0:0:0:0:
182,192,104561,1,0,0:0:0:0:
402,192,104728,1,0,0:0:0:70:kick3.wav
182,192,104895,1,0,0:0:0:0:
329,192,105061,128,0,105395:0:0:0:0:
109,192,105395,1,0,0:0:0:0:
182,192,105561,1,0,0:0:0:70:kick3.wav
402,192,105728,1,0,0:0:0:0:
182,192,105895,1,0,0:0:0:0:
329,192,106061,128,0,106395:0:0:0:70:kick3.wav
109,192,106395,1,0,0:0:0:0:
182,192,106561,1,0,0:0:0:0:
402,192,106728,1,0,0:0:0:70:kick3.wav
182,192,106895,1,0,0:0:0:70:kick3.wav
36,192,107061,128,0,107395:0:0:0:0:
329,192,107395,1,0,0:0:0:70:kick3.wav
182,192,107617,1,0,0:0:0:0:
329,192,107839,1,0,0:0:0:0:
109,192,108061,1,0,0:0:0:0:
402,192,108284,1,0,0:0:0:0:
109,192,108506,1,0,0:0:0:0:
329,192,108728,1,0,0:0:0:0:
182,192,108950,1,0,0:0:0:0:
329,192,109173,1,0,0:0:0:0:
109,192,109395,1,0,0:0:0:0:
475,192,109617,1,0,0:0:0:0:
36,192,109728,1,0,0:0:0:0:
109,192,109811,1,0,0:0:0:0:
182,192,109895,1,0,0:0:0:0:
256,192,109978,1,0,0:0:0:0:
329,192,110061,1,0,0:0:0:0:
475,192,110061,1,0,0:0:0:70:kick3.wav
329,192,110561,1,0,0:0:0:0:
475,192,110561,1,0,0:0:0:70:kick3.wav
329,192,111061,1,0,0:0:0:0:
475,192,111061,1,0,0:0:0:70:kick3.wav
