osu file format v14

[General]
AudioFilename: Far east nightbird.mp3
AudioLeadIn: 0
PreviewTime: 85728
Countdown: 0
SampleSet: None
StackLeniency: 0.7
Mode: 3
LetterboxInBreaks: 0
SpecialStyle: 0
WidescreenStoryboard: 0

[Editor]
DistanceSpacing: 0.9
BeatDivisor: 4
GridSize: 16
TimelineZoom: 1.4

[Metadata]
Title:Far east nightbird
TitleUnicode:Far east nightbird
Artist:Nekomata Master
ArtistUnicode:猫叉Master
Creator:Level 51
Version:cat fork
Source:Jubeat
Tags:
BeatmapID:737102
BeatmapSetID:333009

[Difficulty]
HPDrainRate:8.5
CircleSize:7
OverallDifficulty:8
ApproachRate:5
SliderMultiplier:1.4
SliderTickRate:1

[Events]
//Background and Video events
0,0,"BG.jpg",0,0
//Break Periods
//Storyboard Layer 0 (Background)
//Storyboard Layer 1 (Fail)
//Storyboard Layer 2 (Pass)
//Storyboard Layer 3 (Foreground)
//Storyboard Sound Samples

[TimingPoints]
62,333.333333333333,4,2,0,20,1,0
6061,-100,4,2,0,5,0,0
9061,-100,4,2,0,5,0,0
11395,-100,4,3,0,25,0,0
12061,-100,4,3,0,35,0,0
12728,-100,4,2,0,35,0,0
23395,-100,4,2,0,50,0,0
23561,-100,4,3,0,50,0,0
24061,-100,4,2,0,35,0,0
28728,-100,4,3,0,15,0,0
29228,-100,4,2,0,35,0,0
31728,-100,4,3,0,35,0,0
32061,-100,4,2,0,35,0,0
33478,-100,4,3,0,35,0,0
34061,-100,4,2,0,35,0,0
55395,-100,4,2,0,35,0,1
66061,-100,4,2,0,35,0,0
77173,-100,4,3,0,35,0,0
86061,-100,4,3,0,35,0,1
86061,-100,4,2,0,35,0,1
96561,-100,4,3,0,35,0,0
96728,-100,4,2,0,35,0,1
107395,-100,4,2,0,35,0,0
107478,-100,4,2,0,20,0,0
107617,-100,4,3,0,20,0,0
109561,-100,4,3,0,30,0,0
110061,-100,4,3,0,50,0,0

[HitObjects]
402,192,395,128,0,561:0:0:0:0:
329,192,561,128,0,728:0:0:0:0:
402,192,728,1,0,0:0:0:0:
475,192,728,1,0,0:0:0:0:
256,192,728,1,4,0:0:0:0:
182,192,728,1,0,0:0:0:0:
329,192,895,1,0,0:0:0:0:
109,192,895,1,0,0:0:0:0:
256,192,1061,128,0,1228:0:0:0:0:
36,192,1061,1,0,0:0:0:0:
475,192,1061,1,0,0:0:0:0:
182,192,1228,128,0,1395:0:0:0:0:
402,192,1228,1,0,0:0:0:0:
36,192,1395,1,0,0:0:0:0:
475,192,1395,1,0,0:0:0:0:
109,192,1561,1,0,0:0:0:0:
329,192,1561,1,0,0:0:0:0:
475,192,1728,128,0,1895:0:0:0:0:
182,192,1728,1,0,0:0:0:0:
256,192,1728,1,0,0:0:0:0:
402,192,1895,128,0,2061:0:0:0:0:
109,192,1895,1,0,0:0:0:0:
256,192,2061,1,0,0:0:0:0:
329,192,2061,1,0,0:0:0:0:
36,192,2061,1,0,0:0:0:0:
109,192,2228,1,0,0:0:0:0:
402,192,2228,1,0,0:0:0:0:
256,192,2395,128,0,2561:0:0:0:0:
475,192,2395,1,0,0:0:0:0:
36,192,2395,1,0,0:0:0:0:
182,192,2561,128,0,2728:0:0:0:0:
329,192,2561,1,0,0:0:0:0:
402,192,2645,1,0,0:0:0:0:
475,192,2728,1,0,0:0:0:0:
36,192,2728,1,0,0:0:0:0:
109,192,2811,1,0,0:0:0:0:
329,192,2895,1,0,0:0:0:0:
256,192,2895,1,0,0:0:0:0:
402,192,3061,128,0,3228:0:0:0:0:
182,192,3061,1,0,0:0:0:0:
329,192,3228,128,0,3395:0:0:0:0:
109,192,3228,1,0,0:0:0:0:
182,192,3311,1,0,0:0:0:0:
36,192,3395,1,0,0:0:0:0:
256,192,3395,1,0,0:0:0:0:
475,192,3395,1,0,0:0:0:0:
402,192,3478,1,0,0:0:0:0:
109,192,3561,1,0,0:0:0:0:
329,192,3561,1,0,0:0:0:0:
256,192,3728,128,0,3895:0:0:0:0:
402,192,3728,1,0,0:0:0:0:
182,192,3895,128,0,4061:0:0:0:0:
475,192,3895,1,0,0:0:0:0:
402,192,3978,1,0,0:0:0:0:
329,192,4061,1,0,0:0:0:0:
36,192,4061,1,0,0:0:0:0:
109,192,4228,1,0,0:0:0:0:
256,192,4228,1,0,0:0:0:0:
402,192,4395,128,0,4561:0:0:0:0:
109,192,4395,1,0,0:0:0:0:
256,192,4395,1,0,0:0:0:0:
475,192,4561,128,0,4728:0:0:0:0:
36,192,4561,1,0,0:0:0:0:
182,192,4645,1,0,0:0:0:0:
329,192,4728,1,0,0:0:0:0:
402,192,4728,1,0,0:0:0:0:
329,192,4895,1,0,0:0:0:0:
402,192,4895,1,0,0:0:0:0:
182,192,5061,128,0,5228:0:0:0:0:
329,192,5061,1,0,0:0:0:0:
402,192,5061,1,0,0:0:0:0:
329,192,5228,1,0,0:0:0:0:
475,192,5228,1,0,0:0:0:0:
36,192,5228,128,0,5395:0:0:0:0:
256,192,5311,1,0,0:0:0:0:
109,192,5395,1,0,0:0:0:0:
402,192,5395,1,0,0:0:0:0:
329,192,5478,1,0,0:0:0:0:
256,192,5561,1,0,0:0:0:0:
182,192,5645,1,0,0:0:0:0:
402,192,5728,1,0,0:0:0:0:
109,192,5728,1,0,0:0:0:0:
329,192,5811,1,0,0:0:0:0:
256,192,5895,1,0,0:0:0:0:
329,192,5978,1,0,0:0:0:0:
402,192,6061,1,0,0:0:0:0:
475,192,6061,1,0,0:0:0:0:
256,192,6228,1,2,0:0:0:0:
402,192,6395,128,2,6561:0:0:0:0:
36,192,6395,1,2,0:0:0:0:
109,192,6561,128,2,6728:0:0:0:0:
475,192,6561,1,2,0:0:0:0:
256,192,6895,1,2,0:0:0:0:
329,192,7061,128,2,7228:0:0:0:0:
36,192,7061,1,2,0:0:0:0:
182,192,7228,128,2,7395:0:0:0:0:
475,192,7228,1,2,0:0:0:0:
256,192,7561,1,2,0:0:0:0:
402,192,7728,128,2,7895:0:0:0:0:
36,192,7728,1,2,0:0:0:0:
475,192,7895,1,2,0:0:0:0:
109,192,7895,128,2,8061:0:0:0:0:
256,192,8228,1,2,0:0:0:0:
329,192,8395,128,2,8561:0:0:0:0:
36,192,8395,1,2,0:0:0:0:
182,192,8561,128,2,8728:0:0:0:0:
475,192,8561,1,2,0:0:0:0:
402,192,9061,128,2,9228:0:0:0:0:
36,192,9061,1,2,0:0:0:0:
109,192,9228,128,2,9395:0:0:0:0:
475,192,9228,1,2,0:0:0:0:
109,192,9728,128,2,9895:0:0:0:0:
36,192,9728,1,2,0:0:0:0:
402,192,9895,128,2,10061:0:0:0:0:
475,192,9895,1,2,0:0:0:0:
475,192,10395,128,2,10561:0:0:0:0:
402,192,10395,1,2,0:0:0:0:
36,192,10561,128,2,10728:0:0:0:0:
109,192,10561,1,2,0:0:0:0:
256,192,11061,128,2,11228:0:0:0:0:
109,192,11395,1,0,0:0:0:0:
182,192,11395,1,0,0:0:0:0:
329,192,11395,1,0,0:0:0:0:
402,192,11395,1,0,0:0:0:0:
182,192,11645,1,0,0:0:0:0:
329,192,11645,1,0,0:0:0:0:
256,192,11728,1,0,0:0:0:0:
36,192,11895,1,0,0:0:0:0:
109,192,11895,1,0,0:0:0:0:
402,192,11895,1,0,0:0:0:0:
475,192,11895,1,0,0:0:0:0:
182,192,12061,1,2,0:0:0:0:
256,192,12145,1,2,0:0:0:0:
329,192,12228,1,2,0:0:0:0:
402,192,12311,1,2,0:0:0:0:
475,192,12395,1,2,0:0:0:0:
256,192,12395,1,0,0:0:0:0:
402,192,12478,1,2,0:0:0:0:
182,192,12478,1,0,0:0:0:0:
329,192,12561,1,2,0:0:0:0:
109,192,12561,1,0,0:0:0:0:
256,192,12645,1,2,0:0:0:0:
36,192,12645,1,0,0:0:0:0:
182,192,12728,1,4,0:0:0:0:
109,192,12728,1,4,0:0:0:0:
329,192,12728,1,4,0:0:0:0:
402,192,12728,1,4,0:0:0:0:
256,192,13061,1,0,0:0:0:0:
475,192,13061,1,0,0:0:0:0:
109,192,13061,1,0,0:0:0:0:
402,192,13228,1,0,0:0:0:0:
36,192,13228,1,0,0:0:0:0:
109,192,13395,1,0,0:0:0:0:
329,192,13395,1,0,0:0:0:0:
109,192,13561,1,0,0:0:0:0:
329,192,13561,1,0,0:0:0:0:
402,192,13561,1,0,0:0:0:0:
256,192,13728,1,0,0:0:0:0:
475,192,13728,1,0,0:0:0:0:
36,192,13728,1,0,0:0:0:0:
182,192,13895,1,0,0:0:0:0:
402,192,13895,1,0,0:0:0:0:
329,192,13978,1,0,0:0:0:0:
256,192,14061,1,0,0:0:0:0:
109,192,14061,1,0,0:0:0:0:
475,192,14061,1,0,0:0:0:0:
109,192,14228,1,0,0:0:0:0:
256,192,14228,1,0,0:0:0:0:
475,192,14228,1,0,0:0:0:0:
402,192,14395,1,0,0:0:0:0:
182,192,14395,1,0,0:0:0:0:
36,192,14395,1,0,0:0:0:0:
109,192,14561,1,0,0:0:0:0:
329,192,14561,1,0,0:0:0:0:
256,192,14645,1,0,0:0:0:0:
182,192,14728,1,0,0:0:0:0:
402,192,14728,1,0,0:0:0:0:
182,192,14895,1,0,0:0:0:0:
402,192,14895,1,0,0:0:0:0:
475,192,15061,1,0,0:0:0:0:
329,192,15061,1,0,0:0:0:0:
109,192,15061,1,0,0:0:0:0:
36,192,15228,1,0,0:0:0:0:
256,192,15228,1,0,0:0:0:0:
182,192,15395,1,4,0:0:0:0:
329,192,15395,1,4,0:0:0:0:
402,192,15395,1,4,0:0:0:0:
109,192,15395,1,4,0:0:0:0:
36,192,15728,1,0,0:0:0:0:
182,192,15728,1,0,0:0:0:0:
329,192,15728,1,0,0:0:0:0:
475,192,15728,1,0,0:0:0:0:
109,192,15895,1,0,0:0:0:0:
402,192,15895,1,0,0:0:0:0:
182,192,16061,1,0,0:0:0:0:
256,192,16061,1,0,0:0:0:0:
182,192,16228,1,0,0:0:0:0:
256,192,16228,1,0,0:0:0:0:
402,192,16395,1,0,0:0:0:0:
475,192,16395,1,0,0:0:0:0:
36,192,16395,1,0,0:0:0:0:
109,192,16561,1,0,0:0:0:0:
329,192,16561,1,0,0:0:0:0:
256,192,16645,1,0,0:0:0:0:
182,192,16728,1,0,0:0:0:0:
402,192,16728,1,0,0:0:0:0:
36,192,16728,1,0,0:0:0:0:
182,192,16895,1,0,0:0:0:0:
402,192,16895,1,0,0:0:0:0:
36,192,16895,1,0,0:0:0:0:
329,192,17061,1,0,0:0:0:0:
475,192,17061,1,0,0:0:0:0:
256,192,17061,1,0,0:0:0:0:
109,192,17228,1,0,0:0:0:0:
402,192,17228,1,0,0:0:0:0:
182,192,17395,1,0,0:0:0:0:
329,192,17395,1,0,0:0:0:0:
256,192,17478,1,0,0:0:0:0:
109,192,17561,1,0,0:0:0:0:
402,192,17561,1,0,0:0:0:0:
36,192,17728,1,0,0:0:0:0:
475,192,17728,1,0,0:0:0:0:
109,192,17895,1,0,0:0:0:0:
329,192,17895,1,0,0:0:0:0:
182,192,17978,1,0,0:0:0:0:
36,192,18061,1,0,0:0:0:0:
256,192,18061,1,0,0:0:0:0:
475,192,18061,1,0,0:0:0:0:
329,192,18228,128,0,18395:0:0:0:0:
182,192,18395,1,0,0:0:0:0:
402,192,18561,128,0,18728:0:0:0:0:
256,192,18561,128,0,18728:0:0:0:0:
109,192,18728,1,0,0:0:0:0:
182,192,18895,1,0,0:0:0:0:
329,192,18895,1,0,0:0:0:0:
36,192,19061,1,0,0:0:0:0:
475,192,19061,1,0,0:0:0:0:
109,192,19061,1,0,0:0:0:0:
402,192,19061,1,0,0:0:0:0:
109,192,19228,1,0,0:0:0:0:
402,192,19228,1,0,0:0:0:0:
182,192,19311,1,0,0:0:0:0:
475,192,19311,1,0,0:0:0:0:
329,192,19395,1,0,0:0:0:0:
256,192,19395,1,0,0:0:0:0:
36,192,19395,1,0,0:0:0:0:
329,192,19561,1,0,0:0:0:0:
256,192,19561,1,0,0:0:0:0:
36,192,19561,1,0,0:0:0:0:
475,192,19728,1,0,0:0:0:0:
402,192,19728,1,0,0:0:0:0:
182,192,19728,1,0,0:0:0:0:
109,192,19728,1,0,0:0:0:0:
256,192,19895,1,0,0:0:0:0:
36,192,19895,1,0,0:0:0:0:
329,192,20061,1,0,0:0:0:0:
109,192,20061,1,0,0:0:0:0:
402,192,20145,1,0,0:0:0:0:
182,192,20145,1,0,0:0:0:0:
475,192,20228,1,0,0:0:0:0:
256,192,20228,1,0,0:0:0:0:
182,192,20395,1,0,0:0:0:0:
402,192,20395,1,0,0:0:0:0:
109,192,20478,1,0,0:0:0:0:
329,192,20478,1,0,0:0:0:0:
36,192,20561,1,0,0:0:0:0:
256,192,20561,1,0,0:0:0:0:
109,192,20728,1,6,0:0:0:0:
182,192,20728,1,6,0:0:0:0:
402,192,20728,1,6,0:0:0:0:
475,192,20728,1,6,0:0:0:0:
109,192,21061,1,0,0:0:0:0:
256,192,21061,1,0,0:0:0:0:
402,192,21061,1,0,0:0:0:0:
36,192,21228,1,0,0:0:0:0:
475,192,21228,1,0,0:0:0:0:
109,192,21395,1,0,0:0:0:0:
329,192,21395,1,0,0:0:0:0:
109,192,21561,1,0,0:0:0:0:
329,192,21561,1,0,0:0:0:0:
36,192,21728,1,0,0:0:0:0:
256,192,21728,1,0,0:0:0:0:
475,192,21728,1,0,0:0:0:0:
182,192,21895,1,0,0:0:0:0:
402,192,21895,1,0,0:0:0:0:
109,192,21978,1,0,0:0:0:0:
329,192,21978,1,0,0:0:0:0:
36,192,22061,1,0,0:0:0:0:
256,192,22061,1,0,0:0:0:0:
109,192,22228,1,0,0:0:0:0:
182,192,22228,1,0,0:0:0:0:
329,192,22228,1,0,0:0:0:0:
402,192,22228,1,0,0:0:0:0:
182,192,22395,1,0,0:0:0:0:
256,192,22395,1,0,0:0:0:0:
329,192,22395,1,0,0:0:0:0:
475,192,22478,1,0,0:0:0:0:
36,192,22561,1,0,0:0:0:0:
402,192,22561,1,0,0:0:0:0:
109,192,22617,1,0,0:0:0:0:
329,192,22645,1,0,0:0:0:0:
182,192,22673,1,0,0:0:0:0:
36,192,22728,1,0,0:0:0:0:
475,192,22728,1,0,0:0:0:0:
256,192,22728,1,0,0:0:0:0:
109,192,22811,1,0,0:0:0:0:
182,192,22895,1,0,0:0:0:0:
402,192,22895,1,0,0:0:0:0:
256,192,22978,1,0,0:0:0:0:
329,192,23061,1,0,0:0:0:0:
109,192,23061,1,0,0:0:0:0:
182,192,23145,1,0,0:0:0:0:
36,192,23228,1,2,0:0:0:0:
256,192,23228,1,0,0:0:0:0:
329,192,23311,1,0,0:0:0:0:
402,192,23395,1,4,0:0:0:0:
109,192,23395,1,4,0:0:0:0:
182,192,23395,1,4,0:0:0:0:
475,192,23395,1,4,0:0:0:0:
36,192,23617,1,0,0:0:0:0:
109,192,23617,1,0,0:0:0:0:
329,192,23617,1,0,0:0:0:0:
402,192,23617,1,0,0:0:0:0:
109,192,23839,1,4,0:0:0:0:
182,192,23839,1,4,0:0:0:0:
402,192,23839,1,4,0:0:0:0:
475,192,23839,1,4,0:0:0:0:
36,192,24061,1,0,0:0:0:0:
329,192,24061,1,0,0:0:0:0:
109,192,24228,1,0,0:0:0:0:
402,192,24228,1,0,0:0:0:0:
256,192,24228,1,0,0:0:0:0:
182,192,24395,1,0,0:0:0:0:
475,192,24395,1,0,0:0:0:0:
329,192,24395,1,0,0:0:0:0:
109,192,24561,1,4,0:0:0:0:
402,192,24561,1,4,0:0:0:0:
256,192,24561,1,4,0:0:0:0:
36,192,24561,1,4,0:0:0:0:
475,192,24561,1,4,0:0:0:0:
182,192,24728,1,0,0:0:0:0:
329,192,24728,1,0,0:0:0:0:
109,192,24895,1,0,0:0:0:0:
256,192,24895,1,0,0:0:0:0:
36,192,25061,1,0,0:0:0:0:
329,192,25061,1,0,0:0:0:0:
109,192,25228,1,0,0:0:0:0:
402,192,25228,1,0,0:0:0:0:
182,192,25311,1,0,0:0:0:0:
475,192,25311,1,0,0:0:0:0:
109,192,25395,1,0,0:0:0:0:
402,192,25395,1,0,0:0:0:0:
182,192,25561,1,0,0:0:0:0:
256,192,25561,1,0,0:0:0:0:
329,192,25728,1,0,0:0:0:0:
402,192,25728,1,0,0:0:0:0:
36,192,25728,1,0,0:0:0:0:
109,192,25728,1,0,0:0:0:0:
182,192,25895,1,0,0:0:0:0:
329,192,26061,1,0,0:0:0:0:
402,192,26061,1,0,0:0:0:0:
475,192,26061,1,0,0:0:0:0:
36,192,26228,1,0,0:0:0:0:
256,192,26228,1,0,0:0:0:0:
182,192,26311,1,0,0:0:0:0:
329,192,26395,1,0,0:0:0:0:
402,192,26395,1,0,0:0:0:0:
475,192,26395,1,0,0:0:0:0:
256,192,26561,1,0,0:0:0:0:
36,192,26561,1,0,0:0:0:0:
329,192,26728,1,0,0:0:0:0:
109,192,26728,1,0,0:0:0:0:
402,192,26811,1,0,0:0:0:0:
182,192,26811,1,0,0:0:0:0:
475,192,26895,1,0,0:0:0:0:
256,192,26895,1,0,0:0:0:0:
329,192,26978,1,0,0:0:0:0:
36,192,26978,1,0,0:0:0:0:
109,192,26978,1,0,0:0:0:0:
402,192,26978,1,0,0:0:0:0:
182,192,27061,1,0,0:0:0:0:
475,192,27061,1,0,0:0:0:0:
182,192,27228,1,0,0:0:0:0:
329,192,27228,1,0,0:0:0:0:
475,192,27228,1,0,0:0:0:0:
36,192,27228,1,0,0:0:0:0:
109,192,27395,1,0,0:0:0:0:
256,192,27395,1,0,0:0:0:0:
182,192,27561,1,0,0:0:0:0:
329,192,27561,1,0,0:0:0:0:
402,192,27728,1,0,0:0:0:0:
256,192,27728,1,0,0:0:0:0:
36,192,27728,1,0,0:0:0:0:
182,192,27895,1,0,0:0:0:0:
475,192,27895,1,0,0:0:0:0:
402,192,28061,1,0,0:0:0:0:
109,192,28061,1,0,0:0:0:0:
256,192,28145,1,0,0:0:0:0:
329,192,28228,1,0,0:0:0:0:
36,192,28228,1,0,0:0:0:0:
475,192,28395,1,0,0:0:0:0:
109,192,28395,1,0,0:0:0:0:
402,192,28395,1,0,0:0:0:0:
182,192,28395,1,0,0:0:0:0:
329,192,28561,1,0,0:0:0:0:
36,192,28645,1,0,0:0:0:0:
256,192,28645,1,0,0:0:0:0:
475,192,28645,1,0,0:0:0:0:
182,192,28728,1,0,0:0:0:0:
109,192,28811,1,0,0:0:0:0:
329,192,28811,1,0,0:0:0:0:
256,192,28895,1,0,0:0:0:0:
182,192,28978,1,0,0:0:0:0:
402,192,28978,1,0,0:0:0:0:
475,192,29061,1,0,0:0:0:0:
329,192,29228,1,4,0:0:0:0:
402,192,29228,1,4,0:0:0:0:
182,192,29228,1,4,0:0:0:0:
109,192,29228,1,4,0:0:0:0:
256,192,29228,1,4,0:0:0:0:
475,192,29561,1,0,0:0:0:0:
36,192,29561,1,0,0:0:0:0:
256,192,29561,1,0,0:0:0:0:
109,192,29728,1,0,0:0:0:0:
402,192,29728,1,0,0:0:0:0:
182,192,29728,1,0,0:0:0:0:
329,192,29728,1,0,0:0:0:0:
36,192,29895,1,0,0:0:0:0:
475,192,29895,1,0,0:0:0:0:
256,192,29895,1,0,0:0:0:0:
402,192,29978,1,0,0:0:0:0:
182,192,29978,1,0,0:0:0:0:
109,192,30061,1,0,0:0:0:0:
329,192,30061,1,0,0:0:0:0:
182,192,30228,1,0,0:0:0:0:
402,192,30228,1,0,0:0:0:0:
256,192,30395,1,0,0:0:0:0:
475,192,30395,1,0,0:0:0:0:
182,192,30561,1,0,0:0:0:0:
402,192,30561,1,0,0:0:0:0:
36,192,30728,1,0,0:0:0:0:
329,192,30728,1,0,0:0:0:0:
109,192,30811,1,0,0:0:0:0:
402,192,30811,1,0,0:0:0:0:
182,192,30895,1,0,0:0:0:0:
475,192,30895,1,0,0:0:0:0:
109,192,31061,1,0,0:0:0:0:
402,192,31061,1,0,0:0:0:0:
36,192,31228,1,0,0:0:0:0:
329,192,31228,1,0,0:0:0:0:
109,192,31395,1,4,0:0:0:0:
182,192,31395,1,4,0:0:0:0:
402,192,31395,1,4,0:0:0:0:
475,192,31395,1,4,0:0:0:0:
256,192,31561,1,0,0:0:0:0:
36,192,31561,1,0,0:0:0:0:
36,192,31728,1,0,0:0:0:0:
182,192,31770,1,0,0:0:0:0:
329,192,31811,1,0,0:0:0:0:
475,192,31853,1,0,0:0:0:0:
182,192,31895,1,2,0:0:0:0:
36,192,31895,1,2,0:0:0:0:
475,192,31978,1,2,0:0:0:0:
329,192,31978,1,2,0:0:0:0:
182,192,32061,1,4,0:0:0:0:
256,192,32061,1,4,0:0:0:0:
36,192,32061,1,4,0:0:0:0:
402,192,32061,1,4,0:0:0:0:
109,192,32311,1,0,0:0:0:0:
402,192,32311,1,0,0:0:0:0:
329,192,32395,1,0,0:0:0:0:
475,192,32395,1,0,0:0:0:0:
182,192,32395,1,0,0:0:0:0:
402,192,32561,1,0,0:0:0:0:
36,192,32561,1,0,0:0:0:0:
256,192,32561,1,0,0:0:0:0:
329,192,32728,1,4,0:0:0:0:
475,192,32728,1,4,0:0:0:0:
182,192,32728,1,0,0:0:0:0:
256,192,32895,1,0,0:0:0:0:
109,192,32895,1,0,0:0:0:0:
36,192,33061,1,0,0:0:0:0:
182,192,33061,1,0,0:0:0:0:
402,192,33061,1,0,0:0:0:0:
256,192,33228,1,0,0:0:0:0:
329,192,33228,1,0,0:0:0:0:
182,192,33395,1,4,0:0:0:0:
475,192,33395,1,4,0:0:0:0:
109,192,33395,1,0,0:0:0:0:
256,192,33478,1,2,0:0:0:0:
329,192,33561,1,2,0:0:0:0:
402,192,33645,1,2,0:0:0:0:
475,192,33728,1,2,0:0:0:0:
256,192,33728,1,0,0:0:0:0:
402,192,33811,1,2,0:0:0:0:
182,192,33811,1,0,0:0:0:0:
329,192,33895,1,2,0:0:0:0:
109,192,33895,1,0,0:0:0:0:
256,192,33978,1,2,0:0:0:0:
36,192,33978,1,0,0:0:0:0:
182,192,34061,1,4,0:0:0:0:
109,192,34061,1,4,0:0:0:0:
402,192,34061,128,4,34728:0:0:0:0:
329,192,34061,1,4,0:0:0:0:
36,192,34228,1,0,0:0:0:0:
109,192,34395,1,0,0:0:0:0:
256,192,34395,1,0,0:0:0:0:
475,192,34395,1,0,0:0:0:0:
329,192,34561,1,0,0:0:0:0:
36,192,34728,1,0,0:0:0:0:
182,192,34728,1,0,0:0:0:0:
36,192,34895,1,0,0:0:0:0:
182,192,34895,1,0,0:0:0:0:
475,192,35061,128,0,35561:0:0:0:0:
109,192,35061,1,0,0:0:0:0:
256,192,35061,1,0,0:0:0:0:
402,192,35061,1,0,0:0:0:0:
36,192,35228,128,0,35728:0:0:0:0:
182,192,35228,1,0,0:0:0:0:
256,192,35311,1,0,0:0:0:0:
109,192,35395,1,0,0:0:0:0:
329,192,35395,1,0,0:0:0:0:
109,192,35561,1,0,0:0:0:0:
329,192,35561,1,0,0:0:0:0:
402,192,35728,1,0,0:0:0:0:
182,192,35728,1,0,0:0:0:0:
256,192,35728,1,0,0:0:0:0:
329,192,35895,1,0,0:0:0:0:
109,192,35895,1,0,0:0:0:0:
256,192,35978,1,0,0:0:0:0:
182,192,36061,1,0,0:0:0:0:
402,192,36061,1,0,0:0:0:0:
182,192,36228,1,0,0:0:0:0:
402,192,36228,1,0,0:0:0:0:
475,192,36395,128,0,36895:0:0:0:0:
109,192,36395,1,0,0:0:0:0:
329,192,36395,1,0,0:0:0:0:
256,192,36395,1,0,0:0:0:0:
36,192,36561,128,0,37061:0:0:0:0:
402,192,36561,1,0,0:0:0:0:
182,192,36561,1,0,0:0:0:0:
329,192,36645,1,0,0:0:0:0:
109,192,36728,1,0,0:0:0:0:
256,192,36728,1,0,0:0:0:0:
109,192,36895,1,0,0:0:0:0:
256,192,36895,1,0,0:0:0:0:
182,192,37061,1,0,0:0:0:0:
329,192,37061,1,0,0:0:0:0:
402,192,37061,1,0,0:0:0:0:
475,192,37228,1,0,0:0:0:0:
256,192,37228,1,0,0:0:0:0:
182,192,37311,1,0,0:0:0:0:
109,192,37395,1,0,0:0:0:0:
329,192,37395,1,0,0:0:0:0:
109,192,37561,1,0,0:0:0:0:
329,192,37561,1,0,0:0:0:0:
182,192,37728,1,0,0:0:0:0:
402,192,37728,1,0,0:0:0:0:
36,192,37728,128,0,38395:0:0:0:0:
256,192,37728,1,0,0:0:0:0:
329,192,37895,1,0,0:0:0:0:
109,192,37895,1,0,0:0:0:0:
182,192,37978,1,0,0:0:0:0:
475,192,38061,128,0,38728:0:0:0:0:
256,192,38061,1,0,0:0:0:0:
402,192,38061,1,0,0:0:0:0:
256,192,38228,1,0,0:0:0:0:
402,192,38228,1,0,0:0:0:0:
329,192,38395,128,0,39395:0:0:0:0:
109,192,38395,1,0,0:0:0:0:
182,192,38395,1,0,0:0:0:0:
256,192,38561,1,0,0:0:0:0:
402,192,38561,1,0,0:0:0:0:
109,192,38728,128,0,39395:0:0:0:0:
182,192,38728,1,0,0:0:0:0:
36,192,38895,128,0,39395:0:0:0:0:
256,192,39061,128,0,39395:0:0:0:0:
182,192,39228,128,0,39395:0:0:0:0:
475,192,39395,1,0,0:0:0:0:
402,192,39395,1,0,0:0:0:0:
329,192,39561,1,0,0:0:0:0:
36,192,39728,1,0,0:0:0:0:
256,192,39728,1,0,0:0:0:0:
475,192,39728,1,0,0:0:0:0:
402,192,39895,1,0,0:0:0:0:
182,192,39895,1,0,0:0:0:0:
109,192,40061,1,0,0:0:0:0:
329,192,40061,1,0,0:0:0:0:
182,192,40228,1,0,0:0:0:0:
402,192,40228,1,0,0:0:0:0:
36,192,40395,1,0,0:0:0:0:
256,192,40395,1,0,0:0:0:0:
475,192,40395,1,0,0:0:0:0:
329,192,40561,1,0,0:0:0:0:
36,192,40561,1,0,0:0:0:0:
402,192,40645,1,0,0:0:0:0:
109,192,40645,1,0,0:0:0:0:
475,192,40728,1,0,0:0:0:0:
182,192,40728,1,0,0:0:0:0:
182,192,40895,1,0,0:0:0:0:
475,192,40895,1,0,0:0:0:0:
109,192,41061,1,0,0:0:0:0:
402,192,41061,1,0,0:0:0:0:
329,192,41061,1,0,0:0:0:0:
36,192,41228,1,0,0:0:0:0:
256,192,41228,1,0,0:0:0:0:
109,192,41395,1,0,0:0:0:0:
329,192,41395,1,0,0:0:0:0:
256,192,41478,1,0,0:0:0:0:
182,192,41561,1,0,0:0:0:0:
402,192,41561,1,0,0:0:0:0:
329,192,41645,1,0,0:0:0:0:
256,192,41728,1,0,0:0:0:0:
475,192,41728,1,0,0:0:0:0:
109,192,41728,1,0,0:0:0:0:
329,192,41895,1,0,0:0:0:0:
256,192,42061,1,0,0:0:0:0:
182,192,42061,1,0,0:0:0:0:
109,192,42228,1,0,0:0:0:0:
36,192,42395,1,0,0:0:0:0:
182,192,42395,1,0,0:0:0:0:
402,192,42395,1,0,0:0:0:0:
256,192,42561,1,0,0:0:0:0:
475,192,42561,1,0,0:0:0:0:
182,192,42728,1,0,0:0:0:0:
402,192,42728,1,0,0:0:0:0:
36,192,42895,1,0,0:0:0:0:
109,192,42895,1,0,0:0:0:0:
329,192,42895,1,0,0:0:0:0:
182,192,43061,1,0,0:0:0:0:
402,192,43061,1,0,0:0:0:0:
475,192,43061,1,0,0:0:0:0:
402,192,43228,1,0,0:0:0:0:
182,192,43228,1,0,0:0:0:0:
109,192,43311,1,0,0:0:0:0:
329,192,43311,1,0,0:0:0:0:
36,192,43395,1,0,0:0:0:0:
256,192,43395,1,0,0:0:0:0:
475,192,43395,1,0,0:0:0:0:
36,192,43561,1,0,0:0:0:0:
256,192,43561,1,0,0:0:0:0:
475,192,43561,1,0,0:0:0:0:
109,192,43728,1,0,0:0:0:0:
402,192,43728,1,0,0:0:0:0:
256,192,43728,1,0,0:0:0:0:
36,192,43895,1,0,0:0:0:0:
256,192,43895,1,0,0:0:0:0:
109,192,43950,1,0,0:0:0:0:
329,192,43950,1,0,0:0:0:0:
402,192,44006,1,0,0:0:0:0:
182,192,44006,1,0,0:0:0:0:
475,192,44061,1,0,0:0:0:0:
256,192,44061,1,0,0:0:0:0:
475,192,44228,1,0,0:0:0:0:
36,192,44228,1,0,0:0:0:0:
402,192,44284,1,0,0:0:0:0:
109,192,44284,1,0,0:0:0:0:
329,192,44339,1,0,0:0:0:0:
182,192,44339,1,0,0:0:0:0:
36,192,44395,1,0,0:0:0:0:
256,192,44395,1,0,0:0:0:0:
475,192,44395,1,0,0:0:0:0:
109,192,44478,1,0,0:0:0:0:
402,192,44478,1,0,0:0:0:0:
182,192,44561,1,0,0:0:0:0:
329,192,44561,1,0,0:0:0:0:
402,192,44645,1,0,0:0:0:0:
109,192,44645,1,0,0:0:0:0:
36,192,44728,1,4,0:0:0:0:
475,192,44728,128,4,45395:0:0:0:0:
329,192,44728,1,0,0:0:0:0:
182,192,44728,1,0,0:0:0:0:
256,192,44728,1,0,0:0:0:0:
402,192,44895,1,0,0:0:0:0:
182,192,44895,1,0,0:0:0:0:
109,192,45061,1,0,0:0:0:0:
329,192,45061,1,0,0:0:0:0:
36,192,45228,1,0,0:0:0:0:
256,192,45228,1,0,0:0:0:0:
109,192,45395,1,0,0:0:0:0:
329,192,45395,1,0,0:0:0:0:
182,192,45561,1,0,0:0:0:0:
475,192,45728,128,0,46228:0:0:0:0:
402,192,45728,1,0,0:0:0:0:
109,192,45728,1,0,0:0:0:0:
256,192,45728,1,0,0:0:0:0:
36,192,45895,128,0,46395:0:0:0:0:
329,192,45895,1,0,0:0:0:0:
109,192,45895,1,0,0:0:0:0:
256,192,45978,1,0,0:0:0:0:
182,192,46061,1,0,0:0:0:0:
402,192,46061,1,0,0:0:0:0:
182,192,46228,1,0,0:0:0:0:
402,192,46228,1,0,0:0:0:0:
109,192,46395,1,0,0:0:0:0:
256,192,46395,1,0,0:0:0:0:
329,192,46395,1,0,0:0:0:0:
182,192,46561,1,0,0:0:0:0:
402,192,46561,1,0,0:0:0:0:
256,192,46645,1,0,0:0:0:0:
329,192,46728,1,0,0:0:0:0:
109,192,46728,1,0,0:0:0:0:
36,192,46895,1,0,0:0:0:0:
329,192,46895,1,0,0:0:0:0:
475,192,47061,128,0,47561:0:0:0:0:
109,192,47061,1,0,0:0:0:0:
402,192,47061,1,0,0:0:0:0:
256,192,47061,1,0,0:0:0:0:
36,192,47228,128,0,47728:0:0:0:0:
182,192,47228,1,0,0:0:0:0:
402,192,47228,1,0,0:0:0:0:
256,192,47311,1,0,0:0:0:0:
329,192,47395,1,0,0:0:0:0:
109,192,47395,1,0,0:0:0:0:
182,192,47561,1,0,0:0:0:0:
109,192,47728,1,0,0:0:0:0:
402,192,47728,1,0,0:0:0:0:
256,192,47728,1,0,0:0:0:0:
182,192,47895,1,0,0:0:0:0:
475,192,47895,1,0,0:0:0:0:
402,192,47978,1,0,0:0:0:0:
109,192,48061,1,0,0:0:0:0:
329,192,48061,1,0,0:0:0:0:
402,192,48228,1,0,0:0:0:0:
256,192,48228,1,0,0:0:0:0:
36,192,48395,128,0,49061:0:0:0:0:
475,192,48395,1,0,0:0:0:0:
329,192,48395,1,0,0:0:0:0:
182,192,48395,1,0,0:0:0:0:
329,192,48561,1,0,0:0:0:0:
109,192,48561,1,0,0:0:0:0:
256,192,48645,1,0,0:0:0:0:
182,192,48728,1,0,0:0:0:0:
475,192,48728,128,0,49395:0:0:0:0:
402,192,48728,1,0,0:0:0:0:
402,192,48895,1,0,0:0:0:0:
182,192,48895,1,0,0:0:0:0:
329,192,49061,128,0,50061:0:0:0:0:
256,192,49061,1,0,0:0:0:0:
109,192,49061,1,0,0:0:0:0:
182,192,49228,1,0,0:0:0:0:
402,192,49228,1,0,0:0:0:0:
109,192,49395,128,0,50061:0:0:0:0:
256,192,49395,1,0,0:0:0:0:
36,192,49561,128,0,50061:0:0:0:0:
256,192,49728,128,0,50061:0:0:0:0:
182,192,49895,128,0,50061:0:0:0:0:
402,192,50061,1,0,0:0:0:0:
475,192,50061,1,0,0:0:0:0:
329,192,50228,1,0,0:0:0:0:
109,192,50395,1,0,0:0:0:0:
256,192,50395,1,0,0:0:0:0:
475,192,50395,1,0,0:0:0:0:
182,192,50561,1,0,0:0:0:0:
402,192,50561,1,0,0:0:0:0:
109,192,50728,1,0,0:0:0:0:
329,192,50728,1,0,0:0:0:0:
182,192,50895,1,0,0:0:0:0:
402,192,50895,1,0,0:0:0:0:
475,192,51061,128,0,51228:0:0:0:0:
36,192,51061,1,0,0:0:0:0:
109,192,51061,1,0,0:0:0:0:
256,192,51061,1,0,0:0:0:0:
402,192,51228,128,0,51395:0:0:0:0:
182,192,51228,1,0,0:0:0:0:
329,192,51228,1,0,0:0:0:0:
109,192,51311,1,0,0:0:0:0:
36,192,51395,1,0,0:0:0:0:
256,192,51395,1,0,0:0:0:0:
36,192,51561,1,0,0:0:0:0:
256,192,51561,1,0,0:0:0:0:
109,192,51728,128,0,51895:0:0:0:0:
182,192,51728,1,0,0:0:0:0:
329,192,51728,1,0,0:0:0:0:
475,192,51728,1,0,0:0:0:0:
36,192,51895,128,0,52061:0:0:0:0:
402,192,51895,1,0,0:0:0:0:
182,192,51895,1,0,0:0:0:0:
256,192,51978,1,0,0:0:0:0:
329,192,52061,1,0,0:0:0:0:
475,192,52061,1,0,0:0:0:0:
256,192,52145,1,0,0:0:0:0:
182,192,52228,1,0,0:0:0:0:
402,192,52228,1,0,0:0:0:0:
329,192,52395,128,0,52561:0:0:0:0:
36,192,52395,1,0,0:0:0:0:
109,192,52395,1,0,0:0:0:0:
475,192,52395,1,0,0:0:0:0:
182,192,52561,128,0,52728:0:0:0:0:
402,192,52561,1,0,0:0:0:0:
36,192,52561,1,0,0:0:0:0:
256,192,52645,1,0,0:0:0:0:
109,192,52728,1,0,0:0:0:0:
475,192,52728,1,0,0:0:0:0:
402,192,52895,1,0,0:0:0:0:
36,192,53061,1,0,0:0:0:0:
329,192,53061,1,0,0:0:0:0:
475,192,53061,1,0,0:0:0:0:
109,192,53228,1,0,0:0:0:0:
182,192,53395,1,0,0:0:0:0:
329,192,53395,1,0,0:0:0:0:
109,192,53561,1,0,0:0:0:0:
402,192,53561,1,0,0:0:0:0:
36,192,53728,1,0,0:0:0:0:
256,192,53728,1,0,0:0:0:0:
475,192,53728,1,0,0:0:0:0:
402,192,53895,1,0,0:0:0:0:
182,192,53895,1,0,0:0:0:0:
329,192,53978,1,0,0:0:0:0:
109,192,53978,1,0,0:0:0:0:
256,192,54061,1,0,0:0:0:0:
36,192,54061,1,0,0:0:0:0:
36,192,54228,1,0,0:0:0:0:
256,192,54228,1,0,0:0:0:0:
109,192,54395,1,0,0:0:0:0:
329,192,54395,1,0,0:0:0:0:
475,192,54395,1,0,0:0:0:0:
256,192,54478,1,0,0:0:0:0:
182,192,54561,1,0,0:0:0:0:
402,192,54561,1,0,0:0:0:0:
109,192,54645,1,0,0:0:0:0:
329,192,54645,1,0,0:0:0:0:
36,192,54728,1,0,0:0:0:0:
256,192,54728,1,0,0:0:0:0:
109,192,54811,1,0,0:0:0:0:
329,192,54811,1,0,0:0:0:0:
182,192,54895,1,0,0:0:0:0:
475,192,54895,1,0,0:0:0:0:
402,192,54978,1,0,0:0:0:0:
329,192,54978,1,0,0:0:0:0:
36,192,54978,1,0,0:0:0:0:
182,192,55061,1,0,0:0:0:0:
256,192,55061,1,0,0:0:0:0:
109,192,55061,1,0,0:0:0:0:
475,192,55145,1,0,0:0:0:0:
402,192,55145,1,0,0:0:0:0:
36,192,55145,1,0,0:0:0:0:
256,192,55228,1,0,0:0:0:0:
329,192,55228,1,0,0:0:0:0:
182,192,55311,1,0,0:0:0:0:
109,192,55311,1,0,0:0:0:0:
329,192,55395,1,4,0:0:0:0:
36,192,55395,1,4,0:0:0:0:
402,192,55395,1,0,0:0:0:0:
475,192,55395,1,0,0:0:0:0:
182,192,55561,1,0,0:0:0:0:
402,192,55561,1,0,0:0:0:0:
256,192,55561,1,0,0:0:0:0:
36,192,55728,1,0,0:0:0:0:
329,192,55728,1,0,0:0:0:0:
475,192,55728,1,0,0:0:0:0:
109,192,55728,1,0,0:0:0:0:
402,192,55895,1,0,0:0:0:0:
329,192,55895,1,0,0:0:0:0:
182,192,55895,1,0,0:0:0:0:
36,192,56061,1,0,0:0:0:0:
256,192,56061,1,0,0:0:0:0:
475,192,56061,1,0,0:0:0:0:
109,192,56228,1,0,0:0:0:0:
329,192,56228,1,0,0:0:0:0:
36,192,56395,1,0,0:0:0:0:
256,192,56395,1,0,0:0:0:0:
475,192,56395,1,0,0:0:0:0:
36,192,56561,1,0,0:0:0:0:
475,192,56561,1,0,0:0:0:0:
329,192,56561,1,0,0:0:0:0:
109,192,56603,1,0,0:0:0:0:
182,192,56645,1,0,0:0:0:0:
256,192,56686,1,0,0:0:0:0:
329,192,56728,1,0,0:0:0:0:
402,192,56728,1,0,0:0:0:0:
109,192,56728,1,0,0:0:0:0:
36,192,56895,1,0,0:0:0:0:
475,192,56895,1,0,0:0:0:0:
182,192,56895,1,0,0:0:0:0:
109,192,57061,1,0,0:0:0:0:
402,192,57061,1,0,0:0:0:0:
182,192,57061,1,0,0:0:0:0:
256,192,57061,1,0,0:0:0:0:
36,192,57228,1,0,0:0:0:0:
475,192,57228,1,0,0:0:0:0:
256,192,57228,1,0,0:0:0:0:
329,192,57311,1,0,0:0:0:0:
109,192,57311,1,0,0:0:0:0:
256,192,57395,1,0,0:0:0:0:
402,192,57395,1,0,0:0:0:0:
182,192,57395,1,0,0:0:0:0:
36,192,57561,1,0,0:0:0:0:
475,192,57561,1,0,0:0:0:0:
109,192,57561,1,0,0:0:0:0:
402,192,57728,1,0,0:0:0:0:
109,192,57728,1,0,0:0:0:0:
329,192,57811,1,0,0:0:0:0:
182,192,57811,1,0,0:0:0:0:
475,192,57895,1,0,0:0:0:0:
36,192,57895,1,0,0:0:0:0:
402,192,57978,1,0,0:0:0:0:
109,192,57978,1,0,0:0:0:0:
182,192,58061,1,4,0:0:0:0:
329,192,58061,1,4,0:0:0:0:
256,192,58061,1,4,0:0:0:0:
36,192,58228,1,0,0:0:0:0:
182,192,58228,1,0,0:0:0:0:
402,192,58228,1,0,0:0:0:0:
109,192,58395,1,0,0:0:0:0:
329,192,58395,1,0,0:0:0:0:
475,192,58395,1,0,0:0:0:0:
182,192,58561,1,0,0:0:0:0:
256,192,58561,1,0,0:0:0:0:
402,192,58561,1,0,0:0:0:0:
36,192,58728,1,0,0:0:0:0:
182,192,58728,1,0,0:0:0:0:
475,192,58728,1,0,0:0:0:0:
109,192,58811,1,0,0:0:0:0:
256,192,58811,1,0,0:0:0:0:
402,192,58811,1,0,0:0:0:0:
182,192,58895,1,0,0:0:0:0:
329,192,58895,1,0,0:0:0:0:
475,192,58895,1,0,0:0:0:0:
256,192,59061,1,0,0:0:0:0:
109,192,59061,1,0,0:0:0:0:
402,192,59061,1,0,0:0:0:0:
36,192,59228,1,0,0:0:0:0:
182,192,59228,1,0,0:0:0:0:
475,192,59228,1,0,0:0:0:0:
402,192,59270,1,0,0:0:0:0:
329,192,59311,1,0,0:0:0:0:
256,192,59353,1,0,0:0:0:0:
182,192,59395,1,0,0:0:0:0:
109,192,59395,1,0,0:0:0:0:
402,192,59395,1,0,0:0:0:0:
36,192,59561,1,0,0:0:0:0:
182,192,59561,1,0,0:0:0:0:
329,192,59561,1,0,0:0:0:0:
109,192,59728,1,0,0:0:0:0:
402,192,59728,1,0,0:0:0:0:
475,192,59728,1,0,0:0:0:0:
256,192,59728,1,0,0:0:0:0:
36,192,59895,1,0,0:0:0:0:
329,192,59895,1,0,0:0:0:0:
475,192,59895,1,0,0:0:0:0:
256,192,59978,1,0,0:0:0:0:
109,192,59978,1,0,0:0:0:0:
182,192,60061,1,0,0:0:0:0:
329,192,60061,1,0,0:0:0:0:
36,192,60061,1,0,0:0:0:0:
109,192,60228,1,0,0:0:0:0:
402,192,60228,1,0,0:0:0:0:
182,192,60228,1,0,0:0:0:0:
256,192,60395,1,0,0:0:0:0:
475,192,60395,1,0,0:0:0:0:
182,192,60478,1,0,0:0:0:0:
402,192,60478,1,0,0:0:0:0:
36,192,60561,1,0,0:0:0:0:
256,192,60561,1,0,0:0:0:0:
109,192,60645,1,0,0:0:0:0:
329,192,60645,1,0,0:0:0:0:
182,192,60728,1,4,0:0:0:0:
475,192,60728,1,4,0:0:0:0:
402,192,60728,1,4,0:0:0:0:
256,192,60728,1,4,0:0:0:0:
475,192,60895,1,0,0:0:0:0:
182,192,60895,1,0,0:0:0:0:
329,192,60895,1,0,0:0:0:0:
402,192,61061,1,0,0:0:0:0:
256,192,61061,1,0,0:0:0:0:
109,192,61061,1,0,0:0:0:0:
329,192,61228,1,0,0:0:0:0:
182,192,61228,1,0,0:0:0:0:
36,192,61228,1,0,0:0:0:0:
402,192,61395,1,0,0:0:0:0:
256,192,61395,1,0,0:0:0:0:
109,192,61395,1,0,0:0:0:0:
475,192,61395,1,0,0:0:0:0:
329,192,61561,1,0,0:0:0:0:
182,192,61561,1,0,0:0:0:0:
36,192,61561,1,0,0:0:0:0:
402,192,61728,1,0,0:0:0:0:
182,192,61728,1,0,0:0:0:0:
329,192,61811,1,0,0:0:0:0:
109,192,61811,1,0,0:0:0:0:
256,192,61895,1,0,0:0:0:0:
36,192,61895,1,0,0:0:0:0:
329,192,61978,1,0,0:0:0:0:
109,192,61978,1,0,0:0:0:0:
182,192,62061,1,0,0:0:0:0:
402,192,62061,1,0,0:0:0:0:
475,192,62061,1,0,0:0:0:0:
36,192,62228,1,0,0:0:0:0:
329,192,62228,1,0,0:0:0:0:
256,192,62228,1,0,0:0:0:0:
109,192,62395,1,0,0:0:0:0:
402,192,62395,1,0,0:0:0:0:
182,192,62395,1,0,0:0:0:0:
256,192,62395,1,0,0:0:0:0:
182,192,62561,1,0,0:0:0:0:
475,192,62561,1,0,0:0:0:0:
329,192,62561,1,0,0:0:0:0:
109,192,62645,1,0,0:0:0:0:
402,192,62645,1,0,0:0:0:0:
36,192,62728,1,0,0:0:0:0:
329,192,62728,1,0,0:0:0:0:
182,192,62728,1,0,0:0:0:0:
109,192,62895,1,0,0:0:0:0:
402,192,62895,1,0,0:0:0:0:
475,192,62895,1,0,0:0:0:0:
36,192,63061,1,0,0:0:0:0:
329,192,63061,1,0,0:0:0:0:
475,192,63145,1,0,0:0:0:0:
182,192,63145,1,0,0:0:0:0:
36,192,63228,1,0,0:0:0:0:
329,192,63228,1,0,0:0:0:0:
182,192,63311,1,0,0:0:0:0:
475,192,63311,1,0,0:0:0:0:
256,192,63395,1,4,0:0:0:0:
402,192,63395,1,4,0:0:0:0:
109,192,63395,1,4,0:0:0:0:
36,192,63561,1,0,0:0:0:0:
109,192,63561,1,0,0:0:0:0:
329,192,63561,1,0,0:0:0:0:
182,192,63728,1,0,0:0:0:0:
256,192,63728,1,0,0:0:0:0:
475,192,63728,1,0,0:0:0:0:
109,192,63895,1,0,0:0:0:0:
329,192,63895,1,0,0:0:0:0:
402,192,63895,1,0,0:0:0:0:
36,192,64061,1,0,0:0:0:0:
256,192,64061,1,0,0:0:0:0:
182,192,64061,1,0,0:0:0:0:
182,192,64228,1,0,0:0:0:0:
329,192,64228,1,0,0:0:0:0:
109,192,64395,1,0,0:0:0:0:
402,192,64395,1,0,0:0:0:0:
36,192,64478,1,0,0:0:0:0:
475,192,64478,1,0,0:0:0:0:
182,192,64561,1,0,0:0:0:0:
329,192,64561,1,0,0:0:0:0:
402,192,64645,1,0,0:0:0:0:
109,192,64645,1,0,0:0:0:0:
36,192,64728,1,0,0:0:0:0:
256,192,64728,1,0,0:0:0:0:
475,192,64728,1,0,0:0:0:0:
36,192,64895,1,0,0:0:0:0:
402,192,64895,1,0,0:0:0:0:
182,192,64895,1,0,0:0:0:0:
109,192,65061,1,0,0:0:0:0:
475,192,65061,1,0,0:0:0:0:
329,192,65061,1,0,0:0:0:0:
36,192,65228,1,0,0:0:0:0:
182,192,65228,1,0,0:0:0:0:
329,192,65228,1,0,0:0:0:0:
109,192,65311,1,0,0:0:0:0:
402,192,65311,1,0,0:0:0:0:
182,192,65395,1,0,0:0:0:0:
329,192,65395,1,0,0:0:0:0:
475,192,65395,1,0,0:0:0:0:
36,192,65561,5,2,0:0:0:0:
109,192,65603,1,2,0:0:0:0:
182,192,65645,1,2,0:0:0:0:
256,192,65686,1,2,0:0:0:0:
475,192,65728,1,2,0:0:0:0:
402,192,65770,1,2,0:0:0:0:
329,192,65811,1,2,0:0:0:0:
256,192,65853,1,2,0:0:0:0:
182,192,65895,1,2,0:0:0:0:
329,192,65978,1,0,0:0:0:0:
109,192,66061,1,0,0:0:0:0:
402,192,66061,1,0,0:0:0:0:
475,192,66061,1,0,0:0:0:0:
36,192,66061,1,0,0:0:0:0:
36,192,66228,5,2,0:0:0:0:
402,192,66228,1,0,0:0:0:0:
109,192,66311,1,2,0:0:0:0:
475,192,66311,1,0,0:0:0:0:
182,192,66395,1,2,0:0:0:0:
402,192,66395,1,0,0:0:0:0:
329,192,66478,1,0,0:0:0:0:
109,192,66478,1,2,0:0:0:0:
36,192,66561,1,2,0:0:0:0:
402,192,66561,1,0,0:0:0:0:
182,192,66728,1,0,0:0:0:0:
402,192,66728,1,2,0:0:0:0:
109,192,66811,1,0,0:0:0:0:
329,192,66811,1,2,0:0:0:0:
36,192,66895,1,0,0:0:0:0:
402,192,66895,1,2,0:0:0:0:
475,192,66978,1,2,0:0:0:0:
109,192,66978,1,0,0:0:0:0:
182,192,67061,1,0,0:0:0:0:
402,192,67061,1,2,0:0:0:0:
36,192,67228,1,2,0:0:0:0:
402,192,67228,1,0,0:0:0:0:
109,192,67311,1,2,0:0:0:0:
475,192,67311,1,0,0:0:0:0:
182,192,67395,1,2,0:0:0:0:
402,192,67395,1,0,0:0:0:0:
109,192,67478,1,2,0:0:0:0:
329,192,67478,1,0,0:0:0:0:
36,192,67561,1,2,0:0:0:0:
402,192,67561,1,0,0:0:0:0:
182,192,67728,1,0,0:0:0:0:
402,192,67728,1,2,0:0:0:0:
109,192,67811,1,0,0:0:0:0:
329,192,67811,1,2,0:0:0:0:
36,192,67895,1,0,0:0:0:0:
402,192,67895,1,2,0:0:0:0:
109,192,67978,1,0,0:0:0:0:
475,192,67978,1,2,0:0:0:0:
182,192,68061,1,0,0:0:0:0:
402,192,68061,1,2,0:0:0:0:
36,192,68228,128,0,68728:0:0:0:0:
475,192,68228,128,0,68728:0:0:0:0:
402,192,68395,1,0,0:0:0:0:
329,192,68478,1,0,0:0:0:0:
256,192,68561,1,0,0:0:0:0:
182,192,68645,1,0,0:0:0:0:
109,192,68728,1,0,0:0:0:0:
402,192,68728,1,0,0:0:0:0:
329,192,68728,1,0,0:0:0:0:
182,192,68895,1,0,0:0:0:0:
329,192,68895,1,0,0:0:0:0:
109,192,69145,1,0,0:0:0:0:
402,192,69145,1,0,0:0:0:0:
36,192,69395,1,2,0:0:0:0:
475,192,69395,1,0,0:0:0:0:
182,192,69478,1,2,0:0:0:0:
402,192,69478,1,0,0:0:0:0:
109,192,69561,1,2,0:0:0:0:
329,192,69561,1,0,0:0:0:0:
36,192,69645,1,2,0:0:0:0:
475,192,69645,1,0,0:0:0:0:
182,192,69728,1,2,0:0:0:0:
329,192,69728,1,0,0:0:0:0:
329,192,69895,1,2,0:0:0:0:
182,192,69895,1,0,0:0:0:0:
475,192,69978,1,2,0:0:0:0:
109,192,69978,1,0,0:0:0:0:
36,192,70061,1,0,0:0:0:0:
402,192,70061,1,2,0:0:0:0:
182,192,70145,1,0,0:0:0:0:
329,192,70145,1,2,0:0:0:0:
475,192,70228,1,2,0:0:0:0:
36,192,70228,1,0,0:0:0:0:
182,192,70395,1,2,0:0:0:0:
329,192,70395,1,0,0:0:0:0:
109,192,70478,1,2,0:0:0:0:
402,192,70478,1,0,0:0:0:0:
36,192,70561,1,2,0:0:0:0:
475,192,70561,1,0,0:0:0:0:
109,192,70645,1,2,0:0:0:0:
402,192,70645,1,0,0:0:0:0:
182,192,70728,1,2,0:0:0:0:
329,192,70728,1,0,0:0:0:0:
109,192,70895,128,0,71395:0:0:0:0:
402,192,70895,128,0,71395:0:0:0:0:
475,192,71061,1,0,0:0:0:0:
329,192,71145,1,0,0:0:0:0:
256,192,71228,1,0,0:0:0:0:
182,192,71311,1,0,0:0:0:0:
36,192,71395,1,0,0:0:0:0:
475,192,71395,1,0,0:0:0:0:
329,192,71395,1,0,0:0:0:0:
109,192,71561,1,0,0:0:0:0:
475,192,71561,1,2,0:0:0:0:
402,192,71645,1,2,0:0:0:0:
182,192,71645,1,0,0:0:0:0:
329,192,71728,1,2,0:0:0:0:
36,192,71728,1,0,0:0:0:0:
475,192,71811,1,2,0:0:0:0:
109,192,71811,1,0,0:0:0:0:
402,192,71895,1,2,0:0:0:0:
182,192,71895,1,0,0:0:0:0:
402,192,72061,1,0,0:0:0:0:
36,192,72061,1,2,0:0:0:0:
329,192,72145,1,0,0:0:0:0:
109,192,72145,1,2,0:0:0:0:
182,192,72228,1,2,0:0:0:0:
475,192,72228,1,0,0:0:0:0:
36,192,72311,1,2,0:0:0:0:
402,192,72311,1,0,0:0:0:0:
109,192,72395,1,2,0:0:0:0:
329,192,72395,1,0,0:0:0:0:
182,192,72561,1,0,0:0:0:0:
402,192,72561,1,2,0:0:0:0:
475,192,72645,1,2,0:0:0:0:
109,192,72645,1,0,0:0:0:0:
329,192,72728,1,2,0:0:0:0:
36,192,72728,1,0,0:0:0:0:
182,192,72811,1,0,0:0:0:0:
402,192,72811,1,2,0:0:0:0:
475,192,72895,1,2,0:0:0:0:
109,192,72895,1,0,0:0:0:0:
109,192,73061,1,2,0:0:0:0:
329,192,73061,1,0,0:0:0:0:
36,192,73145,1,2,0:0:0:0:
402,192,73145,1,0,0:0:0:0:
182,192,73228,1,2,0:0:0:0:
475,192,73228,1,0,0:0:0:0:
329,192,73311,1,0,0:0:0:0:
109,192,73311,1,2,0:0:0:0:
36,192,73395,1,2,0:0:0:0:
402,192,73395,1,0,0:0:0:0:
329,192,73561,128,0,74061:0:0:0:0:
182,192,73561,128,0,74061:0:0:0:0:
36,192,73728,1,0,0:0:0:0:
109,192,73811,1,0,0:0:0:0:
256,192,73895,1,0,0:0:0:0:
402,192,73978,1,0,0:0:0:0:
36,192,74061,1,0,0:0:0:0:
475,192,74061,1,0,0:0:0:0:
109,192,74061,1,0,0:0:0:0:
109,192,74228,1,0,0:0:0:0:
402,192,74228,1,0,0:0:0:0:
182,192,74478,1,0,0:0:0:0:
329,192,74478,1,0,0:0:0:0:
36,192,74728,5,0,0:0:0:0:
402,192,74728,1,2,0:0:0:0:
475,192,74811,1,2,0:0:0:0:
109,192,74811,1,0,0:0:0:0:
402,192,74895,1,2,0:0:0:0:
182,192,74895,1,0,0:0:0:0:
109,192,74978,1,0,0:0:0:0:
329,192,74978,1,2,0:0:0:0:
402,192,75061,1,2,0:0:0:0:
36,192,75061,1,0,0:0:0:0:
402,192,75228,1,0,0:0:0:0:
182,192,75228,1,2,0:0:0:0:
109,192,75311,1,2,0:0:0:0:
329,192,75311,1,0,0:0:0:0:
402,192,75395,1,0,0:0:0:0:
36,192,75395,1,2,0:0:0:0:
475,192,75478,1,0,0:0:0:0:
109,192,75478,1,2,0:0:0:0:
402,192,75561,1,0,0:0:0:0:
182,192,75561,1,2,0:0:0:0:
36,192,75728,1,0,0:0:0:0:
475,192,75728,1,2,0:0:0:0:
109,192,75811,1,0,0:0:0:0:
402,192,75811,1,2,0:0:0:0:
182,192,75895,1,0,0:0:0:0:
329,192,75895,1,2,0:0:0:0:
109,192,75978,1,0,0:0:0:0:
402,192,75978,1,2,0:0:0:0:
36,192,76061,1,0,0:0:0:0:
475,192,76061,1,2,0:0:0:0:
182,192,76228,1,0,0:0:0:0:
329,192,76228,1,0,0:0:0:0:
109,192,76395,1,0,0:0:0:0:
402,192,76395,1,0,0:0:0:0:
182,192,76478,1,0,0:0:0:0:
475,192,76478,1,0,0:0:0:0:
36,192,76561,1,0,0:0:0:0:
329,192,76561,1,0,0:0:0:0:
109,192,76645,1,0,0:0:0:0:
402,192,76645,1,0,0:0:0:0:
182,192,76728,1,0,0:0:0:0:
475,192,76728,1,0,0:0:0:0:
256,192,76728,1,4,0:0:0:0:
402,192,76895,1,0,0:0:0:0:
256,192,77173,1,4,0:0:0:0:
329,192,77173,1,0,0:0:0:0:
256,192,77395,1,4,0:0:0:0:
256,192,77617,1,4,0:0:0:0:
329,192,77839,1,4,0:0:0:0:
329,192,78061,1,4,0:0:0:0:
402,192,78284,1,8,0:0:0:0:
402,192,78506,1,8,0:0:0:0:
329,192,78728,1,4,0:0:0:0:
329,192,78950,1,4,0:0:0:0:
36,192,79061,1,4,0:0:0:0:
256,192,79061,1,4,0:0:0:0:
475,192,79061,1,4,0:0:0:0:
109,192,79145,1,0,0:0:0:0:
329,192,79145,1,0,0:0:0:0:
182,192,79228,1,0,0:0:0:0:
402,192,79228,1,0,0:0:0:0:
475,192,79311,1,0,0:0:0:0:
256,192,79311,1,0,0:0:0:0:
402,192,79395,1,4,0:0:0:0:
182,192,79395,1,4,0:0:0:0:
36,192,79395,1,4,0:0:0:0:
109,192,79617,1,0,0:0:0:0:
329,192,79617,1,0,0:0:0:0:
109,192,79839,1,4,0:0:0:0:
329,192,79839,1,4,0:0:0:0:
402,192,79839,1,4,0:0:0:0:
182,192,80061,1,0,0:0:0:0:
36,192,80061,1,0,0:0:0:0:
402,192,80173,1,0,0:0:0:0:
475,192,80173,1,0,0:0:0:0:
182,192,80284,1,4,0:0:0:0:
36,192,80284,1,4,0:0:0:0:
256,192,80284,1,4,0:0:0:0:
109,192,80506,1,0,0:0:0:0:
402,192,80506,1,0,0:0:0:0:
109,192,80728,1,4,0:0:0:0:
329,192,80728,1,4,0:0:0:0:
402,192,80728,1,4,0:0:0:0:
182,192,80839,1,0,0:0:0:0:
475,192,80839,1,0,0:0:0:0:
109,192,80950,1,0,0:0:0:0:
402,192,80950,1,0,0:0:0:0:
36,192,81061,1,0,0:0:0:0:
329,192,81061,1,0,0:0:0:0:
109,192,81173,1,4,0:0:0:0:
182,192,81173,1,4,0:0:0:0:
402,192,81173,1,4,0:0:0:0:
256,192,81395,1,0,0:0:0:0:
475,192,81395,1,0,0:0:0:0:
256,192,81617,1,4,0:0:0:0:
182,192,81617,1,4,0:0:0:0:
475,192,81617,1,4,0:0:0:0:
402,192,81728,1,0,0:0:0:0:
109,192,81839,1,0,0:0:0:0:
329,192,81839,1,0,0:0:0:0:
109,192,82061,1,4,0:0:0:0:
329,192,82061,1,4,0:0:0:0:
182,192,82061,1,4,0:0:0:0:
36,192,82284,1,0,0:0:0:0:
402,192,82284,1,0,0:0:0:0:
36,192,82506,1,4,0:0:0:0:
402,192,82506,1,4,0:0:0:0:
256,192,82506,1,4,0:0:0:0:
109,192,82617,1,0,0:0:0:0:
475,192,82617,1,0,0:0:0:0:
182,192,82728,1,0,0:0:0:0:
402,192,82728,1,0,0:0:0:0:
109,192,82839,1,0,0:0:0:0:
329,192,82839,1,0,0:0:0:0:
36,192,82950,1,4,0:0:0:0:
402,192,82950,1,4,0:0:0:0:
475,192,82950,1,4,0:0:0:0:
109,192,83173,1,0,0:0:0:0:
329,192,83173,1,0,0:0:0:0:
109,192,83395,1,4,0:0:0:0:
329,192,83395,1,4,0:0:0:0:
475,192,83395,1,4,0:0:0:0:
182,192,83506,1,0,0:0:0:0:
256,192,83617,1,0,0:0:0:0:
402,192,83617,1,0,0:0:0:0:
256,192,83839,1,4,0:0:0:0:
402,192,83839,1,4,0:0:0:0:
475,192,83839,1,4,0:0:0:0:
182,192,83950,1,0,0:0:0:0:
109,192,84061,1,0,0:0:0:0:
36,192,84061,1,0,0:0:0:0:
36,192,84284,1,4,0:0:0:0:
109,192,84284,1,4,0:0:0:0:
329,192,84284,1,4,0:0:0:0:
182,192,84395,1,0,0:0:0:0:
402,192,84395,1,0,0:0:0:0:
109,192,84506,1,0,0:0:0:0:
329,192,84506,1,0,0:0:0:0:
256,192,84617,1,0,0:0:0:0:
36,192,84617,1,0,0:0:0:0:
475,192,84728,1,4,0:0:0:0:
402,192,84728,1,4,0:0:0:0:
109,192,84728,1,4,0:0:0:0:
109,192,84978,1,0,0:0:0:0:
329,192,84978,1,0,0:0:0:0:
182,192,85061,1,0,0:0:0:0:
402,192,85061,1,0,0:0:0:0:
402,192,85228,1,0,0:0:0:0:
182,192,85228,1,0,0:0:0:0:
109,192,85395,1,0,0:0:0:0:
329,192,85395,1,0,0:0:0:0:
475,192,85395,1,0,0:0:0:0:
256,192,85478,1,0,0:0:0:0:
36,192,85561,1,0,0:0:0:0:
182,192,85561,1,0,0:0:0:0:
402,192,85561,1,0,0:0:0:0:
109,192,85728,1,2,0:0:0:0:
182,192,85770,1,2,0:0:0:0:
256,192,85811,1,2,0:0:0:0:
329,192,85853,1,2,0:0:0:0:
402,192,85895,1,2,0:0:0:0:
109,192,85895,1,2,0:0:0:0:
182,192,85936,1,2,0:0:0:0:
256,192,85978,1,2,0:0:0:0:
329,192,86020,1,2,0:0:0:0:
475,192,86061,128,4,86395:0:0:0:0:
402,192,86061,1,6,0:0:0:0:
109,192,86061,1,4,0:0:0:0:
36,192,86061,1,4,0:0:0:0:
182,192,86228,1,0,0:0:0:0:
329,192,86395,128,0,86728:0:0:0:0:
109,192,86395,1,0,0:0:0:0:
256,192,86395,1,0,0:0:0:0:
36,192,86561,1,0,0:0:0:0:
182,192,86728,128,0,86895:0:0:0:0:
475,192,86728,1,0,0:0:0:0:
256,192,86728,1,0,0:0:0:0:
109,192,86895,128,0,87061:0:0:0:0:
402,192,86895,1,0,0:0:0:0:
329,192,86895,1,0,0:0:0:0:
36,192,87061,128,0,87728:0:0:0:0:
182,192,87061,1,0,0:0:0:0:
475,192,87061,1,0,0:0:0:0:
256,192,87228,1,0,0:0:0:0:
329,192,87228,1,0,0:0:0:0:
182,192,87395,1,0,0:0:0:0:
402,192,87395,1,0,0:0:0:0:
329,192,87561,1,0,0:0:0:0:
475,192,87561,1,0,0:0:0:0:
182,192,87728,128,0,87895:0:0:0:0:
109,192,87728,1,0,0:0:0:0:
256,192,87728,1,0,0:0:0:0:
329,192,87895,128,0,88061:0:0:0:0:
402,192,87895,1,0,0:0:0:0:
36,192,87895,1,0,0:0:0:0:
475,192,88061,128,0,88228:0:0:0:0:
256,192,88061,1,0,0:0:0:0:
182,192,88061,1,0,0:0:0:0:
329,192,88228,128,0,88395:0:0:0:0:
36,192,88228,1,0,0:0:0:0:
109,192,88228,1,0,0:0:0:0:
182,192,88395,128,0,88561:0:0:0:0:
256,192,88395,1,0,0:0:0:0:
402,192,88395,1,0,0:0:0:0:
36,192,88561,128,0,88728:0:0:0:0:
475,192,88561,1,0,0:0:0:0:
109,192,88561,1,0,0:0:0:0:
402,192,88728,128,0,89061:0:0:0:0:
329,192,88728,1,0,0:0:0:0:
256,192,88728,1,0,0:0:0:0:
182,192,88895,1,0,0:0:0:0:
109,192,88895,1,0,0:0:0:0:
256,192,89061,128,0,89395:0:0:0:0:
36,192,89061,1,0,0:0:0:0:
329,192,89061,1,0,0:0:0:0:
475,192,89228,1,0,0:0:0:0:
182,192,89228,1,0,0:0:0:0:
36,192,89395,1,0,0:0:0:0:
329,192,89395,1,0,0:0:0:0:
402,192,89395,1,0,0:0:0:0:
109,192,89450,1,0,0:0:0:0:
182,192,89506,1,0,0:0:0:0:
256,192,89561,1,0,0:0:0:0:
475,192,89561,1,0,0:0:0:0:
256,192,89728,128,0,90395:0:0:0:0:
402,192,89728,1,0,0:0:0:0:
182,192,89728,1,0,0:0:0:0:
109,192,89728,1,0,0:0:0:0:
36,192,89895,1,0,0:0:0:0:
329,192,89895,1,0,0:0:0:0:
402,192,90061,1,0,0:0:0:0:
109,192,90061,1,0,0:0:0:0:
182,192,90228,1,0,0:0:0:0:
475,192,90228,1,0,0:0:0:0:
36,192,90395,128,0,90561:0:0:0:0:
402,192,90395,1,0,0:0:0:0:
109,192,90395,1,0,0:0:0:0:
182,192,90561,128,0,90728:0:0:0:0:
256,192,90561,1,0,0:0:0:0:
329,192,90728,128,0,90895:0:0:0:0:
402,192,90728,1,0,0:0:0:0:
402,192,90895,128,0,91061:0:0:0:0:
475,192,90895,1,0,0:0:0:0:
256,192,91061,128,0,91228:0:0:0:0:
329,192,91061,1,0,0:0:0:0:
109,192,91228,128,0,91395:0:0:0:0:
182,192,91228,1,0,0:0:0:0:
475,192,91228,1,0,0:0:0:0:
329,192,91311,1,0,0:0:0:0:
36,192,91395,1,4,0:0:0:0:
256,192,91395,1,4,0:0:0:0:
402,192,91395,1,4,0:0:0:0:
475,192,91395,1,4,0:0:0:0:
182,192,91561,1,0,0:0:0:0:
329,192,91561,1,0,0:0:0:0:
109,192,91728,1,0,0:0:0:0:
256,192,91728,1,0,0:0:0:0:
475,192,91728,1,0,0:0:0:0:
36,192,91895,1,0,0:0:0:0:
329,192,91895,1,0,0:0:0:0:
182,192,92061,1,0,0:0:0:0:
402,192,92061,1,0,0:0:0:0:
109,192,92228,1,0,0:0:0:0:
329,192,92228,1,0,0:0:0:0:
182,192,92395,1,0,0:0:0:0:
256,192,92395,1,0,0:0:0:0:
402,192,92395,1,0,0:0:0:0:
475,192,92395,1,0,0:0:0:0:
329,192,92561,1,0,0:0:0:0:
109,192,92561,1,0,0:0:0:0:
36,192,92728,1,0,0:0:0:0:
182,192,92728,1,0,0:0:0:0:
402,192,92728,1,0,0:0:0:0:
109,192,92895,1,0,0:0:0:0:
475,192,92895,1,0,0:0:0:0:
182,192,93061,1,0,0:0:0:0:
329,192,93061,1,0,0:0:0:0:
36,192,93061,1,0,0:0:0:0:
256,192,93228,1,0,0:0:0:0:
402,192,93228,1,0,0:0:0:0:
182,192,93395,1,0,0:0:0:0:
36,192,93395,1,0,0:0:0:0:
109,192,93561,1,0,0:0:0:0:
256,192,93561,1,0,0:0:0:0:
329,192,93728,1,0,0:0:0:0:
182,192,93728,1,0,0:0:0:0:
475,192,93728,1,0,0:0:0:0:
256,192,93895,1,0,0:0:0:0:
402,192,93895,1,0,0:0:0:0:
475,192,94061,1,0,0:0:0:0:
182,192,94061,1,0,0:0:0:0:
36,192,94228,1,0,0:0:0:0:
329,192,94228,1,0,0:0:0:0:
475,192,94395,1,2,0:0:0:0:
256,192,94395,1,2,0:0:0:0:
36,192,94395,1,0,0:0:0:0:
182,192,94450,1,2,0:0:0:0:
402,192,94450,1,2,0:0:0:0:
109,192,94506,1,2,0:0:0:0:
329,192,94506,1,2,0:0:0:0:
36,192,94561,1,2,0:0:0:0:
475,192,94561,1,0,0:0:0:0:
109,192,94728,1,0,0:0:0:0:
402,192,94728,1,0,0:0:0:0:
36,192,94895,1,0,0:0:0:0:
329,192,94895,1,0,0:0:0:0:
182,192,95061,1,0,0:0:0:0:
475,192,95061,1,0,0:0:0:0:
256,192,95061,1,0,0:0:0:0:
109,192,95228,1,0,0:0:0:0:
402,192,95228,1,0,0:0:0:0:
475,192,95395,1,2,0:0:0:0:
256,192,95395,1,2,0:0:0:0:
36,192,95395,1,0,0:0:0:0:
402,192,95450,1,2,0:0:0:0:
182,192,95450,1,2,0:0:0:0:
109,192,95506,1,2,0:0:0:0:
329,192,95506,1,2,0:0:0:0:
36,192,95561,1,2,0:0:0:0:
475,192,95561,1,0,0:0:0:0:
475,192,95728,1,0,0:0:0:0:
109,192,95728,1,0,0:0:0:0:
256,192,95728,1,0,0:0:0:0:
36,192,95895,1,0,0:0:0:0:
402,192,95895,1,0,0:0:0:0:
329,192,95895,1,0,0:0:0:0:
475,192,96061,1,0,0:0:0:0:
182,192,96061,1,0,0:0:0:0:
402,192,96228,1,0,0:0:0:0:
109,192,96228,1,0,0:0:0:0:
329,192,96395,1,0,0:0:0:0:
36,192,96395,1,0,0:0:0:0:
109,192,96561,1,0,0:0:0:0:
256,192,96561,1,0,0:0:0:0:
182,192,96645,1,0,0:0:0:0:
36,192,96728,1,4,0:0:0:0:
109,192,96728,1,4,0:0:0:0:
329,192,96728,1,4,0:0:0:0:
475,192,96728,1,4,0:0:0:0:
402,192,96728,1,4,0:0:0:0:
182,192,96895,1,0,0:0:0:0:
109,192,97061,1,0,0:0:0:0:
256,192,97061,1,0,0:0:0:0:
329,192,97061,1,0,0:0:0:0:
402,192,97228,1,0,0:0:0:0:
36,192,97228,1,0,0:0:0:0:
475,192,97395,1,0,0:0:0:0:
182,192,97395,1,0,0:0:0:0:
109,192,97561,1,0,0:0:0:0:
402,192,97561,1,0,0:0:0:0:
36,192,97728,1,0,0:0:0:0:
329,192,97728,1,0,0:0:0:0:
256,192,97728,1,0,0:0:0:0:
475,192,97728,1,0,0:0:0:0:
182,192,97895,1,0,0:0:0:0:
402,192,97895,1,0,0:0:0:0:
109,192,98061,1,0,0:0:0:0:
36,192,98061,1,0,0:0:0:0:
256,192,98061,1,0,0:0:0:0:
182,192,98228,1,0,0:0:0:0:
329,192,98228,1,0,0:0:0:0:
475,192,98395,1,0,0:0:0:0:
256,192,98395,1,0,0:0:0:0:
36,192,98395,1,0,0:0:0:0:
402,192,98395,1,0,0:0:0:0:
329,192,98561,1,0,0:0:0:0:
109,192,98561,1,0,0:0:0:0:
402,192,98728,1,0,0:0:0:0:
182,192,98728,1,0,0:0:0:0:
475,192,98895,1,0,0:0:0:0:
256,192,98895,1,0,0:0:0:0:
36,192,99061,1,0,0:0:0:0:
329,192,99061,1,0,0:0:0:0:
402,192,99061,1,0,0:0:0:0:
109,192,99061,1,0,0:0:0:0:
256,192,99117,1,0,0:0:0:0:
182,192,99173,1,0,0:0:0:0:
109,192,99228,1,0,0:0:0:0:
329,192,99228,1,0,0:0:0:0:
256,192,99395,1,0,0:0:0:0:
475,192,99395,1,0,0:0:0:0:
36,192,99395,1,0,0:0:0:0:
329,192,99478,1,0,0:0:0:0:
402,192,99561,1,0,0:0:0:0:
109,192,99561,1,0,0:0:0:0:
329,192,99645,1,0,0:0:0:0:
182,192,99728,1,0,0:0:0:0:
256,192,99728,1,0,0:0:0:0:
36,192,99728,1,0,0:0:0:0:
475,192,99728,1,0,0:0:0:0:
329,192,99895,1,0,0:0:0:0:
402,192,99895,1,0,0:0:0:0:
109,192,99895,1,0,0:0:0:0:
475,192,100061,1,0,0:0:0:0:
182,192,100061,1,0,0:0:0:0:
402,192,100117,1,0,0:0:0:0:
329,192,100173,1,0,0:0:0:0:
256,192,100228,1,0,0:0:0:0:
36,192,100228,1,0,0:0:0:0:
402,192,100395,1,0,0:0:0:0:
109,192,100395,1,0,0:0:0:0:
475,192,100395,1,0,0:0:0:0:
329,192,100395,1,0,0:0:0:0:
36,192,100561,1,0,0:0:0:0:
256,192,100561,1,0,0:0:0:0:
182,192,100728,1,0,0:0:0:0:
109,192,100728,1,0,0:0:0:0:
329,192,100728,1,0,0:0:0:0:
109,192,100895,1,0,0:0:0:0:
182,192,100895,1,0,0:0:0:0:
329,192,101061,1,0,0:0:0:0:
36,192,101061,1,0,0:0:0:0:
256,192,101061,1,0,0:0:0:0:
402,192,101061,1,0,0:0:0:0:
329,192,101228,1,0,0:0:0:0:
109,192,101228,1,0,0:0:0:0:
402,192,101228,1,0,0:0:0:0:
402,192,101395,1,0,0:0:0:0:
475,192,101395,1,0,0:0:0:0:
182,192,101395,1,0,0:0:0:0:
256,192,101478,1,0,0:0:0:0:
109,192,101478,1,0,0:0:0:0:
36,192,101561,1,0,0:0:0:0:
182,192,101561,1,0,0:0:0:0:
329,192,101561,1,0,0:0:0:0:
109,192,101728,1,0,0:0:0:0:
256,192,101728,1,0,0:0:0:0:
402,192,101728,1,0,0:0:0:0:
182,192,101895,1,0,0:0:0:0:
329,192,101895,1,0,0:0:0:0:
475,192,101895,1,0,0:0:0:0:
109,192,101978,1,0,0:0:0:0:
36,192,102061,5,4,0:0:0:0:
402,192,102061,1,4,0:0:0:0:
256,192,102061,1,4,0:0:0:0:
109,192,102145,1,2,0:0:0:0:
329,192,102145,1,0,0:0:0:0:
182,192,102228,1,2,0:0:0:0:
402,192,102228,1,0,0:0:0:0:
475,192,102311,1,0,0:0:0:0:
109,192,102311,1,2,0:0:0:0:
402,192,102395,1,0,0:0:0:0:
36,192,102395,1,2,0:0:0:0:
329,192,102478,1,0,0:0:0:0:
109,192,102478,1,2,0:0:0:0:
182,192,102561,1,4,0:0:0:0:
402,192,102561,1,4,0:0:0:0:
256,192,102561,1,4,0:0:0:0:
109,192,102645,1,0,0:0:0:0:
475,192,102645,1,2,0:0:0:0:
402,192,102728,1,2,0:0:0:0:
36,192,102728,1,0,0:0:0:0:
329,192,102811,1,2,0:0:0:0:
109,192,102811,1,0,0:0:0:0:
402,192,102895,1,2,0:0:0:0:
182,192,102895,1,0,0:0:0:0:
109,192,102978,1,0,0:0:0:0:
475,192,102978,1,2,0:0:0:0:
36,192,103061,1,4,0:0:0:0:
402,192,103061,1,4,0:0:0:0:
256,192,103061,1,4,0:0:0:0:
329,192,103061,1,4,0:0:0:0:
182,192,103228,1,0,0:0:0:0:
109,192,103395,1,0,0:0:0:0:
256,192,103395,1,0,0:0:0:0:
475,192,103395,1,0,0:0:0:0:
182,192,103561,1,0,0:0:0:0:
329,192,103561,1,0,0:0:0:0:
109,192,103728,1,0,0:0:0:0:
36,192,103728,1,0,0:0:0:0:
475,192,103728,1,0,0:0:0:0:
402,192,103784,1,0,0:0:0:0:
329,192,103839,1,0,0:0:0:0:
256,192,103895,1,0,0:0:0:0:
182,192,103978,1,0,0:0:0:0:
475,192,104061,1,0,0:0:0:0:
109,192,104061,1,0,0:0:0:0:
402,192,104061,1,0,0:0:0:0:
36,192,104228,1,0,0:0:0:0:
329,192,104228,1,0,0:0:0:0:
109,192,104395,1,0,0:0:0:0:
402,192,104395,1,0,0:0:0:0:
182,192,104561,1,0,0:0:0:0:
475,192,104561,1,0,0:0:0:0:
329,192,104728,1,0,0:0:0:0:
402,192,104728,1,0,0:0:0:0:
36,192,104728,1,0,0:0:0:0:
182,192,104895,1,0,0:0:0:0:
109,192,104895,1,0,0:0:0:0:
36,192,105061,1,0,0:0:0:0:
475,192,105061,1,2,0:0:0:0:
256,192,105061,1,2,0:0:0:0:
402,192,105117,1,2,0:0:0:0:
182,192,105117,1,2,0:0:0:0:
329,192,105173,1,2,0:0:0:0:
109,192,105173,1,2,0:0:0:0:
475,192,105228,1,0,0:0:0:0:
36,192,105228,1,2,0:0:0:0:
109,192,105395,1,0,0:0:0:0:
402,192,105395,1,0,0:0:0:0:
182,192,105561,1,0,0:0:0:0:
329,192,105561,1,0,0:0:0:0:
36,192,105728,1,0,0:0:0:0:
475,192,105728,1,0,0:0:0:0:
402,192,105728,1,0,0:0:0:0:
109,192,105895,1,0,0:0:0:0:
329,192,105895,1,0,0:0:0:0:
256,192,106061,1,2,0:0:0:0:
475,192,106061,1,2,0:0:0:0:
36,192,106061,1,0,0:0:0:0:
182,192,106117,1,2,0:0:0:0:
402,192,106117,1,2,0:0:0:0:
109,192,106173,1,2,0:0:0:0:
329,192,106173,1,2,0:0:0:0:
475,192,106228,1,0,0:0:0:0:
36,192,106228,1,2,0:0:0:0:
109,192,106395,1,0,0:0:0:0:
402,192,106395,1,0,0:0:0:0:
329,192,106395,1,0,0:0:0:0:
182,192,106561,1,0,0:0:0:0:
256,192,106561,1,0,0:0:0:0:
36,192,106728,1,0,0:0:0:0:
402,192,106728,1,0,0:0:0:0:
475,192,106728,1,0,0:0:0:0:
109,192,106728,1,0,0:0:0:0:
182,192,106895,1,0,0:0:0:0:
329,192,106895,1,0,0:0:0:0:
256,192,106895,1,0,0:0:0:0:
36,192,107061,1,0,0:0:0:0:
475,192,107061,1,0,0:0:0:0:
256,192,107061,1,0,0:0:0:0:
402,192,107117,1,0,0:0:0:0:
182,192,107117,1,0,0:0:0:0:
329,192,107173,1,0,0:0:0:0:
109,192,107173,1,0,0:0:0:0:
36,192,107228,1,0,0:0:0:0:
475,192,107228,1,0,0:0:0:0:
256,192,107228,1,0,0:0:0:0:
182,192,107395,1,4,0:0:0:0:
329,192,107395,1,4,0:0:0:0:
109,192,107395,1,0,0:0:0:0:
402,192,107395,1,0,0:0:0:0:
182,192,107617,1,4,0:0:0:0:
182,192,107839,1,4,0:0:0:0:
109,192,108061,1,0,0:0:0:0:
109,192,108284,1,0,0:0:0:0:
182,192,108506,1,0,0:0:0:0:
182,192,108728,1,0,0:0:0:0:
329,192,108950,1,8,0:0:0:0:
329,192,109173,1,8,0:0:0:0:
256,192,109395,1,4,0:0:0:0:
182,192,109561,1,4,0:0:0:0:
329,192,109561,1,4,0:0:0:0:
475,192,109728,1,2,0:0:0:0:
402,192,109770,1,2,0:0:0:0:
36,192,109811,1,2,0:0:0:0:
329,192,109811,1,2,0:0:0:0:
109,192,109853,1,2,0:0:0:0:
182,192,109895,1,2,0:0:0:0:
109,192,109978,1,2,0:0:0:0:
402,192,109978,1,2,0:0:0:0:
256,192,109978,1,2,0:0:0:0:
36,192,110061,128,0,110561:0:0:0:0:
475,192,110061,128,0,110561:0:0:0:0:
182,192,110061,1,0,0:0:0:0:
329,192,110061,1,0,0:0:0:0:
109,192,110561,128,0,111061:0:0:0:0:
402,192,110561,128,0,111061:0:0:0:0:
329,192,110561,1,0,0:0:0:0:
182,192,110561,1,0,0:0:0:0:
182,192,111061,128,0,111561:0:0:0:0:
329,192,111061,128,0,111561:0:0:0:0:
36,192,111061,1,0,0:0:0:0:
475,192,111061,1,0,0:0:0:0:
