osu file format v13

[General]
AudioFilename: Far east nightbird2.mp3
AudioLeadIn: 1000
PreviewTime: 27057
Countdown: 0
SampleSet: None
StackLeniency: 0.7
Mode: 3
LetterboxInBreaks: 0
SpecialStyle: 0
WidescreenStoryboard: 1

[Editor]
DistanceSpacing: 0.9
BeatDivisor: 4
GridSize: 16
TimelineZoom: 2.300005

[Metadata]
Title:Far East Nightbird (Twitch remix)
TitleUnicode:Far East Nightbird (Twitch remix)
Artist:Nekomata Master
ArtistUnicode:Nekomata Master
Creator:Tear
Version:MWC Simulator 2014
Source:
Tags:
BeatmapID:480416
BeatmapSetID:203203

[Difficulty]
HPDrainRate:8
CircleSize:4
OverallDifficulty:7
ApproachRate:5
SliderMultiplier:1.8
SliderTickRate:1

[Events]
//Background and Video events
0,0,"BG.png",0,0
//Break Periods
//Storyboard Layer 0 (Background)
//Storyboard Layer 1 (Fail)
//Storyboard Layer 2 (Pass)
//Storyboard Layer 3 (Foreground)
//Storyboard Sound Samples
//Background Colour Transformations
3,100,0,0,0

[TimingPoints]
-605,333.333333333333,4,2,0,2,1,0
3394,60000,4,2,0,2,1,0
3395,-10000,4,2,0,2,0,0
4391,333.333333333333,4,2,0,2,1,0
8402,60000,4,2,0,2,1,0
8403,-10000,4,2,0,2,0,0
9605,333.333333333333,4,2,0,2,1,0
16021,60000,4,2,0,2,1,0
16022,-10000,4,2,0,2,0,0
17656,333.333333333333,4,2,0,2,1,0
23572,1,4,2,0,2,1,0
23573,-0.01,4,2,0,2,0,0

[Colours]
Combo1 : 255,157,206
Combo2 : 179,179,255

[HitObjects]
448,192,394,5,0,0:0:0:0:
320,192,561,1,0,0:0:0:0:
64,192,728,1,0,0:0:0:0:
320,192,894,1,0,0:0:0:0:
64,192,1061,1,0,0:0:0:0:
192,192,1061,1,0,0:0:0:0:
448,192,1061,1,0,0:0:0:0:
320,192,1228,1,0,0:0:0:0:
192,192,1394,1,0,0:0:0:0:
64,192,1561,1,0,0:0:0:0:
64,192,1728,1,0,0:0:0:0:
192,192,1728,1,0,0:0:0:0:
448,192,1728,1,0,0:0:0:0:
320,192,1894,1,0,0:0:0:0:
64,192,2061,1,0,0:0:0:0:
448,192,2061,1,0,0:0:0:0:
320,192,2228,1,0,0:0:0:0:
64,192,2394,1,0,0:0:0:0:
192,192,2394,1,0,0:0:0:0:
448,192,2394,1,0,0:0:0:0:
320,192,2561,1,0,0:0:0:0:
192,192,2728,1,0,0:0:0:0:
64,192,2894,1,0,0:0:0:0:
64,192,3061,1,0,0:0:0:0:
192,192,3061,1,0,0:0:0:0:
448,192,3061,1,0,0:0:0:0:
320,192,3228,1,0,0:0:0:0:
192,192,4391,1,0,0:0:0:0:
64,192,4557,1,0,0:0:0:0:
320,192,4724,1,0,0:0:0:0:
64,192,4890,1,0,0:0:0:0:
192,192,4890,1,0,0:0:0:0:
448,192,4890,1,0,0:0:0:0:
320,192,5057,1,0,0:0:0:0:
192,192,5224,1,0,0:0:0:0:
64,192,5390,1,0,0:0:0:0:
192,192,5557,1,0,0:0:0:0:
64,192,5557,1,0,0:0:0:0:
320,192,5557,1,0,0:0:0:0:
448,192,5724,1,0,0:0:0:0:
448,192,5890,1,0,0:0:0:0:
320,192,6057,1,0,0:0:0:0:
192,192,6224,1,0,0:0:0:0:
448,192,6224,1,0,0:0:0:0:
64,192,6390,1,0,0:0:0:0:
320,192,6390,1,0,0:0:0:0:
320,192,6640,1,0,0:0:0:0:
448,192,6724,1,0,0:0:0:0:
192,192,6890,1,0,0:0:0:0:
448,192,6890,1,0,0:0:0:0:
320,192,7057,1,0,0:0:0:0:
64,192,7224,1,0,0:0:0:0:
64,192,7557,1,0,0:0:0:0:
448,192,7557,1,0,0:0:0:0:
320,192,7724,1,0,0:0:0:0:
64,192,8057,1,0,0:0:0:0:
64,192,8224,1,0,0:0:0:0:
448,192,8224,1,0,0:0:0:0:
320,192,8390,1,0,0:0:0:0:
64,192,9771,1,0,0:0:0:0:
64,192,10105,1,0,0:0:0:0:
448,192,10105,1,0,0:0:0:0:
320,192,10271,1,0,0:0:0:0:
192,192,10521,1,0,0:0:0:0:
64,192,10604,1,0,0:0:0:0:
64,192,10771,1,0,0:0:0:0:
448,192,10771,1,0,0:0:0:0:
320,192,10938,1,0,0:0:0:0:
448,192,11438,1,0,0:0:0:0:
320,192,11604,1,0,0:0:0:0:
320,192,12104,1,0,0:0:0:0:
448,192,12271,1,0,0:0:0:0:
320,192,12771,1,0,0:0:0:0:
192,192,12938,1,0,0:0:0:0:
320,192,13438,1,0,0:0:0:0:
448,192,13771,1,0,0:0:0:0:
64,192,13771,1,0,0:0:0:0:
320,192,14021,1,0,0:0:0:0:
192,192,14104,1,0,0:0:0:0:
448,192,14271,1,0,0:0:0:0:
320,192,14438,1,0,0:0:0:0:
192,192,14604,1,0,0:0:0:0:
448,192,14771,1,0,0:0:0:0:
64,192,14771,1,0,0:0:0:0:
320,192,14854,1,0,0:0:0:0:
192,192,14938,1,0,0:0:0:0:
64,192,15021,1,0,0:0:0:0:
448,192,15104,128,0,15604:0:0:0:0:
192,192,15104,1,0,0:0:0:0:
320,192,15271,1,0,0:0:0:0:
64,192,15438,1,0,0:0:0:0:
192,192,15604,1,0,0:0:0:0:
320,192,15604,1,0,0:0:0:0:
192,192,15771,1,0,0:0:0:0:
64,192,15938,1,0,0:0:0:0:
192,192,16021,1,0,0:0:0:0:
448,192,16021,1,0,0:0:0:0:
64,192,17739,1,0,0:0:0:0:
192,192,17906,1,0,0:0:0:0:
448,192,17906,1,0,0:0:0:0:
64,192,18072,1,0,0:0:0:0:
64,192,18239,1,0,0:0:0:0:
320,192,18239,1,0,0:0:0:0:
64,192,18406,1,0,0:0:0:0:
192,192,18572,1,0,0:0:0:0:
448,192,18572,1,0,0:0:0:0:
192,192,18739,128,0,18989:0:0:0:0:
64,192,18906,1,0,0:0:0:0:
448,192,18906,1,0,0:0:0:0:
64,192,19072,1,0,0:0:0:0:
320,192,19072,128,0,19322:0:0:0:0:
192,192,19239,1,0,0:0:0:0:
448,192,19406,128,0,19739:0:0:0:0:
64,192,19406,1,0,0:0:0:0:
64,192,19572,1,0,0:0:0:0:
320,192,19572,1,0,0:0:0:0:
192,192,19739,1,0,0:0:0:0:
64,192,19739,1,0,0:0:0:0:
192,192,19905,1,0,0:0:0:0:
320,192,19905,1,0,0:0:0:0:
192,192,20072,1,0,0:0:0:0:
64,192,20239,1,0,0:0:0:0:
448,192,20239,1,0,0:0:0:0:
192,192,20322,1,0,0:0:0:0:
64,192,20405,1,0,0:0:0:0:
192,192,20572,1,0,0:0:0:0:
448,192,20572,1,0,0:0:0:0:
64,192,20739,1,0,0:0:0:0:
320,192,20739,1,0,0:0:0:0:
64,192,20905,1,0,0:0:0:0:
448,192,20905,1,0,0:0:0:0:
64,192,21072,1,0,0:0:0:0:
192,192,21239,1,0,0:0:0:0:
320,192,21239,1,0,0:0:0:0:
448,192,21405,1,0,0:0:0:0:
320,192,21572,1,0,0:0:0:0:
64,192,21572,1,0,0:0:0:0:
192,192,21739,128,0,22072:0:0:0:0:
64,192,21739,1,0,0:0:0:0:
320,192,21905,1,0,0:0:0:0:
448,192,21989,1,0,0:0:0:0:
320,192,22072,128,0,22239:0:0:0:0:
64,192,22072,1,0,0:0:0:0:
448,192,22239,128,0,22405:0:0:0:0:
64,192,22239,1,0,0:0:0:0:
192,192,22239,1,0,0:0:0:0:
320,192,22405,128,0,22739:0:0:0:0:
64,192,22405,1,0,0:0:0:0:
448,192,22572,128,0,22739:0:0:0:0:
192,192,22739,1,0,0:0:0:0:
64,192,22905,1,0,0:0:0:0:
448,192,22905,1,0,0:0:0:0:
192,192,22989,1,0,0:0:0:0:
64,192,23072,1,0,0:0:0:0:
192,192,23239,1,0,0:0:0:0:
448,192,23239,1,0,0:0:0:0:
64,192,23405,1,0,0:0:0:0:
64,192,23572,1,0,0:0:0:0:
320,192,23572,1,0,0:0:0:0:
64,192,25944,1,0,0:0:0:0:
192,192,25945,1,0,0:0:0:0:
320,192,25945,1,0,0:0:0:0:
320,192,25946,1,0,0:0:0:0:
448,192,25946,1,0,0:0:0:0:
64,192,25947,1,0,0:0:0:0:
320,192,25947,1,0,0:0:0:0:
448,192,25947,1,0,0:0:0:0:
192,192,25948,1,0,0:0:0:0:
64,192,25948,1,0,0:0:0:0:
448,192,25949,1,0,0:0:0:0:
320,192,25949,1,0,0:0:0:0:
192,192,25950,1,0,0:0:0:0:
448,192,25950,1,0,0:0:0:0:
320,192,25951,1,0,0:0:0:0:
64,192,25951,1,0,0:0:0:0:
448,192,25951,1,0,0:0:0:0:
64,192,25952,1,0,0:0:0:0:
192,192,25952,1,0,0:0:0:0:
448,192,25953,1,0,0:0:0:0:
64,192,25953,1,0,0:0:0:0:
448,192,25955,1,0,0:0:0:0:
320,192,25955,1,0,0:0:0:0:
320,192,25956,1,0,0:0:0:0:
64,192,25956,1,0,0:0:0:0:
320,192,25957,1,0,0:0:0:0:
448,192,25957,1,0,0:0:0:0:
64,192,25957,1,0,0:0:0:0:
448,192,25958,1,0,0:0:0:0:
64,192,25958,1,0,0:0:0:0:
192,192,25959,1,0,0:0:0:0:
448,192,25959,1,0,0:0:0:0:
64,192,25959,1,0,0:0:0:0:
320,192,25959,1,0,0:0:0:0:
192,192,27034,1,0,0:0:0:0:
