osu file format v14

[General]
AudioFilename: 06. Echoes.mp3
AudioLeadIn: 0
PreviewTime: 131517
Countdown: 1
SampleSet: Normal
StackLeniency: 0.7
Mode: 3
LetterboxInBreaks: 1
SpecialStyle: 0
WidescreenStoryboard: 0

[Editor]
DistanceSpacing: 2
BeatDivisor: 4
GridSize: 32
TimelineZoom: 1.4

[Metadata]
Title:Echoes
TitleUnicode:Echoes
Artist:Nekomata Master
ArtistUnicode:猫叉Master
Creator:Hellgert
Version:drop
Source:pop'n music 16 PARTY♪
Tags:Naoyuki Sato CONTEMPORARY NATION Raindrops wii
BeatmapID:924369
BeatmapSetID:428273

[Difficulty]
HPDrainRate:7
CircleSize:4
OverallDifficulty:7
ApproachRate:5
SliderMultiplier:1.4
SliderTickRate:1

[Events]
//Background and Video events
0,0,"35893544_p0.jpg",0,0
//Break Periods
//Storyboard Layer 0 (Background)
//Storyboard Layer 1 (Fail)
//Storyboard Layer 2 (Pass)
//Storyboard Layer 3 (Foreground)
//Storyboard Sound Samples

[TimingPoints]
350,398.684341672481,4,1,0,18,1,0
131915,-100,4,1,0,18,0,1
157431,-100,4,1,0,18,0,0

[HitObjects]
448,192,350,5,0,0:0:0:0:
64,192,350,1,0,0:0:0:0:
192,192,615,1,0,0:0:0:0:
320,192,881,1,0,0:0:0:0:
448,192,1147,1,0,0:0:0:0:
192,192,1413,1,0,0:0:0:0:
448,192,1678,1,0,0:0:0:0:
64,192,1944,1,0,0:0:0:0:
320,192,2210,1,0,0:0:0:0:
192,192,2476,1,0,0:0:0:0:
448,192,2742,1,0,0:0:0:0:
64,192,3007,1,0,0:0:0:0:
448,192,3273,1,0,0:0:0:0:
192,192,3539,1,0,0:0:0:0:
320,192,3539,1,0,0:0:0:0:
448,192,3805,1,0,0:0:0:0:
192,192,4071,1,0,0:0:0:0:
64,192,4336,1,0,0:0:0:0:
448,192,4602,1,0,0:0:0:0:
192,192,4868,1,0,0:0:0:0:
448,192,5134,1,0,0:0:0:0:
64,192,5400,1,0,0:0:0:0:
448,192,5665,1,0,0:0:0:0:
192,192,5931,1,0,0:0:0:0:
448,192,6197,1,0,0:0:0:0:
320,192,6463,1,0,0:0:0:0:
64,192,6728,1,0,0:0:0:0:
448,192,6728,1,0,0:0:0:0:
320,192,6994,1,0,0:0:0:0:
192,192,7260,1,0,0:0:0:0:
448,192,7526,1,0,0:0:0:0:
192,192,7792,1,0,0:0:0:0:
320,192,8057,1,0,0:0:0:0:
448,192,8323,1,0,0:0:0:0:
192,192,8589,1,0,0:0:0:0:
448,192,8855,1,0,0:0:0:0:
64,192,9121,1,0,0:0:0:0:
320,192,9386,1,0,0:0:0:0:
192,192,9652,1,0,0:0:0:0:
448,192,9918,1,0,0:0:0:0:
320,192,9918,1,0,0:0:0:0:
64,192,10184,1,0,0:0:0:0:
448,192,10450,1,0,0:0:0:0:
192,192,10715,1,0,0:0:0:0:
320,192,10981,1,0,0:0:0:0:
64,192,11247,1,0,0:0:0:0:
448,192,11513,1,0,0:0:0:0:
192,192,11778,1,0,0:0:0:0:
448,192,12044,1,0,0:0:0:0:
192,192,12310,1,0,0:0:0:0:
320,192,12576,1,0,0:0:0:0:
64,192,12842,1,0,0:0:0:0:
448,192,13107,1,0,0:0:0:0:
192,192,13107,1,0,0:0:0:0:
448,192,13905,1,0,0:0:0:0:
192,192,14303,1,0,0:0:0:0:
192,192,14702,1,0,0:0:0:0:
448,192,15500,1,0,0:0:0:0:
320,192,15898,1,0,0:0:0:0:
320,192,16297,1,0,0:0:0:0:
192,192,16297,1,0,0:0:0:0:
64,192,17094,1,0,0:0:0:0:
192,192,17493,1,0,0:0:0:0:
320,192,17892,1,0,0:0:0:0:
448,192,18689,1,0,0:0:0:0:
192,192,19486,1,0,0:0:0:0:
320,192,19486,1,0,0:0:0:0:
448,192,20284,1,0,0:0:0:0:
192,192,21081,1,0,0:0:0:0:
448,192,21878,1,0,0:0:0:0:
192,192,22277,1,0,0:0:0:0:
320,192,22410,1,0,0:0:0:0:
64,192,22676,1,0,0:0:0:0:
320,192,22676,1,0,0:0:0:0:
448,192,23473,1,0,0:0:0:0:
192,192,23739,1,0,0:0:0:0:
448,192,24005,1,0,0:0:0:0:
192,192,24271,1,0,0:0:0:0:
448,192,25068,1,0,0:0:0:0:
192,192,25334,1,0,0:0:0:0:
448,192,25600,1,0,0:0:0:0:
192,192,25865,1,0,0:0:0:0:
448,192,26264,1,0,0:0:0:0:
320,192,26463,1,0,0:0:0:0:
64,192,26663,1,0,0:0:0:0:
320,192,27061,1,0,0:0:0:0:
448,192,27261,1,0,0:0:0:0:
192,192,27460,1,0,0:0:0:0:
320,192,27659,1,0,0:0:0:0:
448,192,27859,1,0,0:0:0:0:
320,192,28058,1,0,0:0:0:0:
192,192,28257,1,0,0:0:0:0:
448,192,28656,1,0,0:0:0:0:
320,192,28855,1,0,0:0:0:0:
192,192,29055,1,0,0:0:0:0:
448,192,29653,1,0,0:0:0:0:
320,192,29852,1,0,0:0:0:0:
320,192,30251,1,0,0:0:0:0:
448,192,30450,1,0,0:0:0:0:
64,192,30650,1,0,0:0:0:0:
320,192,31248,1,0,0:0:0:0:
448,192,31447,1,0,0:0:0:0:
320,192,31846,1,0,0:0:0:0:
192,192,32244,1,0,0:0:0:0:
64,192,32244,1,0,0:0:0:0:
448,192,32643,1,0,0:0:0:0:
192,192,33042,1,0,0:0:0:0:
320,192,33440,1,0,0:0:0:0:
448,192,33640,1,0,0:0:0:0:
192,192,33839,1,0,0:0:0:0:
320,192,34238,1,0,0:0:0:0:
448,192,34636,1,0,0:0:0:0:
192,192,35035,1,0,0:0:0:0:
320,192,35434,1,0,0:0:0:0:
192,192,35633,1,0,0:0:0:0:
320,192,36231,1,0,0:0:0:0:
320,192,37028,1,0,0:0:0:0:
192,192,37228,1,0,0:0:0:0:
64,192,37427,1,0,0:0:0:0:
320,192,37826,1,0,0:0:0:0:
320,192,38623,1,0,0:0:0:0:
448,192,39421,1,0,0:0:0:0:
192,192,40218,1,0,0:0:0:0:
320,192,41015,1,0,0:0:0:0:
448,192,41813,1,0,0:0:0:0:
192,192,42610,1,0,0:0:0:0:
320,192,43407,1,0,0:0:0:0:
448,192,44205,1,0,0:0:0:0:
320,192,44603,1,0,0:0:0:0:
192,192,45002,1,0,0:0:0:0:
448,192,45800,1,0,0:0:0:0:
320,192,46597,1,0,0:0:0:0:
192,192,47394,1,0,0:0:0:0:
320,192,48192,1,0,0:0:0:0:
448,192,48989,1,0,0:0:0:0:
64,192,49786,1,0,0:0:0:0:
448,192,50584,1,0,0:0:0:0:
320,192,51381,1,0,0:0:0:0:
448,192,51780,1,0,0:0:0:0:
320,192,51979,1,0,0:0:0:0:
192,192,52178,1,0,0:0:0:0:
320,192,52577,1,0,0:0:0:0:
448,192,52776,1,0,0:0:0:0:
320,192,53175,1,0,0:0:0:0:
192,192,53375,1,0,0:0:0:0:
320,192,53574,1,0,0:0:0:0:
448,192,53773,1,0,0:0:0:0:
320,192,53973,1,0,0:0:0:0:
192,192,54072,1,0,0:0:0:0:
448,192,54371,1,0,0:0:0:0:
192,192,54571,1,0,0:0:0:0:
448,192,54969,1,0,0:0:0:0:
320,192,55169,1,0,0:0:0:0:
192,192,55368,1,0,0:0:0:0:
320,192,55767,1,0,0:0:0:0:
448,192,55966,1,0,0:0:0:0:
192,192,56365,1,0,0:0:0:0:
320,192,56464,1,0,0:0:0:0:
448,192,56763,1,0,0:0:0:0:
192,192,56963,1,0,0:0:0:0:
320,192,57162,1,0,0:0:0:0:
448,192,57361,1,0,0:0:0:0:
320,192,57561,1,0,0:0:0:0:
64,192,57760,1,0,0:0:0:0:
192,192,58059,1,0,0:0:0:0:
320,192,58159,1,0,0:0:0:0:
64,192,58358,1,0,0:0:0:0:
448,192,58557,1,0,0:0:0:0:
320,192,58956,1,0,0:0:0:0:
448,192,59355,1,0,0:0:0:0:
192,192,59654,1,0,0:0:0:0:
320,192,59753,1,0,0:0:0:0:
448,192,59953,1,0,0:0:0:0:
320,192,60152,1,0,0:0:0:0:
192,192,60551,1,0,0:0:0:0:
448,192,60950,1,0,0:0:0:0:
320,192,61249,1,0,0:0:0:0:
448,192,61348,1,0,0:0:0:0:
192,192,61548,1,0,0:0:0:0:
448,192,61747,1,0,0:0:0:0:
192,192,62146,1,0,0:0:0:0:
320,192,62345,1,0,0:0:0:0:
192,192,62445,1,0,0:0:0:0:
192,192,62744,1,0,0:0:0:0:
448,192,62943,1,0,0:0:0:0:
448,192,63342,1,0,0:0:0:0:
320,192,63441,1,0,0:0:0:0:
192,192,63541,1,0,0:0:0:0:
64,192,63641,1,0,0:0:0:0:
448,192,63740,1,0,0:0:0:0:
320,192,63840,1,0,0:0:0:0:
192,192,63940,1,0,0:0:0:0:
64,192,64039,1,0,0:0:0:0:
448,192,64139,1,0,0:0:0:0:
320,192,64936,1,0,0:0:0:0:
192,192,65335,1,0,0:0:0:0:
320,192,66132,1,0,0:0:0:0:
192,192,66531,1,0,0:0:0:0:
320,192,66930,1,0,0:0:0:0:
448,192,67727,1,0,0:0:0:0:
192,192,68126,1,0,0:0:0:0:
64,192,68525,1,0,0:0:0:0:
320,192,68923,1,0,0:0:0:0:
192,192,69322,1,0,0:0:0:0:
320,192,69721,1,0,0:0:0:0:
448,192,70119,1,0,0:0:0:0:
192,192,70917,1,0,0:0:0:0:
320,192,71315,1,0,0:0:0:0:
192,192,71714,1,0,0:0:0:0:
64,192,72113,1,0,0:0:0:0:
192,192,72511,1,0,0:0:0:0:
448,192,72910,1,0,0:0:0:0:
192,192,73309,1,0,0:0:0:0:
320,192,73707,1,0,0:0:0:0:
320,192,74704,1,0,0:0:0:0:
448,192,75103,1,0,0:0:0:0:
320,192,75202,1,0,0:0:0:0:
192,192,75302,1,0,0:0:0:0:
448,192,76100,1,0,0:0:0:0:
320,192,76199,1,0,0:0:0:0:
192,192,76299,1,0,0:0:0:0:
320,192,76498,1,0,0:0:0:0:
448,192,76897,1,0,0:0:0:0:
64,192,76897,1,0,0:0:0:0:
320,192,77296,1,0,0:0:0:0:
64,192,77694,1,0,0:0:0:0:
448,192,77694,1,0,0:0:0:0:
320,192,78093,1,0,0:0:0:0:
192,192,78492,1,0,0:0:0:0:
64,192,78492,1,0,0:0:0:0:
448,192,78890,1,0,0:0:0:0:
320,192,79289,1,0,0:0:0:0:
192,192,79289,1,0,0:0:0:0:
64,192,79688,1,0,0:0:0:0:
192,192,80086,1,0,0:0:0:0:
448,192,80086,1,0,0:0:0:0:
320,192,80485,1,0,0:0:0:0:
448,192,80884,1,0,0:0:0:0:
192,192,80884,1,0,0:0:0:0:
320,192,81282,1,0,0:0:0:0:
192,192,81681,1,0,0:0:0:0:
64,192,81681,1,0,0:0:0:0:
320,192,82080,1,0,0:0:0:0:
192,192,82478,1,0,0:0:0:0:
448,192,82478,1,0,0:0:0:0:
320,192,82877,1,0,0:0:0:0:
192,192,83276,1,0,0:0:0:0:
64,192,83276,1,0,0:0:0:0:
448,192,83276,1,0,0:0:0:0:
320,192,83675,1,0,0:0:0:0:
192,192,84073,1,0,0:0:0:0:
64,192,84073,1,0,0:0:0:0:
448,192,84472,1,0,0:0:0:0:
320,192,84871,1,0,0:0:0:0:
192,192,84871,1,0,0:0:0:0:
448,192,85269,1,0,0:0:0:0:
192,192,85668,1,0,0:0:0:0:
64,192,85668,1,0,0:0:0:0:
320,192,86067,1,0,0:0:0:0:
448,192,86067,1,0,0:0:0:0:
448,192,86465,1,0,0:0:0:0:
64,192,86465,1,0,0:0:0:0:
192,192,86465,1,0,0:0:0:0:
320,192,86864,1,0,0:0:0:0:
448,192,87263,1,0,0:0:0:0:
192,192,87263,1,0,0:0:0:0:
320,192,87661,1,0,0:0:0:0:
192,192,88060,1,0,0:0:0:0:
64,192,88060,1,0,0:0:0:0:
448,192,88060,1,0,0:0:0:0:
320,192,88160,1,0,0:0:0:0:
192,192,88259,1,0,0:0:0:0:
64,192,88359,1,0,0:0:0:0:
320,192,88459,1,0,0:0:0:0:
192,192,88558,1,0,0:0:0:0:
448,192,88658,1,0,0:0:0:0:
64,192,88758,1,0,0:0:0:0:
192,192,88857,1,0,0:0:0:0:
448,192,88957,1,0,0:0:0:0:
320,192,89057,1,0,0:0:0:0:
64,192,89156,1,0,0:0:0:0:
192,192,89256,1,0,0:0:0:0:
448,192,89356,1,0,0:0:0:0:
320,192,89455,1,0,0:0:0:0:
192,192,89555,1,0,0:0:0:0:
448,192,89655,1,0,0:0:0:0:
320,192,89754,1,0,0:0:0:0:
192,192,89854,1,0,0:0:0:0:
64,192,89954,1,0,0:0:0:0:
192,192,90053,1,0,0:0:0:0:
448,192,90153,1,0,0:0:0:0:
320,192,90253,1,0,0:0:0:0:
448,192,90452,1,0,0:0:0:0:
320,192,90552,1,0,0:0:0:0:
192,192,90652,1,0,0:0:0:0:
320,192,90751,1,0,0:0:0:0:
448,192,90851,1,0,0:0:0:0:
320,192,90951,1,0,0:0:0:0:
192,192,91050,1,0,0:0:0:0:
448,192,91150,1,0,0:0:0:0:
320,192,91250,1,0,0:0:0:0:
64,192,91449,1,0,0:0:0:0:
192,192,91549,1,0,0:0:0:0:
320,192,91648,1,0,0:0:0:0:
448,192,91748,1,0,0:0:0:0:
192,192,91848,1,0,0:0:0:0:
320,192,91947,1,0,0:0:0:0:
192,192,92047,1,0,0:0:0:0:
320,192,92147,1,0,0:0:0:0:
448,192,92246,1,0,0:0:0:0:
320,192,92346,1,0,0:0:0:0:
192,192,92446,1,0,0:0:0:0:
320,192,92545,1,0,0:0:0:0:
448,192,92645,1,0,0:0:0:0:
320,192,92745,1,0,0:0:0:0:
64,192,92844,1,0,0:0:0:0:
192,192,93044,1,0,0:0:0:0:
320,192,93143,1,0,0:0:0:0:
448,192,93243,1,0,0:0:0:0:
320,192,93343,1,0,0:0:0:0:
64,192,93442,1,0,0:0:0:0:
192,192,93542,1,0,0:0:0:0:
320,192,93642,1,0,0:0:0:0:
192,192,93741,1,0,0:0:0:0:
448,192,93841,1,0,0:0:0:0:
320,192,93941,1,0,0:0:0:0:
192,192,94040,1,0,0:0:0:0:
320,192,94140,1,0,0:0:0:0:
448,192,94240,1,0,0:0:0:0:
64,192,94339,1,0,0:0:0:0:
192,192,94439,1,0,0:0:0:0:
448,192,94638,1,0,0:0:0:0:
320,192,94738,1,0,0:0:0:0:
192,192,94838,1,0,0:0:0:0:
320,192,94937,1,0,0:0:0:0:
64,192,95037,1,0,0:0:0:0:
192,192,95137,1,0,0:0:0:0:
320,192,95236,1,0,0:0:0:0:
448,192,95336,1,0,0:0:0:0:
320,192,95436,1,0,0:0:0:0:
64,192,95535,1,0,0:0:0:0:
192,192,95635,1,0,0:0:0:0:
320,192,95735,1,0,0:0:0:0:
448,192,95834,1,0,0:0:0:0:
192,192,95934,1,0,0:0:0:0:
64,192,96034,1,0,0:0:0:0:
192,192,96133,1,0,0:0:0:0:
320,192,96233,1,0,0:0:0:0:
192,192,96333,1,0,0:0:0:0:
64,192,96432,1,0,0:0:0:0:
192,192,96532,1,0,0:0:0:0:
320,192,96632,1,0,0:0:0:0:
192,192,96731,1,0,0:0:0:0:
448,192,96831,1,0,0:0:0:0:
320,192,97030,1,0,0:0:0:0:
64,192,97130,1,0,0:0:0:0:
192,192,97230,1,0,0:0:0:0:
320,192,97329,1,0,0:0:0:0:
448,192,97429,1,0,0:0:0:0:
320,192,97529,1,0,0:0:0:0:
192,192,97628,1,0,0:0:0:0:
192,192,97828,1,0,0:0:0:0:
320,192,97927,1,0,0:0:0:0:
448,192,98027,1,0,0:0:0:0:
320,192,98127,1,0,0:0:0:0:
192,192,98227,1,0,0:0:0:0:
320,192,98326,1,0,0:0:0:0:
448,192,98426,1,0,0:0:0:0:
320,192,98625,1,0,0:0:0:0:
192,192,98725,1,0,0:0:0:0:
64,192,98825,1,0,0:0:0:0:
192,192,98924,1,0,0:0:0:0:
320,192,99024,1,0,0:0:0:0:
448,192,99124,1,0,0:0:0:0:
320,192,99223,1,0,0:0:0:0:
64,192,99423,1,0,0:0:0:0:
320,192,99522,1,0,0:0:0:0:
192,192,99622,1,0,0:0:0:0:
448,192,99722,1,0,0:0:0:0:
320,192,99821,1,0,0:0:0:0:
64,192,99921,1,0,0:0:0:0:
192,192,100021,1,0,0:0:0:0:
320,192,100120,1,0,0:0:0:0:
448,192,100220,1,0,0:0:0:0:
64,192,100320,1,0,0:0:0:0:
320,192,100419,1,0,0:0:0:0:
448,192,100519,1,0,0:0:0:0:
192,192,100619,1,0,0:0:0:0:
320,192,100718,1,0,0:0:0:0:
448,192,100818,1,0,0:0:0:0:
64,192,101017,1,0,0:0:0:0:
320,192,101217,1,0,0:0:0:0:
192,192,101416,1,0,0:0:0:0:
320,192,101615,1,0,0:0:0:0:
448,192,101815,1,0,0:0:0:0:
192,192,102014,1,0,0:0:0:0:
64,192,102213,1,0,0:0:0:0:
320,192,102313,1,0,0:0:0:0:
448,192,102413,1,0,0:0:0:0:
64,192,102413,1,0,0:0:0:0:
192,192,102612,1,0,0:0:0:0:
320,192,102811,1,0,0:0:0:0:
448,192,102811,1,0,0:0:0:0:
192,192,103011,1,0,0:0:0:0:
448,192,103210,1,0,0:0:0:0:
64,192,103210,1,0,0:0:0:0:
192,192,103409,1,0,0:0:0:0:
320,192,103609,1,0,0:0:0:0:
448,192,103609,1,0,0:0:0:0:
192,192,103808,1,0,0:0:0:0:
64,192,104007,1,0,0:0:0:0:
320,192,104007,1,0,0:0:0:0:
448,192,104207,1,0,0:0:0:0:
320,192,104406,1,0,0:0:0:0:
192,192,104406,1,0,0:0:0:0:
448,192,104605,1,0,0:0:0:0:
64,192,104805,1,0,0:0:0:0:
192,192,104805,1,0,0:0:0:0:
448,192,105004,1,0,0:0:0:0:
64,192,105203,1,0,0:0:0:0:
320,192,105203,1,0,0:0:0:0:
192,192,105403,1,0,0:0:0:0:
320,192,105602,1,0,0:0:0:0:
448,192,105602,1,0,0:0:0:0:
64,192,105802,1,0,0:0:0:0:
192,192,106001,1,0,0:0:0:0:
448,192,106001,1,0,0:0:0:0:
320,192,106200,1,0,0:0:0:0:
64,192,106400,1,0,0:0:0:0:
192,192,106400,1,0,0:0:0:0:
320,192,106599,1,0,0:0:0:0:
448,192,106798,1,0,0:0:0:0:
192,192,106798,1,0,0:0:0:0:
320,192,106998,1,0,0:0:0:0:
192,192,107197,1,0,0:0:0:0:
64,192,107197,1,0,0:0:0:0:
448,192,107396,1,0,0:0:0:0:
64,192,107596,1,0,0:0:0:0:
320,192,107596,1,0,0:0:0:0:
192,192,107795,1,0,0:0:0:0:
320,192,107994,1,0,0:0:0:0:
448,192,107994,1,0,0:0:0:0:
192,192,108194,1,0,0:0:0:0:
320,192,108393,1,0,0:0:0:0:
448,192,108393,1,0,0:0:0:0:
64,192,108592,1,0,0:0:0:0:
192,192,108792,1,0,0:0:0:0:
320,192,108792,1,0,0:0:0:0:
448,192,108991,1,0,0:0:0:0:
320,192,109190,1,0,0:0:0:0:
64,192,109190,1,0,0:0:0:0:
448,192,109390,1,0,0:0:0:0:
320,192,109589,1,0,0:0:0:0:
192,192,109589,1,0,0:0:0:0:
448,192,109788,1,0,0:0:0:0:
320,192,109988,1,0,0:0:0:0:
64,192,109988,1,0,0:0:0:0:
192,192,110187,1,0,0:0:0:0:
320,192,110386,1,0,0:0:0:0:
448,192,110386,1,0,0:0:0:0:
64,192,110586,1,0,0:0:0:0:
192,192,110785,1,0,0:0:0:0:
448,192,110785,1,0,0:0:0:0:
320,192,110984,1,0,0:0:0:0:
192,192,111184,1,0,0:0:0:0:
64,192,111184,1,0,0:0:0:0:
320,192,111383,1,0,0:0:0:0:
448,192,111582,1,0,0:0:0:0:
192,192,111582,1,0,0:0:0:0:
64,192,111782,1,0,0:0:0:0:
192,192,111981,1,0,0:0:0:0:
320,192,111981,1,0,0:0:0:0:
448,192,112180,1,0,0:0:0:0:
192,192,112380,1,0,0:0:0:0:
320,192,112380,1,0,0:0:0:0:
448,192,112579,1,0,0:0:0:0:
64,192,112778,1,0,0:0:0:0:
320,192,112778,1,0,0:0:0:0:
192,192,112978,1,0,0:0:0:0:
320,192,113177,1,0,0:0:0:0:
448,192,113177,1,0,0:0:0:0:
64,192,113377,1,0,0:0:0:0:
192,192,113576,1,0,0:0:0:0:
320,192,113576,1,0,0:0:0:0:
448,192,113775,1,0,0:0:0:0:
320,192,113975,1,0,0:0:0:0:
192,192,113975,1,0,0:0:0:0:
64,192,114174,1,0,0:0:0:0:
192,192,114373,1,0,0:0:0:0:
320,192,114373,1,0,0:0:0:0:
448,192,114573,1,0,0:0:0:0:
64,192,114772,1,0,0:0:0:0:
320,192,114772,1,0,0:0:0:0:
448,192,114971,1,0,0:0:0:0:
320,192,115171,1,0,0:0:0:0:
192,192,115171,1,0,0:0:0:0:
64,192,115370,1,0,0:0:0:0:
192,192,115569,1,0,0:0:0:0:
448,192,115569,1,0,0:0:0:0:
320,192,115769,1,0,0:0:0:0:
192,192,115968,1,0,0:0:0:0:
64,192,115968,1,0,0:0:0:0:
448,192,116167,1,0,0:0:0:0:
192,192,116367,1,0,0:0:0:0:
64,192,116367,1,0,0:0:0:0:
448,192,116566,1,0,0:0:0:0:
64,192,116765,1,0,0:0:0:0:
320,192,116765,1,0,0:0:0:0:
192,192,116965,1,0,0:0:0:0:
320,192,117164,1,0,0:0:0:0:
448,192,117164,1,0,0:0:0:0:
192,192,117363,1,0,0:0:0:0:
64,192,117563,1,0,0:0:0:0:
448,192,117563,1,0,0:0:0:0:
320,192,117762,1,0,0:0:0:0:
192,192,117961,1,0,0:0:0:0:
448,192,117961,1,0,0:0:0:0:
320,192,118161,1,0,0:0:0:0:
64,192,118360,1,0,0:0:0:0:
192,192,118360,1,0,0:0:0:0:
448,192,119157,1,0,0:0:0:0:
192,192,119423,1,0,0:0:0:0:
320,192,119689,1,0,0:0:0:0:
448,192,119955,1,0,0:0:0:0:
320,192,120486,1,0,0:0:0:0:
192,192,120619,1,0,0:0:0:0:
64,192,120752,1,0,0:0:0:0:
448,192,121051,1,0,0:0:0:0:
192,192,121550,1,0,0:0:0:0:
448,192,122347,1,0,0:0:0:0:
192,192,122613,1,0,0:0:0:0:
320,192,122878,1,0,0:0:0:0:
448,192,123144,1,0,0:0:0:0:
192,192,123742,1,0,0:0:0:0:
320,192,123842,1,0,0:0:0:0:
448,192,123942,1,0,0:0:0:0:
320,192,124141,1,0,0:0:0:0:
192,192,124340,1,0,0:0:0:0:
64,192,124540,1,0,0:0:0:0:
192,192,124739,1,0,0:0:0:0:
448,192,125337,1,0,0:0:0:0:
320,192,125437,1,0,0:0:0:0:
192,192,125536,1,0,0:0:0:0:
320,192,125736,1,0,0:0:0:0:
448,192,125935,1,0,0:0:0:0:
192,192,126134,1,0,0:0:0:0:
320,192,126334,1,0,0:0:0:0:
448,192,126467,1,0,0:0:0:0:
192,192,126600,1,0,0:0:0:0:
320,192,126732,1,0,0:0:0:0:
192,192,126865,1,0,0:0:0:0:
320,192,126998,1,0,0:0:0:0:
192,192,127131,1,0,0:0:0:0:
64,192,127264,1,0,0:0:0:0:
320,192,127397,1,0,0:0:0:0:
192,192,127530,1,0,0:0:0:0:
448,192,127663,1,0,0:0:0:0:
320,192,127796,1,0,0:0:0:0:
448,192,127928,1,0,0:0:0:0:
320,192,128327,1,0,0:0:0:0:
448,192,128726,1,0,0:0:0:0:
192,192,129125,1,0,0:0:0:0:
320,192,129523,1,0,0:0:0:0:
448,192,130321,1,0,0:0:0:0:
192,192,131118,1,0,0:0:0:0:
320,192,131317,1,0,0:0:0:0:
448,192,131517,1,0,0:0:0:0:
64,192,131716,1,0,0:0:0:0:
192,192,131915,1,0,0:0:0:0:
448,192,131915,1,0,0:0:0:0:
320,192,132015,1,0,0:0:0:0:
192,192,132115,1,0,0:0:0:0:
64,192,132314,1,0,0:0:0:0:
192,192,132314,1,0,0:0:0:0:
320,192,132414,1,0,0:0:0:0:
448,192,132513,1,0,0:0:0:0:
192,192,132713,1,0,0:0:0:0:
320,192,132713,1,0,0:0:0:0:
448,192,132812,1,0,0:0:0:0:
64,192,132912,1,0,0:0:0:0:
320,192,133111,1,0,0:0:0:0:
448,192,133111,1,0,0:0:0:0:
192,192,133211,1,0,0:0:0:0:
320,192,133311,1,0,0:0:0:0:
320,192,133510,1,0,0:0:0:0:
448,192,133510,1,0,0:0:0:0:
192,192,133610,1,0,0:0:0:0:
64,192,133709,1,0,0:0:0:0:
448,192,133909,1,0,0:0:0:0:
192,192,133909,1,0,0:0:0:0:
320,192,134008,1,0,0:0:0:0:
64,192,134108,1,0,0:0:0:0:
192,192,134307,1,0,0:0:0:0:
320,192,134307,1,0,0:0:0:0:
448,192,134407,1,0,0:0:0:0:
192,192,134507,1,0,0:0:0:0:
320,192,134706,1,0,0:0:0:0:
448,192,134706,1,0,0:0:0:0:
192,192,134806,1,0,0:0:0:0:
64,192,134905,1,0,0:0:0:0:
64,192,135105,1,0,0:0:0:0:
192,192,135105,1,0,0:0:0:0:
320,192,135204,1,0,0:0:0:0:
448,192,135304,1,0,0:0:0:0:
192,192,135503,1,0,0:0:0:0:
320,192,135503,1,0,0:0:0:0:
448,192,135603,1,0,0:0:0:0:
320,192,135703,1,0,0:0:0:0:
192,192,135902,1,0,0:0:0:0:
64,192,135902,1,0,0:0:0:0:
320,192,136002,1,0,0:0:0:0:
448,192,136102,1,0,0:0:0:0:
64,192,136301,1,0,0:0:0:0:
192,192,136301,1,0,0:0:0:0:
320,192,136401,1,0,0:0:0:0:
448,192,136500,1,0,0:0:0:0:
192,192,136700,1,0,0:0:0:0:
320,192,136700,1,0,0:0:0:0:
448,192,136799,1,0,0:0:0:0:
192,192,136899,1,0,0:0:0:0:
320,192,137098,1,0,0:0:0:0:
448,192,137098,1,0,0:0:0:0:
64,192,137198,1,0,0:0:0:0:
192,192,137298,1,0,0:0:0:0:
320,192,137497,1,0,0:0:0:0:
448,192,137497,1,0,0:0:0:0:
192,192,137597,1,0,0:0:0:0:
320,192,137696,1,0,0:0:0:0:
448,192,137896,1,0,0:0:0:0:
64,192,137896,1,0,0:0:0:0:
192,192,137995,1,0,0:0:0:0:
320,192,138095,1,0,0:0:0:0:
64,192,138294,1,0,0:0:0:0:
320,192,138294,1,0,0:0:0:0:
448,192,138394,1,0,0:0:0:0:
192,192,138494,1,0,0:0:0:0:
320,192,138693,1,0,0:0:0:0:
448,192,138693,1,0,0:0:0:0:
192,192,138793,1,0,0:0:0:0:
320,192,138892,1,0,0:0:0:0:
64,192,139092,1,0,0:0:0:0:
448,192,139092,1,0,0:0:0:0:
320,192,139191,1,0,0:0:0:0:
192,192,139291,1,0,0:0:0:0:
320,192,139490,1,0,0:0:0:0:
448,192,139490,1,0,0:0:0:0:
192,192,139590,1,0,0:0:0:0:
320,192,139690,1,0,0:0:0:0:
64,192,139889,1,0,0:0:0:0:
192,192,139889,1,0,0:0:0:0:
320,192,139989,1,0,0:0:0:0:
448,192,140088,1,0,0:0:0:0:
320,192,140288,1,0,0:0:0:0:
448,192,140288,1,0,0:0:0:0:
64,192,140387,1,0,0:0:0:0:
320,192,140487,1,0,0:0:0:0:
192,192,140686,1,0,0:0:0:0:
320,192,140686,1,0,0:0:0:0:
448,192,140786,1,0,0:0:0:0:
320,192,140886,1,0,0:0:0:0:
192,192,141085,1,0,0:0:0:0:
320,192,141085,1,0,0:0:0:0:
448,192,141185,1,0,0:0:0:0:
64,192,141284,1,0,0:0:0:0:
192,192,141484,1,0,0:0:0:0:
320,192,141484,1,0,0:0:0:0:
64,192,141583,1,0,0:0:0:0:
192,192,141683,1,0,0:0:0:0:
448,192,141882,1,0,0:0:0:0:
320,192,141882,1,0,0:0:0:0:
192,192,141982,1,0,0:0:0:0:
320,192,142082,1,0,0:0:0:0:
448,192,142281,1,0,0:0:0:0:
320,192,142281,1,0,0:0:0:0:
192,192,142381,1,0,0:0:0:0:
64,192,142480,1,0,0:0:0:0:
320,192,142680,1,0,0:0:0:0:
448,192,142680,1,0,0:0:0:0:
192,192,142779,1,0,0:0:0:0:
320,192,142879,1,0,0:0:0:0:
448,192,143078,1,0,0:0:0:0:
64,192,143078,1,0,0:0:0:0:
192,192,143178,1,0,0:0:0:0:
320,192,143278,1,0,0:0:0:0:
448,192,143477,1,0,0:0:0:0:
320,192,143477,1,0,0:0:0:0:
192,192,143577,1,0,0:0:0:0:
320,192,143677,1,0,0:0:0:0:
448,192,143876,1,0,0:0:0:0:
320,192,143876,1,0,0:0:0:0:
192,192,143976,1,0,0:0:0:0:
64,192,144075,1,0,0:0:0:0:
320,192,144175,1,0,0:0:0:0:
192,192,144275,1,0,0:0:0:0:
448,192,144275,1,0,0:0:0:0:
320,192,144374,1,0,0:0:0:0:
192,192,144474,1,0,0:0:0:0:
64,192,144574,1,0,0:0:0:0:
192,192,144673,1,0,0:0:0:0:
320,192,144673,1,0,0:0:0:0:
448,192,144873,1,0,0:0:0:0:
320,192,144972,1,0,0:0:0:0:
192,192,145072,1,0,0:0:0:0:
64,192,145072,1,0,0:0:0:0:
192,192,145271,1,0,0:0:0:0:
320,192,145371,1,0,0:0:0:0:
448,192,145471,1,0,0:0:0:0:
64,192,145471,1,0,0:0:0:0:
192,192,145670,1,0,0:0:0:0:
320,192,145770,1,0,0:0:0:0:
448,192,145869,1,0,0:0:0:0:
64,192,145869,1,0,0:0:0:0:
320,192,146069,1,0,0:0:0:0:
192,192,146168,1,0,0:0:0:0:
64,192,146268,1,0,0:0:0:0:
320,192,146268,1,0,0:0:0:0:
192,192,146467,1,0,0:0:0:0:
320,192,146567,1,0,0:0:0:0:
448,192,146667,1,0,0:0:0:0:
192,192,146667,1,0,0:0:0:0:
448,192,146866,1,0,0:0:0:0:
192,192,146966,1,0,0:0:0:0:
64,192,147065,1,0,0:0:0:0:
320,192,147065,1,0,0:0:0:0:
192,192,147265,1,0,0:0:0:0:
320,192,147364,1,0,0:0:0:0:
448,192,147464,1,0,0:0:0:0:
64,192,147464,1,0,0:0:0:0:
192,192,147663,1,0,0:0:0:0:
320,192,147763,1,0,0:0:0:0:
192,192,147863,1,0,0:0:0:0:
64,192,147863,1,0,0:0:0:0:
448,192,148062,1,0,0:0:0:0:
320,192,148162,1,0,0:0:0:0:
192,192,148261,1,0,0:0:0:0:
64,192,148261,1,0,0:0:0:0:
320,192,148461,1,0,0:0:0:0:
448,192,148560,1,0,0:0:0:0:
320,192,148660,1,0,0:0:0:0:
192,192,148660,1,0,0:0:0:0:
64,192,148859,1,0,0:0:0:0:
192,192,148959,1,0,0:0:0:0:
320,192,149059,1,0,0:0:0:0:
448,192,149059,1,0,0:0:0:0:
192,192,149258,1,0,0:0:0:0:
320,192,149358,1,0,0:0:0:0:
192,192,149457,1,0,0:0:0:0:
64,192,149457,1,0,0:0:0:0:
192,192,149657,1,0,0:0:0:0:
448,192,149756,1,0,0:0:0:0:
320,192,149856,1,0,0:0:0:0:
192,192,149856,1,0,0:0:0:0:
64,192,150055,1,0,0:0:0:0:
192,192,150155,1,0,0:0:0:0:
448,192,150255,1,0,0:0:0:0:
320,192,150255,1,0,0:0:0:0:
192,192,150454,1,0,0:0:0:0:
320,192,150554,1,0,0:0:0:0:
192,192,150653,1,0,0:0:0:0:
64,192,150653,1,0,0:0:0:0:
448,192,150853,1,0,0:0:0:0:
192,192,150953,1,0,0:0:0:0:
320,192,151052,1,0,0:0:0:0:
448,192,151052,1,0,0:0:0:0:
64,192,151252,1,0,0:0:0:0:
192,192,151351,1,0,0:0:0:0:
320,192,151451,1,0,0:0:0:0:
448,192,151451,1,0,0:0:0:0:
192,192,151650,1,0,0:0:0:0:
320,192,151750,1,0,0:0:0:0:
192,192,151850,1,0,0:0:0:0:
64,192,151850,1,0,0:0:0:0:
448,192,152049,1,0,0:0:0:0:
320,192,152149,1,0,0:0:0:0:
192,192,152248,1,0,0:0:0:0:
64,192,152248,1,0,0:0:0:0:
320,192,152448,1,0,0:0:0:0:
192,192,152547,1,0,0:0:0:0:
320,192,152647,1,0,0:0:0:0:
448,192,152647,1,0,0:0:0:0:
64,192,152846,1,0,0:0:0:0:
192,192,152946,1,0,0:0:0:0:
320,192,153046,1,0,0:0:0:0:
448,192,153046,1,0,0:0:0:0:
192,192,153245,1,0,0:0:0:0:
320,192,153345,1,0,0:0:0:0:
192,192,153444,1,0,0:0:0:0:
64,192,153444,1,0,0:0:0:0:
448,192,153644,1,0,0:0:0:0:
192,192,153743,1,0,0:0:0:0:
320,192,153843,1,0,0:0:0:0:
448,192,153843,1,0,0:0:0:0:
192,192,154042,1,0,0:0:0:0:
320,192,154142,1,0,0:0:0:0:
64,192,154242,1,0,0:0:0:0:
192,192,154242,1,0,0:0:0:0:
448,192,154441,1,0,0:0:0:0:
320,192,154541,1,0,0:0:0:0:
192,192,154640,1,0,0:0:0:0:
64,192,154640,1,0,0:0:0:0:
320,192,154840,1,0,0:0:0:0:
448,192,154939,1,0,0:0:0:0:
192,192,155039,1,0,0:0:0:0:
64,192,155039,1,0,0:0:0:0:
320,192,155238,1,0,0:0:0:0:
448,192,155338,1,0,0:0:0:0:
64,192,155438,1,0,0:0:0:0:
192,192,155438,1,0,0:0:0:0:
320,192,155637,1,0,0:0:0:0:
192,192,155737,1,0,0:0:0:0:
320,192,155836,1,0,0:0:0:0:
448,192,155836,1,0,0:0:0:0:
192,192,155936,1,0,0:0:0:0:
64,192,156036,1,0,0:0:0:0:
320,192,156135,1,0,0:0:0:0:
192,192,156235,1,0,0:0:0:0:
448,192,156235,1,0,0:0:0:0:
320,192,156335,1,0,0:0:0:0:
192,192,156434,1,0,0:0:0:0:
64,192,156534,1,0,0:0:0:0:
192,192,156634,1,0,0:0:0:0:
320,192,156634,1,0,0:0:0:0:
64,192,156733,1,0,0:0:0:0:
448,192,156833,1,0,0:0:0:0:
192,192,156933,1,0,0:0:0:0:
320,192,157032,1,0,0:0:0:0:
448,192,157032,1,0,0:0:0:0:
192,192,157132,1,0,0:0:0:0:
320,192,157232,1,0,0:0:0:0:
64,192,157331,1,0,0:0:0:0:
192,192,157431,1,0,0:0:0:0:
320,192,157431,1,0,0:0:0:0:
64,192,157630,1,0,0:0:0:0:
448,192,157830,1,0,0:0:0:0:
192,192,158029,1,0,0:0:0:0:
320,192,158228,1,0,0:0:0:0:
448,192,158428,1,0,0:0:0:0:
64,192,158627,1,0,0:0:0:0:
320,192,158827,1,0,0:0:0:0:
192,192,159026,1,0,0:0:0:0:
448,192,159225,1,0,0:0:0:0:
320,192,159425,1,0,0:0:0:0:
448,192,159624,1,0,0:0:0:0:
192,192,159823,1,0,0:0:0:0:
320,192,160023,1,0,0:0:0:0:
448,192,160222,1,0,0:0:0:0:
64,192,160421,1,0,0:0:0:0:
320,192,160621,1,0,0:0:0:0:
192,192,160820,1,0,0:0:0:0:
320,192,161019,1,0,0:0:0:0:
448,192,161219,1,0,0:0:0:0:
192,192,161418,1,0,0:0:0:0:
320,192,161617,1,0,0:0:0:0:
64,192,161817,1,0,0:0:0:0:
448,192,162016,1,0,0:0:0:0:
192,192,162215,1,0,0:0:0:0:
320,192,162415,1,0,0:0:0:0:
448,192,162614,1,0,0:0:0:0:
64,192,162813,1,0,0:0:0:0:
320,192,163013,1,0,0:0:0:0:
192,192,163212,1,0,0:0:0:0:
320,192,163411,1,0,0:0:0:0:
448,192,163611,1,0,0:0:0:0:
64,192,163810,1,0,0:0:0:0:
320,192,163810,1,0,0:0:0:0:
448,192,164607,1,0,0:0:0:0:
192,192,165405,1,0,0:0:0:0:
64,192,166202,1,0,0:0:0:0:
320,192,167000,1,0,0:0:0:0:
448,192,167000,1,0,0:0:0:0:
192,192,167199,1,0,0:0:0:0:
64,192,167398,1,0,0:0:0:0:
320,192,167598,1,0,0:0:0:0:
192,192,167797,1,0,0:0:0:0:
448,192,167996,1,0,0:0:0:0:
320,192,168196,1,0,0:0:0:0:
192,192,168395,1,0,0:0:0:0:
448,192,168594,1,0,0:0:0:0:
192,192,168794,1,0,0:0:0:0:
448,192,168993,1,0,0:0:0:0:
64,192,169192,1,0,0:0:0:0:
320,192,169392,1,0,0:0:0:0:
192,192,169591,1,0,0:0:0:0:
448,192,169790,1,0,0:0:0:0:
64,192,169990,1,0,0:0:0:0:
320,192,170189,1,0,0:0:0:0:
192,192,170289,1,0,0:0:0:0:
64,192,170388,1,0,0:0:0:0:
192,192,170488,1,0,0:0:0:0:
320,192,170588,1,0,0:0:0:0:
192,192,170687,1,0,0:0:0:0:
448,192,170787,1,0,0:0:0:0:
192,192,170986,1,0,0:0:0:0:
64,192,171086,1,0,0:0:0:0:
192,192,171186,1,0,0:0:0:0:
320,192,171285,1,0,0:0:0:0:
448,192,171385,1,0,0:0:0:0:
192,192,171485,1,0,0:0:0:0:
64,192,171584,1,0,0:0:0:0:
320,192,171784,1,0,0:0:0:0:
448,192,171883,1,0,0:0:0:0:
192,192,171983,1,0,0:0:0:0:
64,192,172083,1,0,0:0:0:0:
320,192,172182,1,0,0:0:0:0:
448,192,172282,1,0,0:0:0:0:
192,192,172382,1,0,0:0:0:0:
448,192,172581,1,0,0:0:0:0:
192,192,172681,1,0,0:0:0:0:
320,192,172780,1,0,0:0:0:0:
64,192,172880,1,0,0:0:0:0:
320,192,172980,1,0,0:0:0:0:
448,192,173079,1,0,0:0:0:0:
192,192,173179,1,0,0:0:0:0:
320,192,173379,1,0,0:0:0:0:
64,192,173478,1,0,0:0:0:0:
192,192,173578,1,0,0:0:0:0:
320,192,173678,1,0,0:0:0:0:
192,192,173777,1,0,0:0:0:0:
320,192,173877,1,0,0:0:0:0:
448,192,173977,1,0,0:0:0:0:
192,192,174176,1,0,0:0:0:0:
320,192,174276,1,0,0:0:0:0:
64,192,174375,1,0,0:0:0:0:
320,192,174475,1,0,0:0:0:0:
64,192,174575,1,0,0:0:0:0:
448,192,174674,1,0,0:0:0:0:
192,192,174774,1,0,0:0:0:0:
320,192,174973,1,0,0:0:0:0:
448,192,175073,1,0,0:0:0:0:
64,192,175173,1,0,0:0:0:0:
192,192,175272,1,0,0:0:0:0:
320,192,175372,1,0,0:0:0:0:
192,192,175472,1,0,0:0:0:0:
448,192,175571,1,0,0:0:0:0:
192,192,175771,1,0,0:0:0:0:
320,192,175870,1,0,0:0:0:0:
448,192,175970,1,0,0:0:0:0:
64,192,176070,1,0,0:0:0:0:
448,192,176169,1,0,0:0:0:0:
192,192,176269,1,0,0:0:0:0:
320,192,176369,1,0,0:0:0:0:
448,192,176568,1,0,0:0:0:0:
192,192,176668,1,0,0:0:0:0:
320,192,176767,1,0,0:0:0:0:
64,192,176867,1,0,0:0:0:0:
320,192,176967,1,0,0:0:0:0:
64,192,177066,1,0,0:0:0:0:
320,192,177166,1,0,0:0:0:0:
192,192,177166,1,0,0:0:0:0:
192,192,177365,1,0,0:0:0:0:
320,192,177465,1,0,0:0:0:0:
192,192,177565,1,0,0:0:0:0:
64,192,177664,1,0,0:0:0:0:
448,192,177764,1,0,0:0:0:0:
64,192,177864,1,0,0:0:0:0:
448,192,177963,1,0,0:0:0:0:
192,192,178163,1,0,0:0:0:0:
320,192,178262,1,0,0:0:0:0:
448,192,178362,1,0,0:0:0:0:
64,192,178462,1,0,0:0:0:0:
320,192,178561,1,0,0:0:0:0:
192,192,178661,1,0,0:0:0:0:
320,192,178761,1,0,0:0:0:0:
448,192,178960,1,0,0:0:0:0:
192,192,179060,1,0,0:0:0:0:
320,192,179159,1,0,0:0:0:0:
448,192,179259,1,0,0:0:0:0:
192,192,179359,1,0,0:0:0:0:
448,192,179458,1,0,0:0:0:0:
64,192,179558,1,0,0:0:0:0:
192,192,179757,1,0,0:0:0:0:
320,192,179857,1,0,0:0:0:0:
448,192,179957,1,0,0:0:0:0:
192,192,180056,1,0,0:0:0:0:
320,192,180156,1,0,0:0:0:0:
64,192,180256,1,0,0:0:0:0:
192,192,180355,1,0,0:0:0:0:
448,192,180555,1,0,0:0:0:0:
64,192,180654,1,0,0:0:0:0:
320,192,180754,1,0,0:0:0:0:
64,192,180854,1,0,0:0:0:0:
192,192,180954,1,0,0:0:0:0:
320,192,181053,1,0,0:0:0:0:
448,192,181153,1,0,0:0:0:0:
320,192,181352,1,0,0:0:0:0:
192,192,181452,1,0,0:0:0:0:
448,192,181552,1,0,0:0:0:0:
192,192,181651,1,0,0:0:0:0:
320,192,181751,1,0,0:0:0:0:
64,192,181851,1,0,0:0:0:0:
448,192,181950,1,0,0:0:0:0:
192,192,182150,1,0,0:0:0:0:
320,192,182249,1,0,0:0:0:0:
448,192,182349,1,0,0:0:0:0:
64,192,182449,1,0,0:0:0:0:
320,192,182548,1,0,0:0:0:0:
192,192,182648,1,0,0:0:0:0:
320,192,182748,1,0,0:0:0:0:
448,192,182947,1,0,0:0:0:0:
192,192,183047,1,0,0:0:0:0:
320,192,183146,1,0,0:0:0:0:
64,192,183246,1,0,0:0:0:0:
320,192,183346,1,0,0:0:0:0:
192,192,183445,1,0,0:0:0:0:
448,192,183545,1,0,0:0:0:0:
320,192,183645,1,0,0:0:0:0:
192,192,183744,1,0,0:0:0:0:
320,192,183794,1,0,0:0:0:0:
448,192,183844,1,0,0:0:0:0:
64,192,183894,1,0,0:0:0:0:
192,192,183944,1,0,0:0:0:0:
320,192,183993,1,0,0:0:0:0:
448,192,184043,1,0,0:0:0:0:
64,192,184093,1,0,0:0:0:0:
192,192,184143,1,0,0:0:0:0:
448,192,184342,1,0,0:0:0:0:
192,192,184442,1,0,0:0:0:0:
320,192,184542,1,0,0:0:0:0:
448,192,184542,1,0,0:0:0:0:
192,192,184741,1,0,0:0:0:0:
64,192,184940,1,0,0:0:0:0:
320,192,184940,1,0,0:0:0:0:
192,192,185140,1,0,0:0:0:0:
448,192,185339,1,0,0:0:0:0:
320,192,185339,1,0,0:0:0:0:
192,192,185538,1,0,0:0:0:0:
320,192,185738,1,0,0:0:0:0:
64,192,185738,1,0,0:0:0:0:
448,192,185937,1,0,0:0:0:0:
320,192,186136,1,0,0:0:0:0:
192,192,186136,1,0,0:0:0:0:
448,192,186336,1,0,0:0:0:0:
320,192,186535,1,0,0:0:0:0:
64,192,186535,1,0,0:0:0:0:
192,192,186734,1,0,0:0:0:0:
320,192,186934,1,0,0:0:0:0:
448,192,186934,1,0,0:0:0:0:
192,192,187133,1,0,0:0:0:0:
64,192,187332,1,0,0:0:0:0:
448,192,187332,1,0,0:0:0:0:
320,192,187532,1,0,0:0:0:0:
192,192,187731,1,0,0:0:0:0:
64,192,187731,1,0,0:0:0:0:
448,192,187930,1,0,0:0:0:0:
192,192,188130,1,0,0:0:0:0:
64,192,188329,1,0,0:0:0:0:
320,192,188529,1,0,0:0:0:0:
448,192,188529,1,0,0:0:0:0:
192,192,188728,1,0,0:0:0:0:
320,192,188927,1,0,0:0:0:0:
448,192,188927,1,0,0:0:0:0:
64,192,189127,1,0,0:0:0:0:
448,192,189326,1,0,0:0:0:0:
192,192,189326,1,0,0:0:0:0:
320,192,189525,1,0,0:0:0:0:
192,192,189725,1,0,0:0:0:0:
64,192,189725,1,0,0:0:0:0:
320,192,189924,1,0,0:0:0:0:
448,192,190123,1,0,0:0:0:0:
64,192,190123,1,0,0:0:0:0:
192,192,190323,1,0,0:0:0:0:
320,192,190522,1,0,0:0:0:0:
448,192,190522,1,0,0:0:0:0:
192,192,190721,1,0,0:0:0:0:
320,192,190921,1,0,0:0:0:0:
448,192,190921,1,0,0:0:0:0:
192,192,191120,1,0,0:0:0:0:
64,192,191319,1,0,0:0:0:0:
320,192,191319,1,0,0:0:0:0:
448,192,191519,1,0,0:0:0:0:
320,192,191718,1,0,0:0:0:0:
192,192,191718,1,0,0:0:0:0:
64,192,191917,1,0,0:0:0:0:
320,192,192117,1,0,0:0:0:0:
448,192,192117,1,0,0:0:0:0:
192,192,192316,1,0,0:0:0:0:
320,192,192515,1,0,0:0:0:0:
64,192,192515,1,0,0:0:0:0:
448,192,192715,1,0,0:0:0:0:
320,192,192914,1,0,0:0:0:0:
192,192,192914,1,0,0:0:0:0:
448,192,193113,1,0,0:0:0:0:
320,192,193313,1,0,0:0:0:0:
64,192,193313,1,0,0:0:0:0:
448,192,193512,1,0,0:0:0:0:
320,192,193711,1,0,0:0:0:0:
192,192,193711,1,0,0:0:0:0:
64,192,193911,1,0,0:0:0:0:
192,192,194110,1,0,0:0:0:0:
448,192,194110,1,0,0:0:0:0:
320,192,194309,1,0,0:0:0:0:
192,192,194509,1,0,0:0:0:0:
64,192,194509,1,0,0:0:0:0:
320,192,194708,1,0,0:0:0:0:
192,192,194907,1,0,0:0:0:0:
64,192,194907,1,0,0:0:0:0:
448,192,195107,1,0,0:0:0:0:
320,192,195306,1,0,0:0:0:0:
192,192,195306,1,0,0:0:0:0:
64,192,195505,1,0,0:0:0:0:
320,192,195705,1,0,0:0:0:0:
448,192,195705,1,0,0:0:0:0:
192,192,195904,1,0,0:0:0:0:
320,192,196104,1,0,0:0:0:0:
448,192,196104,1,0,0:0:0:0:
64,192,196303,1,0,0:0:0:0:
192,192,196502,1,0,0:0:0:0:
448,192,196502,1,0,0:0:0:0:
320,192,196702,1,0,0:0:0:0:
192,192,196901,1,0,0:0:0:0:
64,192,196901,1,0,0:0:0:0:
320,192,197100,1,0,0:0:0:0:
448,192,197300,1,0,0:0:0:0:
192,192,197300,1,0,0:0:0:0:
320,192,197499,1,0,0:0:0:0:
192,192,197698,1,0,0:0:0:0:
64,192,197698,1,0,0:0:0:0:
320,192,197898,1,0,0:0:0:0:
448,192,198097,1,0,0:0:0:0:
64,192,198097,1,0,0:0:0:0:
320,192,198296,1,0,0:0:0:0:
192,192,198496,1,0,0:0:0:0:
64,192,198496,1,0,0:0:0:0:
320,192,198695,1,0,0:0:0:0:
448,192,198894,1,0,0:0:0:0:
192,192,198894,1,0,0:0:0:0:
320,192,199094,1,0,0:0:0:0:
192,192,199293,1,0,0:0:0:0:
64,192,199293,1,0,0:0:0:0:
320,192,199492,1,0,0:0:0:0:
192,192,199692,1,0,0:0:0:0:
448,192,199692,1,0,0:0:0:0:
320,192,199891,1,0,0:0:0:0:
192,192,200090,1,0,0:0:0:0:
64,192,200090,1,0,0:0:0:0:
448,192,200290,1,0,0:0:0:0:
320,192,200489,1,0,0:0:0:0:
192,192,200489,1,0,0:0:0:0:
448,192,201286,1,0,0:0:0:0:
192,192,201552,1,0,0:0:0:0:
320,192,201818,1,0,0:0:0:0:
320,192,202084,1,0,0:0:0:0:
448,192,202615,1,0,0:0:0:0:
320,192,202748,1,0,0:0:0:0:
192,192,202881,1,0,0:0:0:0:
320,192,203280,1,0,0:0:0:0:
448,192,203679,1,0,0:0:0:0:
320,192,203811,1,0,0:0:0:0:
64,192,203944,1,0,0:0:0:0:
192,192,204077,1,0,0:0:0:0:
320,192,204210,1,0,0:0:0:0:
448,192,204343,1,0,0:0:0:0:
192,192,204476,1,0,0:0:0:0:
320,192,204742,1,0,0:0:0:0:
448,192,205007,1,0,0:0:0:0:
192,192,205273,1,0,0:0:0:0:
320,192,205672,1,0,0:0:0:0:
64,192,206071,1,0,0:0:0:0:
448,192,206071,1,0,0:0:0:0:
320,192,206204,1,0,0:0:0:0:
448,192,206336,1,0,0:0:0:0:
192,192,206469,1,0,0:0:0:0:
320,192,206469,1,0,0:0:0:0:
64,192,206602,1,0,0:0:0:0:
192,192,206735,1,0,0:0:0:0:
320,192,206868,1,0,0:0:0:0:
448,192,206868,1,0,0:0:0:0:
320,192,207267,1,0,0:0:0:0:
320,192,207566,1,0,0:0:0:0:
448,192,207665,1,0,0:0:0:0:
192,192,208064,1,0,0:0:0:0:
64,192,208463,1,0,0:0:0:0:
448,192,208861,1,0,0:0:0:0:
320,192,209061,1,0,0:0:0:0:
192,192,209160,1,0,0:0:0:0:
64,192,209260,1,0,0:0:0:0:
320,192,209526,1,0,0:0:0:0:
448,192,209792,1,0,0:0:0:0:
192,192,210057,1,0,0:0:0:0:
320,192,210456,1,0,0:0:0:0:
448,192,210556,1,0,0:0:0:0:
64,192,210655,1,0,0:0:0:0:
320,192,210755,1,0,0:0:0:0:
192,192,210855,1,0,0:0:0:0:
320,192,211254,1,0,0:0:0:0:
192,192,211353,1,0,0:0:0:0:
320,192,211453,1,0,0:0:0:0:
448,192,211553,1,0,0:0:0:0:
320,192,211652,1,0,0:0:0:0:
64,192,212051,1,0,0:0:0:0:
192,192,212250,1,0,0:0:0:0:
320,192,212450,1,0,0:0:0:0:
448,192,212649,1,0,0:0:0:0:
192,192,212848,1,0,0:0:0:0:
320,192,213048,1,0,0:0:0:0:
448,192,213247,1,0,0:0:0:0:
64,192,213446,1,0,0:0:0:0:
192,192,213646,1,0,0:0:0:0:
320,192,213845,1,0,0:0:0:0:
448,192,214044,1,0,0:0:0:0:
448,192,214443,1,0,0:0:0:0:
192,192,214842,1,0,0:0:0:0:
320,192,215240,1,0,0:0:0:0:
64,192,215639,1,0,0:0:0:0:
320,192,216038,1,0,0:0:0:0:
448,192,216436,1,0,0:0:0:0:
192,192,216835,1,0,0:0:0:0:
320,192,217234,1,0,0:0:0:0:
448,192,217632,1,0,0:0:0:0:
192,192,218031,1,0,0:0:0:0:
320,192,218430,1,0,0:0:0:0:
448,192,218829,1,0,0:0:0:0:
192,192,219227,1,0,0:0:0:0:
320,192,219626,1,0,0:0:0:0:
448,192,220025,1,0,0:0:0:0:
192,192,220224,1,0,0:0:0:0:
320,192,220224,1,0,0:0:0:0:
64,192,220423,1,0,0:0:0:0:
192,192,220423,1,0,0:0:0:0:
448,192,222018,1,0,0:0:0:0:
64,192,223613,1,0,0:0:0:0:
320,192,225207,1,0,0:0:0:0:
448,192,226802,1,0,0:0:0:0:
448,192,227998,1,0,0:0:0:0:
192,192,228397,1,0,0:0:0:0:
64,192,228397,1,0,0:0:0:0:
320,192,228497,1,0,0:0:0:0:
448,192,228596,1,0,0:0:0:0:
192,192,228796,1,0,0:0:0:0:
320,192,228796,1,0,0:0:0:0:
448,192,228895,1,0,0:0:0:0:
64,192,228995,1,0,0:0:0:0:
320,192,229194,1,0,0:0:0:0:
448,192,229194,1,0,0:0:0:0:
192,192,229294,1,0,0:0:0:0:
64,192,229394,1,0,0:0:0:0:
320,192,229593,1,0,0:0:0:0:
448,192,229593,1,0,0:0:0:0:
192,192,229693,1,0,0:0:0:0:
64,192,229792,1,0,0:0:0:0:
320,192,229992,1,0,0:0:0:0:
448,192,229992,1,0,0:0:0:0:
192,192,230091,1,0,0:0:0:0:
320,192,230191,1,0,0:0:0:0:
448,192,230390,1,0,0:0:0:0:
64,192,230390,1,0,0:0:0:0:
192,192,230490,1,0,0:0:0:0:
320,192,230590,1,0,0:0:0:0:
448,192,230789,1,0,0:0:0:0:
320,192,230789,1,0,0:0:0:0:
192,192,230889,1,0,0:0:0:0:
320,192,230988,1,0,0:0:0:0:
192,192,231188,1,0,0:0:0:0:
64,192,231188,1,0,0:0:0:0:
320,192,231287,1,0,0:0:0:0:
448,192,231387,1,0,0:0:0:0:
64,192,231586,1,0,0:0:0:0:
192,192,231586,1,0,0:0:0:0:
448,192,231686,1,0,0:0:0:0:
64,192,231786,1,0,0:0:0:0:
320,192,231985,1,0,0:0:0:0:
448,192,231985,1,0,0:0:0:0:
64,192,232085,1,0,0:0:0:0:
448,192,232184,1,0,0:0:0:0:
320,192,232384,1,0,0:0:0:0:
448,192,232384,1,0,0:0:0:0:
192,192,232483,1,0,0:0:0:0:
320,192,232583,1,0,0:0:0:0:
64,192,232782,1,0,0:0:0:0:
192,192,232782,1,0,0:0:0:0:
320,192,232882,1,0,0:0:0:0:
192,192,232982,1,0,0:0:0:0:
64,192,233181,1,0,0:0:0:0:
448,192,233181,1,0,0:0:0:0:
320,192,233281,1,0,0:0:0:0:
448,192,233380,1,0,0:0:0:0:
320,192,233580,1,0,0:0:0:0:
448,192,233580,1,0,0:0:0:0:
192,192,233680,1,0,0:0:0:0:
320,192,233779,1,0,0:0:0:0:
64,192,233979,1,0,0:0:0:0:
192,192,233979,1,0,0:0:0:0:
448,192,234078,1,0,0:0:0:0:
64,192,234178,1,0,0:0:0:0:
448,192,234377,1,0,0:0:0:0:
192,192,234377,1,0,0:0:0:0:
320,192,234477,1,0,0:0:0:0:
448,192,234577,1,0,0:0:0:0:
64,192,234776,1,0,0:0:0:0:
192,192,234776,1,0,0:0:0:0:
320,192,234876,1,0,0:0:0:0:
448,192,234975,1,0,0:0:0:0:
192,192,235175,1,0,0:0:0:0:
320,192,235175,1,0,0:0:0:0:
448,192,235274,1,0,0:0:0:0:
64,192,235374,1,0,0:0:0:0:
320,192,235573,1,0,0:0:0:0:
448,192,235573,1,0,0:0:0:0:
192,192,235673,1,0,0:0:0:0:
320,192,235773,1,0,0:0:0:0:
64,192,235972,1,0,0:0:0:0:
192,192,235972,1,0,0:0:0:0:
448,192,236072,1,0,0:0:0:0:
192,192,236171,1,0,0:0:0:0:
320,192,236371,1,0,0:0:0:0:
448,192,236371,1,0,0:0:0:0:
192,192,236470,1,0,0:0:0:0:
64,192,236570,1,0,0:0:0:0:
448,192,236769,1,0,0:0:0:0:
320,192,236769,1,0,0:0:0:0:
192,192,236869,1,0,0:0:0:0:
448,192,236969,1,0,0:0:0:0:
320,192,237168,1,0,0:0:0:0:
448,192,237168,1,0,0:0:0:0:
64,192,237268,1,0,0:0:0:0:
320,192,237367,1,0,0:0:0:0:
448,192,237567,1,0,0:0:0:0:
192,192,237567,1,0,0:0:0:0:
320,192,237666,1,0,0:0:0:0:
192,192,237766,1,0,0:0:0:0:
64,192,237965,1,0,0:0:0:0:
192,192,237965,1,0,0:0:0:0:
320,192,238065,1,0,0:0:0:0:
448,192,238165,1,0,0:0:0:0:
320,192,238364,1,0,0:0:0:0:
448,192,238364,1,0,0:0:0:0:
64,192,238464,1,0,0:0:0:0:
448,192,238563,1,0,0:0:0:0:
192,192,238763,1,0,0:0:0:0:
320,192,238763,1,0,0:0:0:0:
448,192,238862,1,0,0:0:0:0:
192,192,238962,1,0,0:0:0:0:
320,192,239161,1,0,0:0:0:0:
448,192,239161,1,0,0:0:0:0:
192,192,239261,1,0,0:0:0:0:
64,192,239361,1,0,0:0:0:0:
320,192,239560,1,0,0:0:0:0:
448,192,239560,1,0,0:0:0:0:
192,192,239660,1,0,0:0:0:0:
320,192,239759,1,0,0:0:0:0:
448,192,239959,1,0,0:0:0:0:
64,192,239959,1,0,0:0:0:0:
192,192,240058,1,0,0:0:0:0:
320,192,240158,1,0,0:0:0:0:
320,192,240357,1,0,0:0:0:0:
448,192,240357,1,0,0:0:0:0:
192,192,240457,1,0,0:0:0:0:
64,192,240557,1,0,0:0:0:0:
320,192,240656,1,0,0:0:0:0:
448,192,240756,1,0,0:0:0:0:
192,192,240756,1,0,0:0:0:0:
320,192,240856,1,0,0:0:0:0:
192,192,240956,1,0,0:0:0:0:
64,192,241055,1,0,0:0:0:0:
192,192,241155,1,0,0:0:0:0:
448,192,241155,1,0,0:0:0:0:
320,192,241354,1,0,0:0:0:0:
192,192,241454,1,0,0:0:0:0:
64,192,241554,1,0,0:0:0:0:
320,192,241554,1,0,0:0:0:0:
192,192,241753,1,0,0:0:0:0:
320,192,241853,1,0,0:0:0:0:
448,192,241952,1,0,0:0:0:0:
64,192,241952,1,0,0:0:0:0:
192,192,242152,1,0,0:0:0:0:
320,192,242251,1,0,0:0:0:0:
448,192,242351,1,0,0:0:0:0:
64,192,242351,1,0,0:0:0:0:
320,192,242550,1,0,0:0:0:0:
448,192,242650,1,0,0:0:0:0:
192,192,242750,1,0,0:0:0:0:
64,192,242750,1,0,0:0:0:0:
320,192,242949,1,0,0:0:0:0:
448,192,243049,1,0,0:0:0:0:
320,192,243148,1,0,0:0:0:0:
192,192,243148,1,0,0:0:0:0:
64,192,243348,1,0,0:0:0:0:
320,192,243447,1,0,0:0:0:0:
192,192,243547,1,0,0:0:0:0:
448,192,243547,1,0,0:0:0:0:
320,192,243746,1,0,0:0:0:0:
448,192,243846,1,0,0:0:0:0:
192,192,243946,1,0,0:0:0:0:
64,192,243946,1,0,0:0:0:0:
320,192,244145,1,0,0:0:0:0:
448,192,244245,1,0,0:0:0:0:
192,192,244344,1,0,0:0:0:0:
64,192,244344,1,0,0:0:0:0:
320,192,244544,1,0,0:0:0:0:
192,192,244643,1,0,0:0:0:0:
64,192,244743,1,0,0:0:0:0:
448,192,244743,1,0,0:0:0:0:
320,192,244942,1,0,0:0:0:0:
448,192,245042,1,0,0:0:0:0:
320,192,245142,1,0,0:0:0:0:
64,192,245142,1,0,0:0:0:0:
320,192,245341,1,0,0:0:0:0:
448,192,245441,1,0,0:0:0:0:
192,192,245540,1,0,0:0:0:0:
64,192,245540,1,0,0:0:0:0:
192,192,245740,1,0,0:0:0:0:
448,192,245839,1,0,0:0:0:0:
320,192,245939,1,0,0:0:0:0:
192,192,245939,1,0,0:0:0:0:
192,192,246138,1,0,0:0:0:0:
320,192,246238,1,0,0:0:0:0:
448,192,246338,1,0,0:0:0:0:
64,192,246338,1,0,0:0:0:0:
320,192,246537,1,0,0:0:0:0:
192,192,246637,1,0,0:0:0:0:
64,192,246736,1,0,0:0:0:0:
448,192,246736,1,0,0:0:0:0:
320,192,246936,1,0,0:0:0:0:
448,192,247035,1,0,0:0:0:0:
192,192,247135,1,0,0:0:0:0:
64,192,247135,1,0,0:0:0:0:
320,192,247334,1,0,0:0:0:0:
448,192,247434,1,0,0:0:0:0:
192,192,247534,1,0,0:0:0:0:
320,192,247534,1,0,0:0:0:0:
448,192,247733,1,0,0:0:0:0:
64,192,247833,1,0,0:0:0:0:
192,192,247932,1,0,0:0:0:0:
448,192,247932,1,0,0:0:0:0:
320,192,248132,1,0,0:0:0:0:
448,192,248231,1,0,0:0:0:0:
192,192,248331,1,0,0:0:0:0:
64,192,248331,1,0,0:0:0:0:
448,192,248531,1,0,0:0:0:0:
192,192,248630,1,0,0:0:0:0:
320,192,248730,1,0,0:0:0:0:
448,192,248730,1,0,0:0:0:0:
192,192,248929,1,0,0:0:0:0:
64,192,249029,1,0,0:0:0:0:
320,192,249129,1,0,0:0:0:0:
448,192,249129,1,0,0:0:0:0:
192,192,249328,1,0,0:0:0:0:
320,192,249428,1,0,0:0:0:0:
448,192,249527,1,0,0:0:0:0:
64,192,249527,1,0,0:0:0:0:
192,192,249727,1,0,0:0:0:0:
448,192,249826,1,0,0:0:0:0:
320,192,249926,1,0,0:0:0:0:
192,192,249926,1,0,0:0:0:0:
64,192,250125,1,0,0:0:0:0:
320,192,250225,1,0,0:0:0:0:
192,192,250325,1,0,0:0:0:0:
448,192,250325,1,0,0:0:0:0:
320,192,250524,1,0,0:0:0:0:
448,192,250624,1,0,0:0:0:0:
192,192,250723,1,0,0:0:0:0:
64,192,250723,1,0,0:0:0:0:
448,192,250923,1,0,0:0:0:0:
192,192,251022,1,0,0:0:0:0:
320,192,251122,1,0,0:0:0:0:
448,192,251122,1,0,0:0:0:0:
192,192,251321,1,0,0:0:0:0:
448,192,251421,1,0,0:0:0:0:
64,192,251521,1,0,0:0:0:0:
192,192,251521,1,0,0:0:0:0:
320,192,251720,1,0,0:0:0:0:
448,192,251820,1,0,0:0:0:0:
192,192,251919,1,0,0:0:0:0:
64,192,251919,1,0,0:0:0:0:
320,192,252119,1,0,0:0:0:0:
448,192,252218,1,0,0:0:0:0:
192,192,252318,1,0,0:0:0:0:
64,192,252318,1,0,0:0:0:0:
320,192,252517,1,0,0:0:0:0:
192,192,252617,1,0,0:0:0:0:
320,192,252717,1,0,0:0:0:0:
448,192,252717,1,0,0:0:0:0:
192,192,252916,1,0,0:0:0:0:
320,192,253016,1,0,0:0:0:0:
448,192,253115,1,0,0:0:0:0:
64,192,253115,1,0,0:0:0:0:
320,192,253215,1,0,0:0:0:0:
192,192,253315,1,0,0:0:0:0:
64,192,253414,1,0,0:0:0:0:
192,192,253514,1,0,0:0:0:0:
320,192,253514,1,0,0:0:0:0:
448,192,253614,1,0,0:0:0:0:
192,192,253713,1,0,0:0:0:0:
320,192,253813,1,0,0:0:0:0:
192,192,253913,1,0,0:0:0:0:
64,192,253913,1,0,0:0:0:0:
320,192,254012,1,0,0:0:0:0:
192,192,254112,1,0,0:0:0:0:
320,192,254212,1,0,0:0:0:0:
64,192,254311,1,0,0:0:0:0:
448,192,254311,1,0,0:0:0:0:
320,192,254411,1,0,0:0:0:0:
192,192,254511,1,0,0:0:0:0:
448,192,254610,1,0,0:0:0:0:
64,192,254710,1,0,0:0:0:0:
192,192,254710,1,0,0:0:0:0:
448,192,254810,1,0,0:0:0:0:
192,192,254909,1,0,0:0:0:0:
320,192,255009,1,0,0:0:0:0:
64,192,255109,1,0,0:0:0:0:
192,192,255109,1,0,0:0:0:0:
320,192,255208,1,0,0:0:0:0:
448,192,255308,1,0,0:0:0:0:
64,192,255408,1,0,0:0:0:0:
192,192,255507,1,0,0:0:0:0:
448,192,255507,1,0,0:0:0:0:
64,192,255607,1,0,0:0:0:0:
320,192,255707,1,0,0:0:0:0:
192,192,255806,1,0,0:0:0:0:
448,192,255906,1,0,0:0:0:0:
64,192,255906,1,0,0:0:0:0:
192,192,256006,1,0,0:0:0:0:
320,192,256106,1,0,0:0:0:0:
448,192,256205,1,0,0:0:0:0:
192,192,256305,1,0,0:0:0:0:
320,192,256305,1,0,0:0:0:0:
448,192,256405,1,0,0:0:0:0:
192,192,256504,1,0,0:0:0:0:
448,192,256604,1,0,0:0:0:0:
64,192,256704,1,0,0:0:0:0:
320,192,256704,1,0,0:0:0:0:
448,192,256803,1,0,0:0:0:0:
192,192,256903,1,0,0:0:0:0:
320,192,257003,1,0,0:0:0:0:
192,192,257102,1,0,0:0:0:0:
64,192,257102,1,0,0:0:0:0:
320,192,257202,1,0,0:0:0:0:
64,192,257302,1,0,0:0:0:0:
192,192,257401,1,0,0:0:0:0:
320,192,257501,1,0,0:0:0:0:
64,192,257501,1,0,0:0:0:0:
192,192,257601,1,0,0:0:0:0:
320,192,257700,1,0,0:0:0:0:
64,192,257800,1,0,0:0:0:0:
192,192,257900,1,0,0:0:0:0:
448,192,257900,1,0,0:0:0:0:
64,192,257999,1,0,0:0:0:0:
320,192,258099,1,0,0:0:0:0:
192,192,258199,1,0,0:0:0:0:
320,192,258298,1,0,0:0:0:0:
64,192,258298,1,0,0:0:0:0:
192,192,258398,1,0,0:0:0:0:
320,192,258498,1,0,0:0:0:0:
64,192,258597,1,0,0:0:0:0:
192,192,258697,1,0,0:0:0:0:
448,192,258697,1,0,0:0:0:0:
64,192,258797,1,0,0:0:0:0:
320,192,258896,1,0,0:0:0:0:
192,192,258996,1,0,0:0:0:0:
448,192,259096,1,0,0:0:0:0:
64,192,259096,1,0,0:0:0:0:
192,192,259195,1,0,0:0:0:0:
320,192,259295,1,0,0:0:0:0:
448,192,259395,1,0,0:0:0:0:
192,192,259494,1,0,0:0:0:0:
320,192,259494,1,0,0:0:0:0:
448,192,259594,1,0,0:0:0:0:
192,192,259694,1,0,0:0:0:0:
320,192,259793,1,0,0:0:0:0:
448,192,259893,1,0,0:0:0:0:
64,192,259893,1,0,0:0:0:0:
320,192,259993,1,0,0:0:0:0:
64,192,260092,1,0,0:0:0:0:
320,192,260192,1,0,0:0:0:0:
448,192,260292,1,0,0:0:0:0:
64,192,260292,1,0,0:0:0:0:
320,192,260391,1,0,0:0:0:0:
192,192,260491,1,0,0:0:0:0:
448,192,260591,1,0,0:0:0:0:
192,192,260690,1,0,0:0:0:0:
64,192,260690,1,0,0:0:0:0:
448,192,260790,1,0,0:0:0:0:
192,192,260890,1,0,0:0:0:0:
320,192,260989,1,0,0:0:0:0:
448,192,261089,1,0,0:0:0:0:
64,192,261089,1,0,0:0:0:0:
320,192,261189,1,0,0:0:0:0:
448,192,261288,1,0,0:0:0:0:
64,192,261388,1,0,0:0:0:0:
192,192,261488,1,0,0:0:0:0:
448,192,261488,1,0,0:0:0:0:
64,192,261587,1,0,0:0:0:0:
320,192,261687,1,0,0:0:0:0:
192,192,261787,1,0,0:0:0:0:
320,192,261886,1,0,0:0:0:0:
64,192,261886,1,0,0:0:0:0:
192,192,261986,1,0,0:0:0:0:
320,192,262086,1,0,0:0:0:0:
192,192,262185,1,0,0:0:0:0:
64,192,262285,1,0,0:0:0:0:
448,192,262285,1,0,0:0:0:0:
192,192,262385,1,0,0:0:0:0:
320,192,262484,1,0,0:0:0:0:
448,192,262584,1,0,0:0:0:0:
64,192,262684,1,0,0:0:0:0:
320,192,262684,1,0,0:0:0:0:
448,192,262783,1,0,0:0:0:0:
192,192,262883,1,0,0:0:0:0:
320,192,262983,1,0,0:0:0:0:
448,192,263082,1,0,0:0:0:0:
64,192,263082,1,0,0:0:0:0:
320,192,263182,1,0,0:0:0:0:
192,192,263282,1,0,0:0:0:0:
64,192,263381,1,0,0:0:0:0:
192,192,263481,1,0,0:0:0:0:
320,192,263481,1,0,0:0:0:0:
64,192,263581,1,0,0:0:0:0:
320,192,263681,1,0,0:0:0:0:
192,192,263780,1,0,0:0:0:0:
320,192,263880,1,0,0:0:0:0:
64,192,263880,1,0,0:0:0:0:
192,192,263980,1,0,0:0:0:0:
320,192,264079,1,0,0:0:0:0:
448,192,264179,1,0,0:0:0:0:
320,192,264279,1,0,0:0:0:0:
192,192,264279,1,0,0:0:0:0:
448,192,264378,1,0,0:0:0:0:
192,192,264478,1,0,0:0:0:0:
320,192,264578,1,0,0:0:0:0:
64,192,264677,1,0,0:0:0:0:
448,192,264677,1,0,0:0:0:0:
320,192,264777,1,0,0:0:0:0:
192,192,264877,1,0,0:0:0:0:
320,192,264976,1,0,0:0:0:0:
192,192,265076,1,0,0:0:0:0:
64,192,265076,1,0,0:0:0:0:
320,192,265176,1,0,0:0:0:0:
448,192,265275,1,0,0:0:0:0:
64,192,265375,1,0,0:0:0:0:
192,192,265475,1,0,0:0:0:0:
448,192,265475,1,0,0:0:0:0:
64,192,265574,1,0,0:0:0:0:
320,192,265674,1,0,0:0:0:0:
192,192,265774,1,0,0:0:0:0:
320,192,265873,1,0,0:0:0:0:
448,192,265873,1,0,0:0:0:0:
64,192,265973,1,0,0:0:0:0:
448,192,266073,1,0,0:0:0:0:
64,192,266172,1,0,0:0:0:0:
448,192,266272,1,0,0:0:0:0:
192,192,266272,1,0,0:0:0:0:
64,192,266372,1,0,0:0:0:0:
320,192,266471,1,0,0:0:0:0:
192,192,266571,1,0,0:0:0:0:
320,192,266671,1,0,0:0:0:0:
448,192,266671,1,0,0:0:0:0:
64,192,266671,1,0,0:0:0:0:
192,192,266770,1,0,0:0:0:0:
320,192,266870,1,0,0:0:0:0:
64,192,266970,1,0,0:0:0:0:
192,192,267069,1,0,0:0:0:0:
320,192,267069,1,0,0:0:0:0:
448,192,267069,1,0,0:0:0:0:
64,192,267169,1,0,0:0:0:0:
320,192,267269,1,0,0:0:0:0:
192,192,267368,1,0,0:0:0:0:
320,192,267468,1,0,0:0:0:0:
448,192,267468,1,0,0:0:0:0:
64,192,267468,1,0,0:0:0:0:
192,192,267568,1,0,0:0:0:0:
320,192,267667,1,0,0:0:0:0:
64,192,267767,1,0,0:0:0:0:
192,192,267867,1,0,0:0:0:0:
320,192,267867,1,0,0:0:0:0:
448,192,267867,1,0,0:0:0:0:
64,192,267966,1,0,0:0:0:0:
320,192,268066,1,0,0:0:0:0:
448,192,268166,1,0,0:0:0:0:
320,192,268265,1,0,0:0:0:0:
64,192,268265,1,0,0:0:0:0:
192,192,268265,1,0,0:0:0:0:
448,192,268365,1,0,0:0:0:0:
192,192,268465,1,0,0:0:0:0:
320,192,268564,1,0,0:0:0:0:
64,192,268664,1,0,0:0:0:0:
192,192,268664,1,0,0:0:0:0:
448,192,268664,1,0,0:0:0:0:
320,192,268764,1,0,0:0:0:0:
448,192,268863,1,0,0:0:0:0:
192,192,268963,1,0,0:0:0:0:
320,192,269063,1,0,0:0:0:0:
64,192,269063,1,0,0:0:0:0:
448,192,269063,1,0,0:0:0:0:
192,192,269162,1,0,0:0:0:0:
320,192,269262,1,0,0:0:0:0:
64,192,269362,1,0,0:0:0:0:
320,192,269461,1,0,0:0:0:0:
192,192,269461,1,0,0:0:0:0:
448,192,269461,1,0,0:0:0:0:
64,192,269561,1,0,0:0:0:0:
320,192,269661,1,0,0:0:0:0:
64,192,269760,1,0,0:0:0:0:
320,192,269860,1,0,0:0:0:0:
448,192,269860,1,0,0:0:0:0:
192,192,269860,1,0,0:0:0:0:
64,192,269960,1,0,0:0:0:0:
320,192,270059,1,0,0:0:0:0:
192,192,270159,1,0,0:0:0:0:
320,192,270259,1,0,0:0:0:0:
448,192,270259,1,0,0:0:0:0:
64,192,270259,1,0,0:0:0:0:
192,192,270358,1,0,0:0:0:0:
320,192,270458,1,0,0:0:0:0:
192,192,270558,1,0,0:0:0:0:
320,192,270657,1,0,0:0:0:0:
448,192,270657,1,0,0:0:0:0:
64,192,270657,1,0,0:0:0:0:
192,192,270757,1,0,0:0:0:0:
320,192,270857,1,0,0:0:0:0:
448,192,270956,1,0,0:0:0:0:
320,192,271056,1,0,0:0:0:0:
64,192,271056,1,0,0:0:0:0:
192,192,271056,1,0,0:0:0:0:
448,192,271156,1,0,0:0:0:0:
192,192,271256,1,0,0:0:0:0:
320,192,271355,1,0,0:0:0:0:
192,192,271455,1,0,0:0:0:0:
64,192,271455,1,0,0:0:0:0:
448,192,271455,1,0,0:0:0:0:
320,192,271555,1,0,0:0:0:0:
192,192,271654,1,0,0:0:0:0:
320,192,271754,1,0,0:0:0:0:
448,192,271854,1,0,0:0:0:0:
192,192,271854,1,0,0:0:0:0:
64,192,271854,1,0,0:0:0:0:
320,192,271953,1,0,0:0:0:0:
192,192,272053,1,0,0:0:0:0:
64,192,272153,1,0,0:0:0:0:
192,192,272252,1,0,0:0:0:0:
320,192,272252,1,0,0:0:0:0:
448,192,272252,1,0,0:0:0:0:
64,192,272352,1,0,0:0:0:0:
448,192,272452,1,0,0:0:0:0:
192,192,272551,1,0,0:0:0:0:
320,192,272651,1,0,0:0:0:0:
448,192,272651,1,0,0:0:0:0:
64,192,272651,1,0,0:0:0:0:
192,192,272751,1,0,0:0:0:0:
320,192,272850,1,0,0:0:0:0:
448,192,272950,1,0,0:0:0:0:
320,192,273050,1,0,0:0:0:0:
64,192,273050,1,0,0:0:0:0:
192,192,273050,1,0,0:0:0:0:
448,192,273149,1,0,0:0:0:0:
320,192,273249,1,0,0:0:0:0:
192,192,273349,1,0,0:0:0:0:
320,192,273448,1,0,0:0:0:0:
448,192,273448,1,0,0:0:0:0:
64,192,273448,1,0,0:0:0:0:
192,192,273548,1,0,0:0:0:0:
320,192,273648,1,0,0:0:0:0:
192,192,273747,1,0,0:0:0:0:
64,192,273847,1,0,0:0:0:0:
320,192,273847,1,0,0:0:0:0:
448,192,273847,1,0,0:0:0:0:
192,192,273947,1,0,0:0:0:0:
320,192,274046,1,0,0:0:0:0:
448,192,274146,1,0,0:0:0:0:
320,192,274246,1,0,0:0:0:0:
192,192,274246,1,0,0:0:0:0:
64,192,274246,1,0,0:0:0:0:
448,192,274345,1,0,0:0:0:0:
192,192,274445,1,0,0:0:0:0:
320,192,274545,1,0,0:0:0:0:
448,192,274644,1,0,0:0:0:0:
64,192,274644,1,0,0:0:0:0:
192,192,274644,1,0,0:0:0:0:
320,192,274744,1,0,0:0:0:0:
192,192,274844,1,0,0:0:0:0:
320,192,274943,1,0,0:0:0:0:
448,192,275043,1,0,0:0:0:0:
64,192,275043,1,0,0:0:0:0:
192,192,275043,1,0,0:0:0:0:
320,192,275143,1,0,0:0:0:0:
192,192,275242,1,0,0:0:0:0:
64,192,275342,1,0,0:0:0:0:
448,192,275442,1,0,0:0:0:0:
320,192,275442,1,0,0:0:0:0:
192,192,275442,1,0,0:0:0:0:
64,192,275541,1,0,0:0:0:0:
320,192,275641,1,0,0:0:0:0:
192,192,275741,1,0,0:0:0:0:
320,192,275840,1,0,0:0:0:0:
448,192,275840,1,0,0:0:0:0:
64,192,275840,1,0,0:0:0:0:
192,192,275940,1,0,0:0:0:0:
64,192,276040,1,0,0:0:0:0:
448,192,276139,1,0,0:0:0:0:
320,192,276239,1,0,0:0:0:0:
64,192,276239,1,0,0:0:0:0:
192,192,276239,1,0,0:0:0:0:
448,192,276339,1,0,0:0:0:0:
192,192,276438,1,0,0:0:0:0:
320,192,276538,1,0,0:0:0:0:
448,192,276638,1,0,0:0:0:0:
64,192,276638,1,0,0:0:0:0:
192,192,276638,1,0,0:0:0:0:
320,192,276737,1,0,0:0:0:0:
192,192,276837,1,0,0:0:0:0:
64,192,276937,1,0,0:0:0:0:
320,192,277036,1,0,0:0:0:0:
448,192,277036,1,0,0:0:0:0:
192,192,277036,1,0,0:0:0:0:
64,192,277136,1,0,0:0:0:0:
448,192,277236,1,0,0:0:0:0:
192,192,277335,1,0,0:0:0:0:
320,192,277435,1,0,0:0:0:0:
448,192,277435,1,0,0:0:0:0:
64,192,277435,1,0,0:0:0:0:
192,192,277535,1,0,0:0:0:0:
320,192,277634,1,0,0:0:0:0:
192,192,277734,1,0,0:0:0:0:
64,192,277834,1,0,0:0:0:0:
320,192,277834,1,0,0:0:0:0:
448,192,277834,1,0,0:0:0:0:
192,192,277933,1,0,0:0:0:0:
320,192,278033,1,0,0:0:0:0:
64,192,278133,1,0,0:0:0:0:
448,192,278232,1,0,0:0:0:0:
192,192,278332,1,0,0:0:0:0:
320,192,278432,1,0,0:0:0:0:
192,192,278531,1,0,0:0:0:0:
320,192,278631,1,0,0:0:0:0:
64,192,278731,1,0,0:0:0:0:
320,192,278831,1,0,0:0:0:0:
192,192,278930,1,0,0:0:0:0:
320,192,279030,1,0,0:0:0:0:
192,192,279130,1,0,0:0:0:0:
64,192,279229,1,0,0:0:0:0:
320,192,279329,1,0,0:0:0:0:
192,192,279429,1,0,0:0:0:0:
448,192,279628,1,0,0:0:0:0:
320,192,279827,1,0,0:0:0:0:
192,192,279927,1,0,0:0:0:0:
64,192,280027,1,0,0:0:0:0:
448,192,280226,1,0,0:0:0:0:
64,192,280425,1,0,0:0:0:0:
192,192,280625,1,0,0:0:0:0:
320,192,280724,1,0,0:0:0:0:
448,192,280824,1,0,0:0:0:0:
192,192,281023,1,0,0:0:0:0:
320,192,281223,1,0,0:0:0:0:
192,192,281422,1,0,0:0:0:0:
64,192,281522,1,0,0:0:0:0:
320,192,281621,1,0,0:0:0:0:
448,192,281821,1,0,0:0:0:0:
192,192,282020,1,0,0:0:0:0:
448,192,282219,1,0,0:0:0:0:
192,192,282319,1,0,0:0:0:0:
320,192,282419,1,0,0:0:0:0:
192,192,282618,1,0,0:0:0:0:
448,192,282817,1,0,0:0:0:0:
192,192,283017,1,0,0:0:0:0:
320,192,283116,1,0,0:0:0:0:
448,192,283216,1,0,0:0:0:0:
192,192,283415,1,0,0:0:0:0:
448,192,283615,1,0,0:0:0:0:
192,192,283814,1,0,0:0:0:0:
320,192,283914,1,0,0:0:0:0:
448,192,284013,1,0,0:0:0:0:
192,192,284213,1,0,0:0:0:0:
64,192,284412,1,0,0:0:0:0:
320,192,284611,1,0,0:0:0:0:
192,192,284711,1,0,0:0:0:0:
64,192,284811,1,0,0:0:0:0:
320,192,285010,1,0,0:0:0:0:
448,192,285209,1,0,0:0:0:0:
192,192,285409,1,0,0:0:0:0:
320,192,285508,1,0,0:0:0:0:
448,192,285608,1,0,0:0:0:0:
192,192,285807,1,0,0:0:0:0:
64,192,286007,1,0,0:0:0:0:
320,192,286206,1,0,0:0:0:0:
192,192,286306,1,0,0:0:0:0:
64,192,286406,1,0,0:0:0:0:
320,192,286605,1,0,0:0:0:0:
448,192,286804,1,0,0:0:0:0:
192,192,287004,1,0,0:0:0:0:
320,192,287103,1,0,0:0:0:0:
448,192,287203,1,0,0:0:0:0:
64,192,287402,1,0,0:0:0:0:
448,192,287602,1,0,0:0:0:0:
192,192,287801,1,0,0:0:0:0:
320,192,287901,1,0,0:0:0:0:
64,192,288000,1,0,0:0:0:0:
320,192,288200,1,0,0:0:0:0:
448,192,288399,1,0,0:0:0:0:
192,192,288598,1,0,0:0:0:0:
320,192,288698,1,0,0:0:0:0:
192,192,288798,1,0,0:0:0:0:
320,192,288997,1,0,0:0:0:0:
448,192,289196,1,0,0:0:0:0:
192,192,289396,1,0,0:0:0:0:
64,192,289495,1,0,0:0:0:0:
448,192,289595,1,0,0:0:0:0:
320,192,289794,1,0,0:0:0:0:
192,192,289994,1,0,0:0:0:0:
448,192,290193,1,0,0:0:0:0:
320,192,290293,1,0,0:0:0:0:
192,192,290392,1,0,0:0:0:0:
320,192,290592,1,0,0:0:0:0:
448,192,290791,1,0,0:0:0:0:
192,192,290990,1,0,0:0:0:0:
320,192,291090,1,0,0:0:0:0:
448,192,291190,1,0,0:0:0:0:
192,192,291389,1,0,0:0:0:0:
320,192,291588,1,0,0:0:0:0:
192,192,291788,1,0,0:0:0:0:
320,192,291887,1,0,0:0:0:0:
448,192,291987,1,0,0:0:0:0:
64,192,292186,1,0,0:0:0:0:
448,192,292186,1,0,0:0:0:0:
192,192,292386,1,0,0:0:0:0:
320,192,292585,1,0,0:0:0:0:
192,192,292784,1,0,0:0:0:0:
320,192,292984,1,0,0:0:0:0:
448,192,293183,1,0,0:0:0:0:
192,192,293382,1,0,0:0:0:0:
320,192,293582,1,0,0:0:0:0:
64,192,293781,1,0,0:0:0:0:
320,192,293981,1,0,0:0:0:0:
192,192,294180,1,0,0:0:0:0:
320,192,294379,1,0,0:0:0:0:
448,192,294579,1,0,0:0:0:0:
192,192,294778,1,0,0:0:0:0:
320,192,294977,1,0,0:0:0:0:
448,192,295177,1,0,0:0:0:0:
192,192,295376,1,0,0:0:0:0:
64,192,295575,1,0,0:0:0:0:
320,192,295775,1,0,0:0:0:0:
448,192,295974,1,0,0:0:0:0:
192,192,296173,1,0,0:0:0:0:
320,192,296373,1,0,0:0:0:0:
448,192,296572,1,0,0:0:0:0:
192,192,296771,1,0,0:0:0:0:
320,192,296971,1,0,0:0:0:0:
448,192,297170,1,0,0:0:0:0:
192,192,297369,1,0,0:0:0:0:
64,192,297569,1,0,0:0:0:0:
448,192,297768,1,0,0:0:0:0:
192,192,297967,1,0,0:0:0:0:
320,192,298167,1,0,0:0:0:0:
192,192,298366,1,0,0:0:0:0:
320,192,298565,1,0,0:0:0:0:
64,192,298565,1,0,0:0:0:0:
448,192,298765,1,0,0:0:0:0:
192,192,298964,1,0,0:0:0:0:
320,192,299163,1,0,0:0:0:0:
448,192,299363,1,0,0:0:0:0:
192,192,299562,1,0,0:0:0:0:
320,192,299761,1,0,0:0:0:0:
64,192,299961,1,0,0:0:0:0:
192,192,300160,1,0,0:0:0:0:
320,192,300359,1,0,0:0:0:0:
448,192,300559,1,0,0:0:0:0:
192,192,300758,1,0,0:0:0:0:
320,192,300957,1,0,0:0:0:0:
448,192,301157,1,0,0:0:0:0:
192,192,301356,1,0,0:0:0:0:
320,192,301556,1,0,0:0:0:0:
64,192,301755,1,0,0:0:0:0:
320,192,301954,1,0,0:0:0:0:
448,192,302154,1,0,0:0:0:0:
192,192,302353,1,0,0:0:0:0:
320,192,302552,1,0,0:0:0:0:
448,192,302752,1,0,0:0:0:0:
192,192,302951,1,0,0:0:0:0:
320,192,303150,1,0,0:0:0:0:
64,192,303350,1,0,0:0:0:0:
320,192,303549,1,0,0:0:0:0:
448,192,303748,1,0,0:0:0:0:
192,192,303948,1,0,0:0:0:0:
320,192,304147,1,0,0:0:0:0:
448,192,304346,1,0,0:0:0:0:
64,192,304546,1,0,0:0:0:0:
320,192,304745,1,0,0:0:0:0:
448,192,304944,1,0,0:0:0:0:
64,192,304944,1,0,0:0:0:0:
192,192,305144,1,0,0:0:0:0:
448,192,305343,1,0,0:0:0:0:
320,192,305542,1,0,0:0:0:0:
192,192,305742,1,0,0:0:0:0:
320,192,305941,1,0,0:0:0:0:
448,192,306140,1,0,0:0:0:0:
192,192,306340,1,0,0:0:0:0:
320,192,306539,1,0,0:0:0:0:
64,192,306738,1,0,0:0:0:0:
192,192,306938,1,0,0:0:0:0:
320,192,307137,1,0,0:0:0:0:
448,192,307336,1,0,0:0:0:0:
192,192,307536,1,0,0:0:0:0:
320,192,307735,1,0,0:0:0:0:
448,192,307934,1,0,0:0:0:0:
64,192,308134,1,0,0:0:0:0:
320,192,308333,1,0,0:0:0:0:
192,192,308532,1,0,0:0:0:0:
320,192,308732,1,0,0:0:0:0:
448,192,308931,1,0,0:0:0:0:
192,192,309131,1,0,0:0:0:0:
320,192,309330,1,0,0:0:0:0:
448,192,309529,1,0,0:0:0:0:
192,192,309729,1,0,0:0:0:0:
320,192,309928,1,0,0:0:0:0:
64,192,310127,1,0,0:0:0:0:
448,192,310327,1,0,0:0:0:0:
192,192,310526,1,0,0:0:0:0:
320,192,310725,1,0,0:0:0:0:
448,192,310925,1,0,0:0:0:0:
192,192,311124,1,0,0:0:0:0:
320,192,311323,1,0,0:0:0:0:
448,192,311323,1,0,0:0:0:0:
192,192,312121,1,0,0:0:0:0:
320,192,312918,1,0,0:0:0:0:
448,192,313715,1,0,0:0:0:0:
64,192,314513,1,0,0:0:0:0:
448,192,314513,1,0,0:0:0:0:
320,192,315310,1,0,0:0:0:0:
192,192,316107,1,0,0:0:0:0:
448,192,316905,1,0,0:0:0:0:
192,192,317702,1,0,0:0:0:0:
320,192,317702,1,0,0:0:0:0:
448,192,318500,1,0,0:0:0:0:
64,192,319297,1,0,0:0:0:0:
320,192,320094,1,0,0:0:0:0:
192,192,320892,1,0,0:0:0:0:
448,192,321689,1,0,0:0:0:0:
64,192,322486,1,0,0:0:0:0:
320,192,323284,1,0,0:0:0:0:
448,192,324081,1,0,0:0:0:0:
192,192,324347,1,0,0:0:0:0:
320,192,324613,1,0,0:0:0:0:
64,192,324879,1,0,0:0:0:0:
448,192,325144,1,0,0:0:0:0:
192,192,325410,1,0,0:0:0:0:
320,192,325676,1,0,0:0:0:0:
448,192,325942,1,0,0:0:0:0:
64,192,326208,1,0,0:0:0:0:
192,192,326473,1,0,0:0:0:0:
320,192,326739,1,0,0:0:0:0:
448,192,327005,1,0,0:0:0:0:
64,192,327271,1,0,0:0:0:0:
320,192,327536,1,0,0:0:0:0:
192,192,327802,1,0,0:0:0:0:
448,192,328068,1,0,0:0:0:0:
64,192,328334,1,0,0:0:0:0:
320,192,328600,1,0,0:0:0:0:
448,192,328865,1,0,0:0:0:0:
192,192,329131,1,0,0:0:0:0:
448,192,329397,1,0,0:0:0:0:
64,192,329663,1,0,0:0:0:0:
320,192,329929,1,0,0:0:0:0:
448,192,330194,1,0,0:0:0:0:
