osu file format v9

[General]
AudioFilename: Nekomata Master - CALL.mp3
AudioLeadIn: 2000
PreviewTime: 70608
Countdown: 0
SampleSet: Soft
StackLeniency: 0.7
Mode: 0
LetterboxInBreaks: 1

[Editor]
DistanceSpacing: 1
BeatDivisor: 4
GridSize: 4

[Metadata]
Title:CALL
Artist:Nekomata Master
Creator:Muya
Version:Another
Source:beatmania IIDX 19 Lincle
Tags:iidx19 Sorda S o r d a S_o_r_d_a World/Electronica

[Difficulty]
HPDrainRate:6
CircleSize:4
OverallDifficulty:8
ApproachRate:8
SliderMultiplier:1.6
SliderTickRate:1

[Events]
//Background and Video events
0,0,"bg.jpg"
//Break Periods
//Storyboard Layer 0 (Background)
//Storyboard Layer 1 (Fail)
//Storyboard Layer 2 (Pass)
//Storyboard Layer 3 (Foreground)
//Storyboard Sound Samples
//Background Colour Transformations
3,100,163,162,255

[TimingPoints]
443.85714285714,379.746835443038,3,2,1,30,1,0
5000,-100,3,2,1,60,0,0
5190,-100,3,2,1,40,0,0
11836,-100,3,2,1,20,0,0
11931,-100,3,2,1,40,0,0
12405,-100,3,2,1,20,0,0
12500,-100,3,2,1,30,0,0
12975,-100,3,2,1,50,0,0
13070,-100,3,2,1,30,0,0
13355,-100,3,2,1,60,0,0
17912,-100,3,2,1,20,0,0
18671,-100,3,2,1,60,0,0
31867,-100,3,2,1,55,0,0
31962,-100,3,2,1,50,0,0
32057,-100,3,2,1,45,0,0
32152,-100,3,2,1,50,0,0
32247,-100,3,2,1,55,0,0
32342,-100,3,2,1,60,0,0
55127,-100,3,2,1,40,0,0
55222,-100,3,2,1,60,0,0
57975,-100,3,2,1,40,0,0
58165,-100,3,2,1,60,0,0
61962,-100,3,2,1,40,0,0
62057,-100,3,2,1,60,0,0
64241,-100,3,2,1,40,0,0
64336,-100,3,2,1,60,0,0
64810,-100,3,2,1,40,0,0
64905,-100,3,2,1,60,0,0
65380,-100,3,2,1,40,0,0
65475,-100,3,2,1,60,0,0
65950,-100,3,2,1,40,0,0
66045,-100,3,2,1,60,0,0
71076,-100,3,2,1,60,0,1
89209,-100,3,2,1,60,0,0
89304,-80,3,2,1,60,0,1
107437,-80,3,2,1,60,0,0
107532,-100,3,2,1,60,0,1
107627,-100,3,2,1,40,0,0
115886,-100,3,2,1,40,0,1
116646,-100,3,2,1,30,0,1
117405,-100,3,2,1,20,0,1
118165,-100,3,2,1,10,0,1
118545,-100,3,2,1,5,0,0

[Colours]
Combo1 : 255,253,170
Combo2 : 255,170,255
Combo3 : 170,255,255
Combo4 : 185,255,170

[HitObjects]
44,44,443,1,2
48,48,1583,1,2
468,44,2722,1,2
464,48,3861,2,0,B|396:160|464:276,1,240,2|2
464,276,5000,6,0,B|400:324|312:300,1,160,2|0
260,236,5570,1,0
192,276,5760,2,0,B|112:276,1,80,0|0
64,156,6140,2,0,B|132:108|216:140,2,160,2|0|0
36,236,7089,1,0
80,304,7279,2,0,B|44:324|0:312,2,80
148,260,7848,1,0
192,140,8038,1,0
88,212,8228,1,0
216,212,8418,6,0,B|276:240|348:228|392:176,1,160,2|0
452,76,8988,1,0
388,124,9178,1,0
368,200,9367,1,0
420,316,9557,2,0,B|380:336|336:324,1,80,2|0
272,288,9937,1,2
260,160,10127,1,0
180,176,10317,1,0
148,248,10507,1,0
160,328,10697,6,0,B|96:340|56:288|68:232,2,160,2|0|0
240,300,11646,1,0
308,344,11836,2,0,B|344:368|384:356,1,80,8|0
464,336,12216,1,0
352,272,12405,2,0,B|304:184|368:120,1,160,8|0
280,24,12975,2,0,B|296:64|280:104,1,80,8|0
220,156,13355,1,0
148,356,13988,6,0,B|120:364,2,26.6666666666667,0|0|6
212,308,14304,1,0
236,232,14494,2,0,B|248:192|232:152,1,80,2|0
173,97,14874,2,0,B|85:129|21:73,1,160,2|2
89,29,15443,1,0
92,184,15633,2,0,B|172:244|248:192,2,160,2|0|2
92,184,16772,2,0,B|172:176|240:236|216:344,1,240,2|0
296,356,17532,2,0,B|380:392|448:348,1,160,2|8
484,276,18102,1,0
408,296,18291,2,0,B|372:316|324:300,1,80,8|0
272,248,18671,6,0,B|232:232|192:240,1,80,2|0
144,360,19051,2,0,B|184:376|224:368,1,80,2|0
336,312,19431,2,0,B|372:232|336:156,1,160,2|2
264,196,20000,1,0
240,272,20190,2,0,B|136:296|48:220|80:104,1,280,2|2
104,80,20950,2,0,B|132:112|128:156,1,80,2|0
60,260,21329,2,0,B|-8:204|12:112,2,160,0|0|2
68,268,22848,1,2
68,268,23228,6,0,B|108:256|124:212,1,80,2|0
28,116,23608,2,0,B|18:156|48:192,1,80,2|0
180,156,23988,2,0,B|149:127|103:135,1,80,2|0
124,216,24367,2,0,B|192:272|276:244,2,160,2|0|2
124,216,25507,1,2
360,296,25886,2,0,B|400:224|368:132|260:108|188:164,1,280,2|2
184,120,26646,2,0,B|152:148|152:192,1,80,2|0
192,260,27026,2,0,B|128:312|40:284,2,160,0|0|2
192,260,28165,6,0,B|304:168|456:204,1,280,2|2
492,216,28924,2,0,B|508:176|492:136,1,80,2|0
368,108,29304,2,0,B|336:188|368:264,1,160,2|2
440,72,30064,1,2
368,108,30253,2,0,B|332:124|288:112,1,80,8|0
220,72,30633,2,0,B|140:56|60:72,1,160,2|0
36,200,31203,2,0,B|116:216|196:200,1,160,2|0
268,168,31772,1,2
296,184,31867,1,2
316,208,31962,1,8
328,236,32057,1,0
332,268,32152,1,0
324,300,32247,1,0
308,328,32342,6,0,B|276:356|232:352,1,80,6|0
172,300,32722,2,0,B|204:272|248:276,1,80,2|0
144,376,33102,2,0,B|108:360|96:316,1,80,2|0
80,236,33481,1,2
212,16,33861,1,0
432,148,34241,1,2
300,368,34621,1,2
300,368,35000,2,0,B|224:328|180:216|256:104,1,280,2|2
264,88,35760,2,0,B|296:112|304:156,1,80,2|0
292,236,36140,2,0,B|364:276|448:252,1,160
492,48,36899,6,0,B|472:124,1,80,2|0
372,214,37279,2,0,B|392:136,1,80,2|0
292,224,37659,2,0,B|272:302,1,80,2|0
192,320,38038,2,0,B|120:384|32:336,2,160,2|0|2
172,28,39178,1,2
176,32,40317,1,2
180,36,41076,1,2
24,236,41456,6,0,B|8:277|32:315,1,80,6|0
165,220,41836,2,0,B|137:185|92:187,1,80,2|0
107,350,42216,2,0,B|150:343|171:303,1,80,2|0
99,268,42595,1,2
332,349,42975,1,0
413,116,43355,1,2
180,35,43734,2,0,B|160:72|168:112,1,80,2|0
244,140,44114,2,0,B|332:152|384:256|324:364,1,280,2|2
284,372,44874,2,0,B|240:376|208:352,1,80,2|0
168,284,45253,2,0,B|76:280|36:360,1,160
12,104,46013,5,2
12,104,46393,2,0,B|116:76|216:120|236:228,1,280,2|2
200,240,47152,2,0,B|184:280|200:320,1,80,2|0
272,356,47532,2,0,B|288:316|272:276,1,80,2|0
220,160,47912,2,0,B|248:192|288:196,1,80,2|0
348,252,48291,6,0,B|388:172|348:96,1,160,6|0
460,32,48861,2,0,B|420:112|460:188,1,160,2|0
512,248,49431,1,2
496,276,49526,1,0
472,296,49621,1,0
444,308,49716,1,0
412,312,49810,1,0
380,304,49905,1,0
352,288,50000,1,14
324,272,50095,1,0
292,264,50190,1,8
260,260,50285,1,0
228,264,50380,1,0
200,276,50475,1,0
176,296,50570,6,0,B|152:332|160:372,2,80,14|0|0
232,152,51140,2,0,B|256:116|248:76,2,80,2|0|0
176,212,51709,2,0,B|96:260|24:212,1,160,2|0
56,88,52279,2,0,B|96:72|140:84,1,80,2|0
208,116,52659,1,0
280,80,52848,6,0,B|300:120|280:160,1,80,2|0
220,208,53228,1,0
268,344,53418,2,0,B|256:252|340:216,1,160,2|0
460,164,53988,2,0,B|416:168|384:144,1,80,2|0
320,96,54367,1,0
372,232,54557,2,0,B|300:172|212:224,1,160,2|0
200,296,55127,6,0,B|183:335|146:355,2,80,10|0|0
88,232,55697,2,0,B|51:254|9:249,2,80,2|0|0
24,120,56266,2,0,B|88:48|172:72,1,160,2|0
252,163,56836,1,2
178,149,57026,1,0
238,36,57216,1,0
292,95,57405,6,0,B|372:119|444:67,1,160,2|0
408,139,57975,1,8
396,219,58165,1,0
444,283,58355,1,0
480,211,58545,2,0,B|416:184|356:232|368:292,2,160,0|2|2
316,360,59684,6,0,B|276:372|236:352,2,80,6|0|0
392,336,60253,1,2
392,336,60443,1,0
392,336,60633,1,0
276,284,60823,2,0,B|192:260|176:172,1,160,2|0
96,72,61393,2,0,B|112:112|96:152,1,80,2|0
28,192,61772,1,0
20,112,61962,6,0,B|84:112|120:160|104:224,1,160,10|0
44,272,62532,1,2
44,272,62722,1,0
44,272,62912,1,0
140,356,63102,1,2
176,284,63291,2,0,B|216:304|220:348,1,80
220,216,63671,2,0,B|296:252|300:344,1,160,2|0
380,360,64241,6,0,B|420:368|456:344,2,80,10|0|0
400,284,64810,1,14
400,284,65000,1,0
400,284,65190,1,0
484,188,65380,2,0,B|452:144|380:132|332:172,1,160,10|0
296,232,65950,2,0,B|260:248|216:236,1,80,10|0
144,204,66329,1,0
116,128,66519,6,0,B|100:88|116:48,2,80,6|0|8
172,280,67089,2,0,B|188:320|172:360,2,80,0|8|0
64,196,67659,1,8
144,204,67848,1,0
220,180,68038,2,0,B|260:164|272:124,1,80,8|0
139,51,68418,2,0,B|152:92|192:108,1,80,8|0
220,32,68798,6,0,B|304:8|368:68,2,160,12|0|8
232,287,69937,2,0,B|236:284|236:284|240:290|240:290|244:284|244:284|248:290|248:290|252:284|252:284|256:290|256:290|260:284|260:284|264:290|264:290|268:284|268:284|272:290|272:290|276:284|276:284|280:290|280:290|284:284|284:284,1,80
352,316,70317,1,0
428,288,70507,1,0
432,272,70602,1,0
436,256,70697,1,10
440,240,70791,1,8
444,224,70886,1,0
448,208,70981,1,0
452,192,71076,5,6
472,116,71266,1,0
492,40,71456,2,0,B|452:32|416:60,1,80
396,136,71836,2,0,B|328:184|244:160,1,160,0|2
196,96,72405,1,0
228,24,72595,2,0,B|268:44|276:88,1,80
164,168,72975,2,0,B|124:148|116:104,1,80
148,32,73355,6,0,B|60:20|8:92,2,160,2|0|2
196,96,74304,1,0
124,132,74494,1,2
108,212,74684,2,0,B|92:291,2,80
188,204,75253,6,0,B|172:283,1,80,2|2
168,316,75538,1,0
164,348,75633,2,0,B|216:380|280:372|312:316,1,160,2|0
328,248,76203,1,0
348,172,76393,2,0,B|388:184|404:224,1,80
308,324,76772,2,0,B|256:312|228:248|268:192,1,160,2|0
348,96,77342,2,0,B|320:64|276:68,2,80
284,148,77912,6,0,B|220:208|136:184,1,160,6|0
68,140,78481,1,0
16,24,78671,2,0,B|56:24|84:60,1,80,2|0
136,184,79051,2,0,B|188:256|276:236,1,160,2|0
344,192,79621,1,4
264,96,79810,2,0,B|228:120|228:164,1,80,2|0
256,288,80190,6,0,B|288:336|360:360|428:316,1,160,6|0
424,256,80760,1,0
376,192,80950,2,0,B|344:224|348:268,1,80
476,324,81329,2,0,B|521:283|511:200|449:174,1,160,2|0
388,164,81899,1,0
348,96,82089,2,0,B|332:56|348:16,1,80
268,32,82469,6,0,B|224:108|268:184,1,160,2|0
160,256,83038,2,0,B|204:180|160:104,1,160,2|0
96,156,83608,6,0,B|16:156,1,80,2|0
48,32,83988,2,0,B|128:32,1,80,2|0
160,104,84367,2,0,B|224:160|312:136,1,160,2|2
364,76,84937,1,0
440,52,85127,2,0,B|496:204|364:204|440:364,2,320,2|0|2
380,108,86836,5,0
332,172,87026,2,0,B|300:148|300:100,1,80,2|0
248,40,87405,2,0,B|172:12|92:40,2,160,2|0|0
296,104,88355,1,0
272,180,88545,1,0
196,200,88734,1,0
120,176,88924,1,2
44,204,89114,1,0
20,280,89304,6,0,B|36:344|116:388|200:344,1,199.999997019768,6|0
256,284,89874,1,0
208,196,90064,2,0,B|256:176|308:200,1,99.9999985098839
412,316,90443,2,0,B|360:224|412:124,1,199.999997019768,2|0
488,60,91013,1,0
464,220,91203,2,0,B|420:244|368:232,1,99.9999985098839
292,168,91583,6,0,B|204:80|72:92|12:208|60:312,1,399.999994039536,2|2
144,360,92532,1,0
204,280,92722,2,0,B|264:244|352:264|376:344,2,199.999997019768,2|0|2
120,228,93671,5,2
120,228,93766,1,0
120,228,93861,2,0,B|104:176|120:128,1,99.9999985098839,2|0
244,28,94241,2,0,B|292:116|244:220,1,199.999997019768
304,300,94810,1,0
304,300,94905,1,0
304,300,95000,2,0,B|376:360|464:340|500:252,2,199.999997019768,2|0|0
388,248,95950,5,0
388,248,96045,1,0
388,248,96140,2,0,B|412:196|476:184,1,99.9999985098839,2|0
304,188,96519,2,0,B|244:276|128:256,1,199.999997019768,0|2
36,216,97089,1,0
0,120,97279,2,0,B|48:100|96:132,1,99.9999985098839,2|0
168,300,97659,2,0,B|188:252|164:204,1,99.9999985098839
284,72,98038,2,0,B|228:68|192:112,1,99.9999985098839,2|0
256,212,98418,6,0,B|352:260|448:212,2,199.999997019768,6|0|0
172,156,99367,1,0
88,212,99557,2,0,B|32:140|96:44|168:60,1,199.999997019768,2|0
244,32,100127,1,0
312,104,100317,2,0,B|360:132|408:120,1,99.9999985098839
472,44,100697,6,0,B|416:136|472:236,1,199.999997019768,2|0
352,344,101266,2,0,B|408:252|352:152,1,199.999997019768,2|0
316,60,101836,2,0,B|264:84|252:144,1,99.9999985098839,2|0
300,224,102216,2,0,B|184:244|144:128,2,199.999997019768,2|2|2
496,192,103355,1,2
496,192,103734,1,2
116,20,104874,5,2
16,192,105253,1,6
116,364,105633,1,2
116,364,106013,1,2
208,324,106203,1,0
268,244,106393,2,0,B|288:196|268:144,1,99.9999985098839
360,16,106772,2,0,B|340:64|360:116,1,99.9999985098839
448,156,107152,1,0
452,184,107247,1,0
456,212,107342,1,0
460,240,107437,1,0
464,268,107532,6,0,B|412:332|320:312,1,160,6|0
244,284,108102,1,0
168,304,108291,2,0,B|132:324|124:368,1,80,2|2
48,344,108671,2,0,B|8:268|48:188,1,160
108,136,109241,1,0
180,172,109431,2,0,B|216:192|256:188,1,80,2|2
340,284,109810,2,0,B|304:264|264:268,2,80
384,352,110380,1,0
456,316,110570,1,2
480,240,110760,1,2
456,164,110950,5,0
432,88,111140,1,0
456,12,111329,1,0
352,88,111519,2,0,B|312:104|272:92,1,80,0|2
200,60,111899,1,2
128,24,112089,2,0,B|92:0|44:12,2,80
192,136,112659,1,0
76,84,112848,1,2
200,60,113038,1,2
116,156,113228,2,0,B|76:232|116:312,2,160,0|0|2
192,180,114178,1,2
256,132,114367,5,0
244,52,114557,1,0
180,100,114747,1,0
244,212,114937,1,0
368,240,115127,2,0,B|408:256|448:240,1,80,2|2
488,172,115507,1,0
448,328,115697,1,0
408,172,115886,1,2
256,192,116076,12,0,118545
