osu file format v13

[General]
AudioFilename: 10_-_Master_-_CALL.mp3
AudioLeadIn: 0
PreviewTime: 112012
Countdown: 0
SampleSet: Soft
StackLeniency: 0.7
Mode: 0
LetterboxInBreaks: 1
WidescreenStoryboard: 1

[Editor]
DistanceSpacing: 0.7
BeatDivisor: 4
GridSize: 4
TimelineZoom: 1.6

[Metadata]
Title:CALL
TitleUnicode:CALL
Artist:Nekomata Master
ArtistUnicode:猫叉 Master
Creator:Davidsoneca
Version:Super
Source:
Tags:
BeatmapID:528326
BeatmapSetID:226613

[Difficulty]
HPDrainRate:5
CircleSize:4
OverallDifficulty:5
ApproachRate:9
SliderMultiplier:2.2
SliderTickRate:1

[Events]
//Background and Video events
0,0,"Konachan.com - 75036 sample.jpg",0,0
//Break Periods
//Storyboard Layer 0 (Background)
//Storyboard Layer 1 (Fail)
//Storyboard Layer 2 (Pass)
//Storyboard Layer 3 (Foreground)
//Storyboard Sound Samples
//Background Colour Transformations
3,100,163,162,255

[TimingPoints]
14038,379.746835443038,3,2,0,21,1,0
50493,-133.333333333333,3,2,0,21,0,0
71000,-90.9090909090909,3,2,0,21,0,1
107455,-133.333333333333,3,2,0,21,0,0
116569,-111.111111111111,3,2,0,21,0,0
125683,-100,3,2,0,21,0,0

[Colours]
Combo1 : 36,191,156
Combo2 : 113,173,255
Combo3 : 196,230,255
Combo4 : 106,255,111

[HitObjects]
204,218,14037,6,0,P|196:150|182:87,1,110
187,109,14322,1,0,0:0:0:0:
187,109,14417,1,0,0:0:0:0:
245,42,14607,1,0,0:0:0:0:
329,66,14797,1,0,0:0:0:0:
361,147,14987,1,0,0:0:0:0:
330,229,15177,2,0,P|279:254|238:294,1,110
240,290,15462,1,0,0:0:0:0:
240,290,15556,1,0,0:0:0:0:
155,269,15746,1,0,0:0:0:0:
200,193,15936,2,0,P|136:213|95:246,1,110
132,155,16316,6,0,P|146:70|147:34,1,110
146,46,16601,1,0,0:0:0:0:
146,46,16696,1,0,0:0:0:0:
73,95,16886,1,0,0:0:0:0:
128,162,17075,2,0,P|196:135|232:114,1,110
305,159,17455,2,0,P|350:75|357:44,1,110
353,61,17740,1,0,0:0:0:0:
353,61,17835,1,0,0:0:0:0:
267,81,18025,1,0,0:0:0:0:
294,164,18215,2,0,P|329:206|388:250,1,110
374,152,18594,6,0,P|337:101|288:69,1,110
267,81,18879,1,0,0:0:0:0:
267,81,18974,1,0,0:0:0:0:
262,168,19164,1,0,0:0:0:0:
294,249,19354,2,0,P|344:182|358:149,1,110
262,168,19734,2,0,P|218:216|189:272,1,110
196,254,20019,1,0,0:0:0:0:
196,254,20113,1,0,0:0:0:0:
284,255,20303,1,0,0:0:0:0:
264,169,20493,2,0,P|210:179|124:225,1,110
142,205,20778,1,0,0:0:0:0:
123,213,20873,5,0,0:0:0:0:
113,125,21063,1,0,0:0:0:0:
113,125,21158,1,0,0:0:0:0:
113,125,21253,2,0,L|232:100,1,110
241,110,21537,1,0,0:0:0:0:
256,125,21632,2,0,P|260:219|259:270,1,110
248,253,21917,1,0,0:0:0:0:
230,266,22012,2,0,L|90:288,1,110
109,252,22297,1,0,0:0:0:0:
113,219,22392,2,0,L|207:133,1,110
223,152,22677,1,0,0:0:0:0:
246,166,22772,1,0,0:0:0:0:
265,185,22867,1,0,0:0:0:0:
287,200,22962,1,0,0:0:0:0:
313,207,23056,1,0,0:0:0:0:
340,204,23151,6,0,P|410:169|448:154,1,110
448,127,23436,1,0,0:0:0:0:
448,127,23531,1,0,0:0:0:0:
426,246,23721,1,0,0:0:0:0:
366,140,23911,2,0,P|308:164|235:197,1,110
287,302,24291,1,0,0:0:0:0:
220,200,24481,1,0,0:0:0:0:
203,172,24575,1,0,0:0:0:0:
188,146,24670,1,0,0:0:0:0:
308,92,24860,1,0,0:0:0:0:
269,218,25050,2,0,P|200:250|147:262,1,110
139,244,25335,1,0,0:0:0:0:
124,237,25430,5,0,0:0:0:0:
142,106,25620,1,0,0:0:0:0:
155,96,25715,1,0,0:0:0:0:
169,88,25810,1,0,0:0:0:0:
181,230,26000,1,0,0:0:0:0:
184,257,26094,1,0,0:0:0:0:
189,284,26189,1,0,0:0:0:0:
101,156,26379,1,0,0:0:0:0:
254,141,26569,2,0,P|302:205|315:242,1,110
312,232,26854,1,0,0:0:0:0:
312,232,26949,1,0,0:0:0:0:
193,134,27139,1,0,0:0:0:0:
346,142,27329,1,0,0:0:0:0:
193,134,27519,1,0,0:0:0:0:
346,142,27708,6,0,L|440:86|440:86,1,110
404,237,28088,2,0,P|320:236|265:241,1,110
293,82,28468,1,0,0:0:0:0:
256,231,28658,1,0,0:0:0:0:
346,142,28848,1,0,0:0:0:0:
342,163,28943,1,0,0:0:0:0:
336,184,29037,1,0,0:0:0:0:
330,205,29132,1,0,0:0:0:0:
324,226,29227,2,0,P|294:286|267:324,1,110
265,144,29607,2,0,P|328:81|374:70,1,110
214,193,29987,6,0,L|184:54,1,110
64,209,30367,1,0,0:0:0:0:
238,197,30556,2,0,L|256:322,1,110
375,177,30936,1,0,0:0:0:0:
202,142,31126,2,0,L|213:25,1,110
58,120,31506,1,0,0:0:0:0:
224,177,31696,2,0,L|199:313,1,110
186,290,31981,1,0,0:0:0:0:
165,295,32075,1,0,0:0:0:0:
144,303,32170,1,0,0:0:0:0:
123,309,32265,5,0,0:0:0:0:
175,140,32455,1,0,0:0:0:0:
194,132,32550,1,0,0:0:0:0:
215,124,32645,1,0,0:0:0:0:
328,258,32835,1,0,0:0:0:0:
152,251,33025,2,0,L|111:136,1,110
256,41,33405,2,0,L|290:163,1,110
312,169,33689,1,0,0:0:0:0:
312,169,33784,1,0,0:0:0:0:
269,339,33974,1,0,0:0:0:0:
312,169,34164,2,0,L|346:38,1,110
397,229,34544,6,0,L|358:350,1,110
332,348,34829,1,0,0:0:0:0:
332,348,34924,1,0,0:0:0:0:
208,223,35113,1,0,0:0:0:0:
293,203,35303,1,0,0:0:0:0:
117,220,35493,1,0,0:0:0:0:
293,203,35683,2,0,L|359:88,1,110
365,103,35968,1,0,0:0:0:0:
365,103,36063,1,0,0:0:0:0:
266,113,36253,1,0,0:0:0:0:
435,63,36443,1,0,0:0:0:0:
300,175,36632,1,0,0:0:0:0:
128,216,36822,6,0,L|260:164,1,110
250,188,37107,1,0,0:0:0:0:
250,188,37202,1,0,0:0:0:0:
273,362,37392,1,0,0:0:0:0:
284,235,37582,2,0,L|405:215,1,110
226,154,37962,2,0,P|123:153|79:146,1,110
93,118,38246,1,0,0:0:0:0:
93,118,38341,1,0,0:0:0:0:
178,96,38531,1,0,0:0:0:0:
156,270,38721,1,0,0:0:0:0:
195,98,38911,1,0,0:0:0:0:
242,267,39101,6,0,P|362:262|380:265,1,110
375,265,39386,1,0,0:0:0:0:
375,265,39481,1,0,0:0:0:0:
368,180,39670,1,0,0:0:0:0:
194,211,39860,2,0,P|108:232|77:248,1,110
195,98,40240,1,0,0:0:0:0:
255,263,40430,1,0,0:0:0:0:
277,259,40525,1,0,0:0:0:0:
298,255,40620,1,0,0:0:0:0:
280,79,40810,1,0,0:0:0:0:
367,90,41000,1,0,0:0:0:0:
249,220,41189,1,0,0:0:0:0:
160,221,41379,6,0,P|93:270|69:305,1,110
78,312,41664,1,0,0:0:0:0:
78,312,41759,1,0,0:0:0:0:
70,191,41949,1,0,0:0:0:0:
209,298,42139,1,0,0:0:0:0:
288,305,42329,2,0,L|294:363,1,55
367,291,42519,1,0,0:0:0:0:
262,150,42708,1,0,0:0:0:0:
260,133,42803,1,0,0:0:0:0:
259,120,42898,1,0,0:0:0:0:
85,148,43088,1,0,0:0:0:0:
250,87,43278,2,0,L|238:27,1,55
323,60,43468,1,0,0:0:0:0:
154,112,43658,6,0,P|194:187|203:229,1,110
176,233,43943,1,0,0:0:0:0:
176,233,44037,1,0,0:0:0:0:
100,223,44227,1,0,0:0:0:0:
274,246,44417,1,0,0:0:0:0:
419,147,44607,1,0,0:0:0:0:
392,321,44797,2,0,P|403:255|427:205,1,110
408,193,45082,1,0,0:0:0:0:
408,193,45177,1,0,0:0:0:0:
237,148,45367,1,0,0:0:0:0:
281,317,45556,2,0,P|261:204|250:182,1,110
263,209,45841,1,0,0:0:0:0:
263,209,45936,5,0,0:0:0:0:
146,215,46126,1,0,0:0:0:0:
146,215,46221,1,0,0:0:0:0:
146,215,46316,1,0,0:0:0:0:
144,120,46506,1,0,0:0:0:0:
214,60,46696,2,0,L|234:172,1,110
233,168,46981,1,0,0:0:0:0:
233,168,47075,1,0,0:0:0:0:
392,204,47265,1,0,0:0:0:0:
396,168,47360,1,0,0:0:0:0:
400,136,47455,1,0,0:0:0:0:
248,200,47645,1,0,0:0:0:0:
248,200,47835,1,0,0:0:0:0:
380,300,48025,1,0,0:0:0:0:
380,300,48120,1,0,0:0:0:0:
380,300,48215,6,0,L|312:184,1,110
312,176,48500,1,0,0:0:0:0:
312,176,48594,1,0,0:0:0:0:
136,108,48784,2,0,L|140:228,1,110
192,284,49164,1,0,0:0:0:0:
228,168,49354,2,0,L|212:52,1,110
192,44,49639,1,0,0:0:0:0:
192,44,49734,1,0,0:0:0:0:
164,228,49924,2,0,P|216:276|264:308,1,110
280,300,50208,1,0,0:0:0:0:
312,296,50303,1,0,0:0:0:0:
344,292,50398,1,0,0:0:0:0:
368,285,50493,6,0,L|371:194,1,82.5000031471254,0|0,0:0|0:0,0:0:0:0:
284,124,50873,1,0,0:0:0:0:
290,239,51063,2,0,L|289:342,1,82.5000031471254
209,236,51443,1,0,0:0:0:0:
140,170,51632,2,0,P|198:134|241:132,1,82.5000031471254
302,203,52012,1,0,0:0:0:0:
207,269,52202,2,0,P|142:239|121:216,1,82.5000031471254
202,137,52582,1,0,0:0:0:0:
204,269,52772,6,0,B|104:287|109:285,1,82.5000031471254
145,153,53151,1,0,0:0:0:0:
272,187,53341,2,0,L|360:166,1,82.5000031471254
273,274,53721,1,0,0:0:0:0:
230,148,53911,2,0,L|218:40,1,82.5000031471254
159,183,54291,1,0,0:0:0:0:
290,171,54481,2,0,L|310:268,1,82.5000031471254
202,170,54860,1,0,0:0:0:0:
332,148,55050,6,0,L|323:47,1,82.5000031471254
406,170,55430,1,0,0:0:0:0:
427,300,55620,2,0,P|333:291|328:291,1,82.5000031471254
340,158,56000,1,0,0:0:0:0:
258,261,56189,2,0,P|236:205|242:165,1,82.5000031471254
340,158,56569,1,0,0:0:0:0:
395,38,56759,2,0,P|426:108|433:132,1,82.5000031471254
297,140,57139,1,0,0:0:0:0:
246,261,57329,6,0,L|224:161,1,82.5000031471254
218,156,57613,1,0,0:0:0:0:
209,131,57708,1,0,0:0:0:0:
100,55,57898,1,0,0:0:0:0:
160,172,58088,2,0,L|120:247,1,82.5000031471254
242,190,58468,2,0,L|302:121,1,82.5000031471254
420,174,58848,2,0,L|348:223,1,82.5000031471254
377,90,59227,2,0,L|452:30,1,82.5000031471254
385,158,59607,6,0,L|291:186,1,82.5000031471254
213,85,59987,1,0,0:0:0:0:
192,215,60177,2,0,L|290:201,1,82.5000031471254
341,89,60556,1,0,0:0:0:0:
312,218,60746,2,0,L|225:180,1,82.5000031471254
241,52,61126,1,0,0:0:0:0:
114,90,61316,2,0,L|204:166,1,82.5000031471254
290,211,61696,1,0,0:0:0:0:
354,326,61886,6,0,L|264:329,1,82.5000031471254
243,199,62265,1,0,0:0:0:0:
189,78,62455,2,0,L|283:99,1,82.5000031471254
228,222,62835,1,0,0:0:0:0:
96,229,63025,2,0,L|186:293,1,82.5000031471254
243,199,63405,1,0,0:0:0:0:
374,205,63594,2,0,L|303:143,1,82.5000031471254
183,185,63974,1,0,0:0:0:0:
251,297,64164,6,0,P|250:221|265:200,1,82.5000031471254
378,179,64544,1,0,0:0:0:0:
319,297,64734,2,0,P|325:349|323:383,1,82.5000031471254
376,258,65113,1,0,0:0:0:0:
249,295,65303,2,0,L|179:220,1,82.5000031471254
225,106,65683,1,0,0:0:0:0:
279,226,65873,2,0,L|335:286,1,82.5000031471254
298,158,66253,1,0,0:0:0:0:
225,47,66443,6,0,P|184:83|152:121,1,82.5000031471254
159,127,66727,1,0,0:0:0:0:
156,151,66822,1,0,0:0:0:0:
157,175,66917,1,0,0:0:0:0:
158,199,67012,1,0,0:0:0:0:
164,222,67107,1,0,0:0:0:0:
172,245,67202,1,0,0:0:0:0:
184,266,67297,1,0,0:0:0:0:
198,286,67392,1,0,0:0:0:0:
213,305,67487,1,0,0:0:0:0:
232,316,67582,2,0,L|326:320,1,82.5000031471254
433,235,67962,2,0,L|348:217,1,82.5000031471254
328,212,68246,1,0,0:0:0:0:
305,202,68341,1,0,0:0:0:0:
286,185,68436,1,0,0:0:0:0:
269,166,68531,1,0,0:0:0:0:
254,145,68626,1,0,0:0:0:0:
243,122,68721,6,0,P|155:129|88:179,1,165.000006294251
257,192,69481,2,0,P|360:158|413:124,1,165.000006294251
401,250,70050,2,0,L|408:303,2,41.2500015735627,0|0|0,0:0|0:0|0:0,0:0:0:0:
382,227,70335,1,0,0:0:0:0:
367,202,70430,1,0,0:0:0:0:
351,177,70525,1,0,0:0:0:0:
335,152,70620,1,0,0:0:0:0:
317,128,70715,1,0,0:0:0:0:
297,106,70810,1,0,0:0:0:0:
279,83,70905,1,0,0:0:0:0:
262,64,71000,6,0,P|170:78|137:61,1,121.000003692627
147,67,71284,1,0,0:0:0:0:
147,67,71379,1,0,0:0:0:0:
157,237,71569,1,0,0:0:0:0:
282,123,71759,2,0,L|418:116,1,121.000003692627
249,190,72139,2,0,L|129:165,1,121.000003692627
100,144,72424,1,0,0:0:0:0:
100,144,72519,1,0,0:0:0:0:
156,98,72708,1,0,0:0:0:0:
294,141,72898,1,0,0:0:0:0:
130,245,73088,1,0,0:0:0:0:
294,141,73278,6,0,L|423:196,1,121.000003692627
416,216,73563,1,0,0:0:0:0:
424,245,73658,1,0,0:0:0:0:
254,254,73848,1,0,0:0:0:0:
320,99,74037,1,0,0:0:0:0:
424,245,74227,1,0,0:0:0:0:
254,254,74417,2,0,L|244:127,1,121.000003692627
248,103,74702,1,0,0:0:0:0:
253,73,74797,1,0,0:0:0:0:
436,136,74987,1,0,0:0:0:0:
314,287,75177,2,0,P|247:317|161:319,1,121.000003692627
282,223,75556,6,0,P|357:189|405:182,1,121.000003692627
415,195,75841,1,0,0:0:0:0:
434,209,75936,1,0,0:0:0:0:
360,334,76126,1,0,0:0:0:0:
238,254,76316,2,0,L|309:142,1,121.000003692627
291,297,76696,2,0,P|223:335|155:331,1,121.000003692627
157,317,76981,1,0,0:0:0:0:
135,296,77075,1,0,0:0:0:0:
158,140,77265,1,0,0:0:0:0:
309,183,77455,1,0,0:0:0:0:
157,225,77645,5,0,0:0:0:0:
128,203,77740,1,0,0:0:0:0:
99,180,77835,1,0,0:0:0:0:
267,112,78025,1,0,0:0:0:0:
303,113,78120,1,0,0:0:0:0:
339,111,78215,1,0,0:0:0:0:
175,65,78405,1,0,0:0:0:0:
244,218,78594,1,0,0:0:0:0:
302,58,78784,1,0,0:0:0:0:
155,143,78974,2,0,L|145:265,1,121.000003692627
145,263,79259,1,0,0:0:0:0:
145,263,79354,1,0,0:0:0:0:
313,281,79544,1,0,0:0:0:0:
339,111,79734,1,0,0:0:0:0:
175,65,79924,1,0,0:0:0:0:
69,196,80113,6,0,P|85:284|75:327,1,121.000003692627
79,313,80398,1,0,0:0:0:0:
79,313,80493,1,0,0:0:0:0:
200,314,80683,1,0,0:0:0:0:
216,194,80873,1,0,0:0:0:0:
336,208,81063,1,0,0:0:0:0:
216,194,81253,2,0,L|241:59,1,121.000003692627
264,59,81537,1,0,0:0:0:0:
290,44,81632,1,0,0:0:0:0:
336,208,81822,1,0,0:0:0:0:
377,127,82012,1,0,0:0:0:0:
454,173,82202,1,0,0:0:0:0:
453,198,82297,1,0,0:0:0:0:
450,226,82392,6,0,L|369:330,1,121.000003692627
339,325,82677,1,0,0:0:0:0:
306,326,82772,1,0,0:0:0:0:
143,244,82962,1,0,0:0:0:0:
308,172,83151,1,0,0:0:0:0:
165,285,83341,2,0,L|84:311,1,60.5000018463135
143,244,83531,2,0,L|287:244,1,121.000003692627
291,260,83816,1,0,0:0:0:0:
316,274,83911,1,0,0:0:0:0:
231,306,84101,1,0,0:0:0:0:
100,179,84291,1,0,0:0:0:0:
281,184,84481,1,0,0:0:0:0:
213,211,84670,6,0,L|79:232,1,121.000003692627
63,208,84955,1,0,0:0:0:0:
35,184,85050,1,0,0:0:0:0:
117,49,85240,1,0,0:0:0:0:
209,176,85430,2,0,L|83:202,1,121.000003692627
225,117,85810,2,0,L|343:88,1,121.000003692627
373,107,86094,1,0,0:0:0:0:
402,128,86189,1,0,0:0:0:0:
349,177,86379,1,0,0:0:0:0:
306,37,86569,1,0,0:0:0:0:
280,180,86759,5,0,0:0:0:0:
287,202,86854,1,0,0:0:0:0:
295,224,86949,1,0,0:0:0:0:
153,189,87139,1,0,0:0:0:0:
150,158,87234,1,0,0:0:0:0:
147,127,87329,1,0,0:0:0:0:
340,132,87519,1,0,0:0:0:0:
184,246,87708,1,0,0:0:0:0:
311,68,87898,1,0,0:0:0:0:
221,292,88088,2,0,L|314:385,1,121.000003692627
331,360,88373,1,0,0:0:0:0:
356,343,88468,1,0,0:0:0:0:
464,228,88658,1,0,0:0:0:0:
349,56,88848,1,0,0:0:0:0:
122,136,89037,1,0,0:0:0:0:
279,125,89227,6,0,L|427:114,1,121.000003692627
408,145,89512,1,0,0:0:0:0:
416,174,89607,1,0,0:0:0:0:
365,218,89797,1,0,0:0:0:0:
344,300,89987,1,0,0:0:0:0:
168,300,90177,1,0,0:0:0:0:
147,218,90367,1,0,0:0:0:0:
209,144,90556,1,0,0:0:0:0:
195,117,90651,1,0,0:0:0:0:
181,90,90746,1,0,0:0:0:0:
97,160,90936,1,0,0:0:0:0:
262,82,91126,2,0,L|385:103,1,121.000003692627
416,92,91411,1,0,0:0:0:0:
451,82,91506,5,0,0:0:0:0:
315,220,91696,1,0,0:0:0:0:
287,232,91791,1,0,0:0:0:0:
259,243,91886,1,0,0:0:0:0:
159,174,92075,1,0,0:0:0:0:
251,96,92265,1,0,0:0:0:0:
346,170,92455,1,0,0:0:0:0:
159,174,92645,2,0,L|22:195,1,121.000003692627
39,192,92930,1,0,0:0:0:0:
39,192,93025,1,0,0:0:0:0:
177,117,93215,1,0,0:0:0:0:
135,268,93405,1,0,0:0:0:0:
346,170,93594,1,0,0:0:0:0:
177,117,93784,6,0,L|51:61,1,121.000003692627
66,67,94069,1,0,0:0:0:0:
66,67,94164,1,0,0:0:0:0:
256,104,94354,1,0,0:0:0:0:
238,296,94544,1,0,0:0:0:0:
387,105,94734,1,0,0:0:0:0:
238,296,94924,2,0,L|110:345,1,121.000003692627
89,316,95208,1,0,0:0:0:0:
54,290,95303,1,0,0:0:0:0:
154,82,95493,1,0,0:0:0:0:
238,229,95683,2,0,L|390:222,1,121.000003692627
140,147,96063,6,0,L|281:172,1,121.000003692627
283,203,96348,1,0,0:0:0:0:
309,236,96443,1,0,0:0:0:0:
226,255,96632,1,0,0:0:0:0:
377,178,96822,1,0,0:0:0:0:
171,181,97012,1,0,0:0:0:0:
377,178,97202,2,0,L|491:226,1,121.000003692627
488,224,97487,1,0,0:0:0:0:
488,224,97582,1,0,0:0:0:0:
261,309,97772,1,0,0:0:0:0:
249,306,97962,1,0,0:0:0:0:
104,161,98151,5,0,0:0:0:0:
141,129,98246,1,0,0:0:0:0:
179,99,98341,1,0,0:0:0:0:
192,267,98531,1,0,0:0:0:0:
149,271,98626,1,0,0:0:0:0:
106,272,98721,1,0,0:0:0:0:
266,143,98911,1,0,0:0:0:0:
217,343,99101,2,0,L|354:323,1,121.000003692627
504,203,99481,2,0,L|379:221,1,121.000003692627
337,207,99765,1,0,0:0:0:0:
290,192,99860,1,0,0:0:0:0:
72,193,100050,1,0,0:0:0:0:
279,127,100240,1,0,0:0:0:0:
223,337,100430,5,0,0:0:0:0:
194,314,100525,1,0,0:0:0:0:
168,288,100620,1,0,0:0:0:0:
246,71,100810,1,0,0:0:0:0:
293,78,100905,1,0,0:0:0:0:
340,88,101000,1,0,0:0:0:0:
251,216,101189,1,0,0:0:0:0:
168,81,101379,2,0,L|33:52,1,121.000003692627
171,157,101759,2,0,L|303:198,1,121.000003692627
286,192,102044,1,0,0:0:0:0:
286,192,102139,1,0,0:0:0:0:
443,198,102329,1,0,0:0:0:0:
309,280,102519,2,0,L|176:291,1,121.000003692627
248,144,102898,6,0,L|384:99,1,121.000003692627
390,139,103183,1,0,0:0:0:0:
417,171,103278,1,0,0:0:0:0:
283,228,103468,1,0,0:0:0:0:
283,34,103658,1,0,0:0:0:0:
262,226,103848,1,0,0:0:0:0:
320,42,104037,2,0,L|327:169,1,121.000003692627
326,162,104322,1,0,0:0:0:0:
326,162,104417,1,0,0:0:0:0:
251,65,104607,1,0,0:0:0:0:
403,163,104797,1,0,0:0:0:0:
402,51,104987,1,0,0:0:0:0:
256,159,105177,6,0,L|251:300,1,121.000003692627
251,279,105462,1,0,0:0:0:0:
251,279,105556,1,0,0:0:0:0:
165,184,105746,1,0,0:0:0:0:
301,99,105936,1,0,0:0:0:0:
385,230,106126,1,0,0:0:0:0:
254,331,106316,1,0,0:0:0:0:
277,220,106506,1,0,0:0:0:0:
247,240,106600,1,0,0:0:0:0:
214,255,106695,1,0,0:0:0:0:
178,260,106790,1,0,0:0:0:0:
143,252,106885,1,0,0:0:0:0:
113,232,106980,1,0,0:0:0:0:
91,203,107075,1,0,0:0:0:0:
76,170,107170,1,0,0:0:0:0:
69,134,107265,1,0,0:0:0:0:
69,98,107360,1,0,0:0:0:0:
76,62,107455,5,0,0:0:0:0:
189,108,107645,1,0,0:0:0:0:
184,140,107740,1,0,0:0:0:0:
176,172,107835,2,0,P|129:263|120:271,1,82.5000031471254
236,208,108215,2,0,L|294:127,1,82.5000031471254
388,92,108594,2,0,L|328:172,1,82.5000031471254
338,158,108879,1,0,0:0:0:0:
338,158,108974,1,0,0:0:0:0:
315,44,109164,2,0,P|351:24|392:20,1,82.5000031471254
308,100,109543,1,0,0:0:0:0:
204,152,109734,6,0,L|120:168|120:168,1,82.5000031471254
122,167,110019,1,0,0:0:0:0:
122,167,110113,1,0,0:0:0:0:
228,120,110303,1,0,0:0:0:0:
244,236,110493,2,0,L|348:212,1,82.5000031471254
208,220,110873,2,0,L|112:244,1,82.5000031471254
127,240,111158,1,0,0:0:0:0:
127,240,111253,1,0,0:0:0:0:
112,124,111443,1,0,0:0:0:0:
120,104,111632,1,0,0:0:0:0:
228,120,111822,1,0,0:0:0:0:
228,120,111917,1,0,0:0:0:0:
228,120,112012,6,0,L|320:152,1,82.5000031471254,0|0,0:0|0:0,0:0:0:0:
305,147,112297,1,0,0:0:0:0:
305,147,112392,1,0,0:0:0:0:
332,260,112582,1,0,0:0:0:0:
268,356,112772,2,0,P|260:272|264:256,1,82.5000031471254
332,260,113151,2,0,P|288:224|252:204,1,82.5000031471254
266,210,113436,1,0,0:0:0:0:
266,210,113531,1,0,0:0:0:0:
188,260,113721,1,0,0:0:0:0:
104,296,113911,1,0,0:0:0:0:
188,260,114101,1,0,0:0:0:0:
240,184,114291,6,0,L|320:120,1,82.5000031471254
336,164,114575,2,0,L|396:144,1,41.2500015735627
336,68,114860,1,0,0:0:0:0:
368,220,115050,2,0,L|284:256,1,82.5000031471254
332,172,115430,2,0,L|436:112,1,82.5000031471254
403,130,115715,1,0,0:0:0:0:
403,130,115810,1,0,0:0:0:0:
312,120,116000,1,0,0:0:0:0:
244,176,116189,2,0,L|144:176,1,82.5000031471254
136,188,116474,1,0,0:0:0:0:
108,208,116569,6,0,L|92:320,1,98.9999969787599
93,306,116854,1,0,0:0:0:0:
93,306,116949,1,0,0:0:0:0:
176,208,117139,1,0,0:0:0:0:
56,160,117329,2,0,L|96:60,1,98.9999969787599
192,152,117708,2,0,P|236:88|256:56,1,98.9999969787599
247,69,117993,1,0,0:0:0:0:
247,69,118088,1,0,0:0:0:0:
372,100,118278,1,0,0:0:0:0:
252,148,118468,2,0,L|128:168,1,98.9999969787599
384,280,118848,6,0,P|440:224|456:184,1,98.9999969787599
448,207,119132,1,0,0:0:0:0:
448,207,119227,1,0,0:0:0:0:
320,184,119417,1,0,0:0:0:0:
196,212,119607,2,0,P|224:280|248:312,1,98.9999969787599
320,184,119987,2,0,P|316:112|300:84,1,98.9999969787599
288,88,120272,1,0,0:0:0:0:
272,84,120367,2,0,L|160:96,1,98.9999969787599
76,180,120746,1,0,0:0:0:0:
76,180,120936,1,0,0:0:0:0:
328,160,121126,6,0,L|336:56,1,98.9999969787599
335,61,121411,1,0,0:0:0:0:
335,61,121506,1,0,0:0:0:0:
244,152,121696,1,0,0:0:0:0:
372,176,121886,2,0,L|368:284,1,98.9999969787599
252,220,122265,2,0,L|264:108,1,98.9999969787599
262,121,122550,1,0,0:0:0:0:
262,121,122645,1,0,0:0:0:0:
180,220,122835,1,0,0:0:0:0:
308,244,123025,2,0,L|304:356,1,98.9999969787599
176,64,123405,6,0,P|148:136|144:180,1,98.9999969787599
144,157,123689,1,0,0:0:0:0:
144,157,123784,1,0,0:0:0:0:
264,88,123974,1,0,0:0:0:0:
216,160,124164,2,0,P|192:220|156:248,1,98.9999969787599
180,104,124544,2,0,P|264:100|288:112,1,98.9999969787599
275,105,124829,1,0,0:0:0:0:
275,105,124924,1,0,0:0:0:0:
316,236,125113,1,0,0:0:0:0:
432,164,125303,1,0,0:0:0:0:
420,180,125398,1,0,0:0:0:0:
408,196,125493,1,0,0:0:0:0:
392,208,125588,1,0,0:0:0:0:
376,220,125683,6,0,L|252:240,1,110
228,260,125968,1,0,0:0:0:0:
184,264,126063,2,0,L|56:272,1,110
160,116,126443,2,0,L|280:112,1,110
428,32,126822,2,0,P|416:108|388:152,1,110
372,156,127107,1,0,0:0:0:0:
344,172,127202,2,0,P|296:228|268:280,1,110
436,180,127582,2,0,P|436:108|432:52,1,110
336,216,127962,6,0,P|288:172|252:120,1,110
240,104,128246,1,0,0:0:0:0:
220,72,128341,2,0,P|184:20|144:-4,1,110
140,172,128721,1,0,0:0:0:0:
316,168,128911,1,0,0:0:0:0:
140,172,129101,2,0,P|216:216|260:224,1,110
276,228,129386,1,0,0:0:0:0:
316,228,129481,1,0,0:0:0:0:
380,176,129670,1,0,0:0:0:0:
208,140,129860,1,0,0:0:0:0:
272,304,130050,1,0,0:0:0:0:
300,128,130240,6,0,P|332:52|352:16,1,110
364,44,130525,2,0,L|416:12,1,55
336,176,130810,1,0,0:0:0:0:
172,116,131000,1,0,0:0:0:0:
336,176,131189,1,0,0:0:0:0:
172,116,131379,2,0,P|152:196|148:248,1,110
168,256,131664,1,0,0:0:0:0:
192,288,131759,1,0,0:0:0:0:
280,136,131949,1,0,0:0:0:0:
312,308,132139,2,0,P|304:220|296:180,1,110
288,180,132424,1,0,0:0:0:0:
272,160,132519,5,0,0:0:0:0:
108,216,132708,1,0,0:0:0:0:
100,172,132803,1,0,0:0:0:0:
92,128,132898,1,0,0:0:0:0:
276,104,133088,1,0,0:0:0:0:
168,256,133278,2,0,L|184:376,1,110
276,200,133658,2,0,L|252:84,1,110
232,64,133943,1,0,0:0:0:0:
232,64,134037,1,0,0:0:0:0:
224,252,134227,1,0,0:0:0:0:
404,200,134417,2,0,P|412:108|412:64,1,110
280,224,134797,6,0,P|304:288|328:340,1,110
344,336,135082,1,0,0:0:0:0:
344,336,135177,1,0,0:0:0:0:
328,148,135367,1,0,0:0:0:0:
180,264,135556,1,0,0:0:0:0:
344,336,135746,1,0,0:0:0:0:
328,148,135936,2,0,P|232:156|176:168,1,110
196,164,136221,1,0,0:0:0:0:
196,164,136316,1,0,0:0:0:0:
368,92,136506,1,0,0:0:0:0:
180,96,136696,1,0,0:0:0:0:
352,24,136886,1,0,0:0:0:0:
224,160,137075,6,0,P|216:240|192:312,1,110
168,284,137360,1,0,0:0:0:0:
168,284,137455,1,0,0:0:0:0:
360,240,137645,1,0,0:0:0:0:
376,144,137835,1,0,0:0:0:0:
192,216,138025,1,0,0:0:0:0:
168,284,138215,1,0,0:0:0:0:
96,100,138405,1,0,0:0:0:0:
120,96,138500,1,0,0:0:0:0:
148,92,138594,1,0,0:0:0:0:
168,284,138784,1,0,0:0:0:0:
272,116,138974,1,0,0:0:0:0:
376,284,139164,1,0,0:0:0:0:
304,264,139354,6,0,L|344:140,1,110
364,144,139639,1,0,0:0:0:0:
364,144,139734,1,0,0:0:0:0:
168,164,139924,1,0,0:0:0:0:
356,108,140113,2,0,L|476:80,1,110
312,212,140493,2,0,L|176:240,1,110
172,260,140778,1,0,0:0:0:0:
140,280,140873,1,0,0:0:0:0:
320,300,141063,5,0,0:0:0:0:
357,276,141158,1,0,0:0:0:0:
395,254,141253,1,0,0:0:0:0:
319,146,141443,1,0,0:0:0:0:
275,144,141537,1,0,0:0:0:0:
231,140,141632,1,0,0:0:0:0:
405,196,141822,1,0,0:0:0:0:
407,152,141917,1,0,0:0:0:0:
408,108,142012,1,0,0:0:0:0:
216,194,142202,1,0,0:0:0:0:
208,237,142297,1,0,0:0:0:0:
202,280,142392,1,0,0:0:0:0:
319,146,142582,1,0,0:0:0:0:
327,58,142772,1,0,0:0:0:0:
247,96,142962,1,0,0:0:0:0:
203,92,143056,1,0,0:0:0:0:
159,88,143151,1,0,0:0:0:0:
301,225,143341,1,0,0:0:0:0:
344,222,143436,1,0,0:0:0:0:
387,217,143531,1,0,0:0:0:0:
356,93,143721,1,0,0:0:0:0:
153,232,143911,1,0,0:0:0:0:
