osu file format v13

[General]
AudioFilename: 10_-_Master_-_CALL.mp3
AudioLeadIn: 0
PreviewTime: 112012
Countdown: 0
SampleSet: Soft
StackLeniency: 0.7
Mode: 0
LetterboxInBreaks: 1
WidescreenStoryboard: 1

[Editor]
DistanceSpacing: 2
BeatDivisor: 4
GridSize: 4
TimelineZoom: 1

[Metadata]
Title:CALL
TitleUnicode:CALL
Artist:Nekomata Master
ArtistUnicode:猫叉 Master
Creator:Davidsoneca
Version:Insane
Source:
Tags:
BeatmapID:528325
BeatmapSetID:226613

[Difficulty]
HPDrainRate:5
CircleSize:4
OverallDifficulty:5
ApproachRate:9
SliderMultiplier:2.2
SliderTickRate:1

[Events]
//Background and Video events
0,0,"Konachan.com - 75036 sample.jpg",0,0
//Break Periods
//Storyboard Layer 0 (Background)
//Storyboard Layer 1 (Fail)
//Storyboard Layer 2 (Pass)
//Storyboard Layer 3 (Foreground)
//Storyboard Sound Samples
//Background Colour Transformations
3,100,163,162,255

[TimingPoints]
14038,379.746835443038,3,2,0,21,1,0
14417,-133.333333333333,3,2,0,21,0,0
71000,-100,3,2,0,21,0,1
107455,-133.333333333333,3,2,0,21,0,0

[Colours]
Combo1 : 36,191,156
Combo2 : 113,173,255
Combo3 : 196,230,255
Combo4 : 106,255,111

[HitObjects]
148,176,14037,5,0,0:0:0:0:
196,252,14227,1,0,0:0:0:0:
248,180,14417,2,0,P|284:140|296:104,1,82.5000031471254
324,224,14797,2,0,P|304:264|260:296,1,82.5000031471254
392,284,15177,2,0,P|420:232|424:192,1,82.5000031471254
328,144,15556,2,0,P|360:88|384:64,1,82.5000031471254
256,60,15936,2,0,P|188:84|164:104,1,82.5000031471254
160,204,16316,6,0,P|104:192|80:168,1,82.5000031471254
180,112,16696,2,0,P|208:68|212:32,1,82.5000031471254
116,328,17265,1,0,0:0:0:0:
136,216,17455,1,0,0:0:0:0:
368,208,17835,1,0,0:0:0:0:
392,328,18025,1,0,0:0:0:0:
392,328,18120,1,0,0:0:0:0:
396,324,18215,2,0,P|412:268|412:236,1,82.5000031471254
348,148,18594,6,0,P|364:108|392:64,1,82.5000031471254
284,160,18974,2,0,P|240:208|216:220,1,82.5000031471254
92,236,19354,2,0,P|128:196|160:168,1,82.5000031471254
228,72,19734,2,0,P|164:80|116:100,1,82.5000031471254
272,124,20113,2,0,P|320:108|360:112,1,82.5000031471254
128,252,20683,1,0,0:0:0:0:
128,252,20873,6,0,L|148:160,1,82.5000031471254,0|0,0:0|0:0,0:0:0:0:
172,160,21158,1,0,0:0:0:0:
200,156,21253,2,0,P|244:120|264:88,1,82.5000031471254
288,100,21537,1,0,0:0:0:0:
316,104,21632,2,0,P|368:80|400:44,1,82.5000031471254
352,196,22012,2,0,P|304:224|280:248,1,82.5000031471254
196,132,22392,2,0,P|168:192|168:236,1,82.5000031471254
40,144,22772,2,0,P|52:200|76:240,1,82.5000031471254
192,284,23151,6,0,P|260:260|284:236,1,82.5000031471254
392,144,23531,2,0,P|324:172|284:184,1,82.5000031471254
156,132,23911,2,0,P|240:144|256:136,1,82.5000031471254
400,136,24291,2,0,L|396:40,1,82.5000031471254
324,200,24670,2,0,L|324:300,1,82.5000031471254
240,140,25050,1,0,0:0:0:0:
404,136,25240,1,0,0:0:0:0:
304,268,25430,6,0,P|216:240|140:244,1,165.000006294251
124,80,26000,1,0,0:0:0:0:
136,100,26094,1,0,0:0:0:0:
148,116,26189,1,0,0:0:0:0:
292,36,26379,1,0,0:0:0:0:
240,140,26569,2,0,L|300:216,1,82.5000031471254
440,280,26949,2,0,L|380:200,1,82.5000031471254
372,192,27234,1,0,0:0:0:0:
356,168,27329,1,0,0:0:0:0:
468,44,27519,1,0,0:0:0:0:
324,120,27708,6,0,L|276:220,1,82.5000031471254
288,194,27993,1,0,0:0:0:0:
288,194,28088,1,0,0:0:0:0:
132,140,28278,1,0,0:0:0:0:
184,296,28468,2,0,P|124:272|96:240,1,82.5000031471254
112,236,28753,1,0,0:0:0:0:
112,212,28848,2,0,L|108:120,1,82.5000031471254
216,252,29227,2,0,L|212:160,1,82.5000031471254
312,304,29607,2,0,L|304:208,1,82.5000031471254
148,164,29987,6,0,L|180:76,1,82.5000031471254
328,152,30367,1,0,0:0:0:0:
224,280,30556,2,0,L|112:248,1,82.5000031471254
300,196,30936,1,0,0:0:0:0:
300,196,31031,1,0,0:0:0:0:
300,196,31126,2,0,L|344:272,1,82.5000031471254
400,112,31506,1,0,0:0:0:0:
240,68,31696,1,0,0:0:0:0:
223,86,31791,1,0,0:0:0:0:
208,105,31886,1,0,0:0:0:0:
196,127,31981,1,0,0:0:0:0:
185,149,32075,1,0,0:0:0:0:
176,172,32170,1,0,0:0:0:0:
169,195,32265,6,0,L|161:296,1,82.5000031471254
181,292,32550,1,0,0:0:0:0:
199,307,32645,2,0,L|293:285,1,82.5000031471254
317,126,33025,1,0,0:0:0:0:
346,288,33215,1,0,0:0:0:0:
392,129,33405,2,0,P|369:62|356:32,1,82.5000031471254
364,51,33689,1,0,0:0:0:0:
364,51,33784,1,0,0:0:0:0:
239,159,33974,1,0,0:0:0:0:
403,171,34164,2,0,L|436:263,1,82.5000031471254
288,163,34544,6,0,L|256:69,1,82.5000031471254,0|0,0:0|0:0,0:0:0:0:
261,84,34829,1,0,0:0:0:0:
261,84,34924,1,0,0:0:0:0:
120,169,35113,1,0,0:0:0:0:
202,175,35303,2,0,P|189:119|167:84,1,82.5000031471254
48,202,35683,1,0,0:0:0:0:
206,218,35873,1,0,0:0:0:0:
215,240,35968,1,0,0:0:0:0:
224,262,36063,1,0,0:0:0:0:
363,173,36253,1,0,0:0:0:0:
223,84,36443,2,0,P|168:90|127:109,1,82.5000031471254
124,116,36727,1,0,0:0:0:0:
111,130,36822,5,0,0:0:0:0:
174,282,37012,1,0,0:0:0:0:
197,283,37107,1,0,0:0:0:0:
213,289,37202,1,0,0:0:0:0:
351,199,37392,1,0,0:0:0:0:
288,351,37582,2,0,L|278:242,1,82.5000031471254
262,103,37962,2,0,L|273:193,1,82.5000031471254
272,184,38246,1,0,0:0:0:0:
272,184,38341,1,0,0:0:0:0:
119,121,38531,1,0,0:0:0:0:
213,289,38721,2,0,L|123:238,1,82.5000031471254
214,99,39101,6,0,L|297:140,1,82.5000031471254
287,135,39386,1,0,0:0:0:0:
287,135,39481,1,0,0:0:0:0:
447,174,39670,1,0,0:0:0:0:
296,241,39860,2,0,L|213:202,1,82.5000031471254
55,217,40240,2,0,L|133:257,1,82.5000031471254
128,254,40525,1,0,0:0:0:0:
128,254,40620,1,0,0:0:0:0:
206,109,40810,1,0,0:0:0:0:
279,256,41000,2,0,L|202:211,1,82.5000031471254
183,185,41284,1,0,0:0:0:0:
162,147,41379,5,0,0:0:0:0:
136,27,41569,1,0,0:0:0:0:
171,35,41664,1,0,0:0:0:0:
197,42,41759,2,0,L|233:133,1,82.5000031471254,0|0,0:0|0:0,0:0:0:0:
371,37,42139,1,0,0:0:0:0:
278,173,42329,1,0,0:0:0:0:
434,121,42519,2,0,P|436:169|428:215,1,82.5000031471254
431,202,42803,1,0,0:0:0:0:
431,202,42898,1,0,0:0:0:0:
287,121,43088,1,0,0:0:0:0:
323,281,43278,1,0,0:0:0:0:
168,223,43468,1,0,0:0:0:0:
143,200,43563,1,0,0:0:0:0:
117,178,43658,6,0,L|50:114,1,82.5000031471254
57,121,43943,1,0,0:0:0:0:
57,121,44037,1,0,0:0:0:0:
165,116,44227,1,0,0:0:0:0:
76,255,44417,2,0,L|153:309,1,82.5000031471254
175,312,44702,2,0,L|159:362,1,41.2500015735627
271,226,44987,1,0,0:0:0:0:
279,216,45082,1,0,0:0:0:0:
284,213,45177,1,0,0:0:0:0:
335,56,45367,1,0,0:0:0:0:
446,176,45556,1,0,0:0:0:0:
279,216,45746,1,0,0:0:0:0:
279,216,45841,1,0,0:0:0:0:
279,216,45936,6,0,L|196:155,1,82.5000031471254
295,310,46316,2,0,L|376:355,1,82.5000031471254
348,185,46696,2,0,L|275:126,1,82.5000031471254
156,238,47075,1,0,0:0:0:0:
135,59,47265,1,0,0:0:0:0:
140,85,47360,1,0,0:0:0:0:
148,114,47455,2,0,L|224:168,1,82.5000031471254
362,85,47835,2,0,L|388:183,1,82.5000031471254
311,314,48215,5,0,0:0:0:0:
189,205,48405,1,0,0:0:0:0:
201,188,48500,1,0,0:0:0:0:
211,170,48594,1,0,0:0:0:0:
98,290,48784,1,0,0:0:0:0:
142,130,48974,2,0,L|93:60,1,82.5000031471254,0|0,0:0|0:0,0:0:0:0:
334,120,49354,1,0,0:0:0:0:
241,253,49544,1,0,0:0:0:0:
219,288,49639,1,0,0:0:0:0:
199,324,49734,1,0,0:0:0:0:
231,69,49924,1,0,0:0:0:0:
367,255,50113,2,0,L|416:332,1,82.5000031471254
411,324,50398,1,0,0:0:0:0:
411,324,50493,5,0,0:0:0:0:
448,224,50683,1,0,0:0:0:0:
348,192,50873,1,0,0:0:0:0:
360,84,51063,2,0,L|408:8,1,82.5000031471254
296,32,51443,1,0,0:0:0:0:
312,136,51632,2,0,L|256:212,1,82.5000031471254
240,96,52012,1,0,0:0:0:0:
184,188,52202,2,0,L|124:256,1,82.5000031471254
108,144,52582,1,0,0:0:0:0:
208,180,52772,6,0,L|208:272,1,82.5000031471254
268,172,53151,1,0,0:0:0:0:
160,156,53341,2,0,L|160:56,1,82.5000031471254
264,108,53721,1,0,0:0:0:0:
364,144,53911,2,0,P|356:200|336:244,1,82.5000031471254
300,128,54291,1,0,0:0:0:0:
400,84,54481,2,0,P|436:112|468:148,1,82.5000031471254
428,240,54860,1,0,0:0:0:0:
344,304,55050,6,0,L|252:296,1,82.5000031471254
232,184,55430,1,0,0:0:0:0:
260,72,55620,1,0,0:0:0:0:
232,184,55810,1,0,0:0:0:0:
232,184,56000,1,0,0:0:0:0:
132,244,56189,2,0,P|96:204|76:160,1,82.5000031471254
140,80,56569,1,0,0:0:0:0:
244,32,56759,1,0,0:0:0:0:
140,84,56949,1,0,0:0:0:0:
140,80,57139,1,0,0:0:0:0:
168,192,57329,6,0,P|180:236|176:288,1,82.5000031471254
272,204,57708,1,0,0:0:0:0:
252,92,57898,1,0,0:0:0:0:
336,172,58088,2,0,P|364:236|372:268,1,82.5000031471254
272,204,58468,2,0,P|248:168|240:112,1,82.5000031471254
360,132,58848,2,0,P|396:184|412:220,1,82.5000031471254,0|0,0:0|0:0,0:0:0:0:
224,160,59227,2,0,P|204:104|204:72,1,82.5000031471254
300,148,59607,6,0,P|324:280|328:320,1,165.000006294251
327,310,60082,1,0,0:0:0:0:
327,310,60177,1,0,0:0:0:0:
236,240,60367,1,0,0:0:0:0:
336,184,60556,1,0,0:0:0:0:
327,310,60746,2,0,P|256:320|152:312,1,165.000006294251
163,314,61221,1,0,0:0:0:0:
163,314,61316,1,0,0:0:0:0:
80,232,61506,1,0,0:0:0:0:
92,116,61696,1,0,0:0:0:0:
188,52,61886,6,0,P|216:132|224:212,1,165.000006294251
224,211,62360,1,0,0:0:0:0:
224,211,62455,1,0,0:0:0:0:
116,168,62645,1,0,0:0:0:0:
188,76,62835,1,0,0:0:0:0:
304,88,63025,2,0,P|312:164|304:256,1,165.000006294251
304,252,63500,1,0,0:0:0:0:
304,252,63594,1,0,0:0:0:0:
248,152,63784,1,0,0:0:0:0:
352,104,63974,1,0,0:0:0:0:
376,216,64164,6,0,P|344:264|300:296,1,82.5000031471254
284,172,64544,1,0,0:0:0:0:
296,56,64734,1,0,0:0:0:0:
284,172,64924,2,0,P|224:232|196:248,1,82.5000031471254
116,268,65303,2,0,P|120:224|140:168,1,82.5000031471254
208,100,65683,1,0,0:0:0:0:
204,216,65873,1,0,0:0:0:0:
108,152,66063,2,0,P|112:104|136:60,1,82.5000031471254
204,160,66443,6,0,L|204:256,1,82.5000031471254
220,266,66727,1,0,0:0:0:0:
238,288,66822,1,0,0:0:0:0:
259,307,66917,1,0,0:0:0:0:
280,325,67012,1,0,0:0:0:0:
298,194,67202,1,0,0:0:0:0:
182,130,67392,1,0,0:0:0:0:
192,261,67582,2,0,L|275:243,1,82.5000031471254
295,233,67867,1,0,0:0:0:0:
313,216,67962,1,0,0:0:0:0:
328,196,68056,1,0,0:0:0:0:
340,174,68151,1,0,0:0:0:0:
347,150,68246,1,0,0:0:0:0:
349,125,68341,1,0,0:0:0:0:
347,100,68436,1,0,0:0:0:0:
339,76,68531,1,0,0:0:0:0:
328,53,68626,1,0,0:0:0:0:
314,32,68721,6,0,P|275:9|147:24,1,165.000006294251
244,232,69481,2,0,P|283:255|411:240,1,165.000006294251
336,149,70050,2,0,L|332:92,2,41.2500015735627,0|0|0,0:0|0:0|0:0,0:0:0:0:
219,143,70430,1,0,0:0:0:0:
209,156,70525,1,0,0:0:0:0:
201,170,70620,1,0,0:0:0:0:
193,184,70715,1,0,0:0:0:0:
187,199,70810,1,0,0:0:0:0:
182,214,70905,1,0,0:0:0:0:
177,229,71000,6,0,L|192:343,1,110
216,350,71284,1,0,0:0:0:0:
216,350,71379,1,0,0:0:0:0:
294,192,71569,1,0,0:0:0:0:
131,125,71759,1,0,0:0:0:0:
307,123,71949,1,0,0:0:0:0:
148,200,72139,2,0,P|205:251|242:273,1,110
260,260,72424,1,0,0:0:0:0:
260,260,72519,1,0,0:0:0:0:
278,96,72708,1,0,0:0:0:0:
131,125,72898,2,0,L|55:39,1,110
58,42,73183,1,0,0:0:0:0:
58,42,73278,5,0,0:0:0:0:
53,129,73468,1,0,0:0:0:0:
53,129,73563,1,0,0:0:0:0:
53,129,73658,1,0,0:0:0:0:
199,53,73848,1,0,0:0:0:0:
199,217,74037,2,0,P|124:221|64:211,1,110
236,139,74417,1,0,0:0:0:0:
224,303,74607,1,0,0:0:0:0:
207,303,74702,1,0,0:0:0:0:
190,302,74797,1,0,0:0:0:0:
238,132,74987,1,0,0:0:0:0:
260,248,75177,2,0,L|378:245,1,110
381,223,75462,1,0,0:0:0:0:
381,223,75556,5,0,0:0:0:0:
317,119,75746,1,0,0:0:0:0:
295,112,75841,1,0,0:0:0:0:
273,106,75936,1,0,0:0:0:0:
437,42,76126,1,0,0:0:0:0:
326,179,76316,2,0,P|249:190|194:182,1,110
385,133,76696,1,0,0:0:0:0:
277,272,76886,1,0,0:0:0:0:
255,269,76981,1,0,0:0:0:0:
233,266,77075,1,0,0:0:0:0:
216,123,77265,1,0,0:0:0:0:
176,303,77455,2,0,L|283:350,1,110
276,347,77740,1,0,0:0:0:0:
276,347,77835,5,0,0:0:0:0:
330,214,78025,1,0,0:0:0:0:
327,192,78120,1,0,0:0:0:0:
322,170,78215,2,0,L|377:56,1,110
227,174,78594,1,0,0:0:0:0:
260,256,78784,1,0,0:0:0:0:
219,84,78974,1,0,0:0:0:0:
153,177,79164,1,0,0:0:0:0:
141,194,79259,1,0,0:0:0:0:
131,212,79354,1,0,0:0:0:0:
182,32,79544,1,0,0:0:0:0:
227,174,79734,2,0,L|299:76,1,110
260,256,80113,6,0,L|185:357,1,110
159,349,80398,1,0,0:0:0:0:
159,349,80493,1,0,0:0:0:0:
147,262,80683,1,0,0:0:0:0:
309,168,80873,1,0,0:0:0:0:
326,255,81063,1,0,0:0:0:0:
167,178,81253,2,0,P|199:126|255:79,1,110
265,103,81537,1,0,0:0:0:0:
265,103,81632,1,0,0:0:0:0:
253,278,81822,1,0,0:0:0:0:
106,180,82012,2,0,P|73:240|56:292,1,110
69,297,82297,1,0,0:0:0:0:
69,297,82392,5,0,0:0:0:0:
218,204,82582,1,0,0:0:0:0:
199,216,82677,1,0,0:0:0:0:
180,227,82772,1,0,0:0:0:0:
265,103,82962,1,0,0:0:0:0:
253,278,83151,2,0,P|328:250|359:229,1,110
265,103,83531,2,0,P|193:142|161:172,1,110
172,160,83816,1,0,0:0:0:0:
172,160,83911,1,0,0:0:0:0:
341,208,84101,1,0,0:0:0:0:
180,227,84291,1,0,0:0:0:0:
346,169,84481,1,0,0:0:0:0:
365,161,84575,1,0,0:0:0:0:
382,156,84670,5,0,0:0:0:0:
209,191,84860,1,0,0:0:0:0:
360,101,85050,2,0,P|416:77|478:64,1,110
297,126,85430,1,0,0:0:0:0:
429,242,85620,1,0,0:0:0:0:
460,68,85810,2,0,P|376:59|331:58,1,110
323,59,86094,1,0,0:0:0:0:
323,59,86189,1,0,0:0:0:0:
209,191,86379,1,0,0:0:0:0:
384,203,86569,1,0,0:0:0:0:
279,61,86759,1,0,0:0:0:0:
227,229,86949,6,0,P|281:261|346:277,1,110
356,258,87234,1,0,0:0:0:0:
356,258,87329,1,0,0:0:0:0:
246,120,87519,1,0,0:0:0:0:
160,272,87708,2,0,P|209:310|258:344,1,110
149,190,88088,2,0,P|98:155|52:119,1,110
57,100,88373,1,0,0:0:0:0:
57,100,88468,1,0,0:0:0:0:
142,108,88658,1,0,0:0:0:0:
82,230,88848,1,0,0:0:0:0:
232,139,89037,1,0,0:0:0:0:
256,135,89132,1,0,0:0:0:0:
283,139,89227,6,0,P|332:164|390:176,1,110
385,175,89512,1,0,0:0:0:0:
385,175,89607,1,0,0:0:0:0:
228,226,89797,1,0,0:0:0:0:
392,244,89987,2,0,P|472:234|522:226,1,110
341,276,90367,2,0,L|233:296,1,110
196,278,90651,1,0,0:0:0:0:
196,278,90746,1,0,0:0:0:0:
211,113,90936,1,0,0:0:0:0:
142,263,91126,1,0,0:0:0:0:
211,113,91316,1,0,0:0:0:0:
222,96,91411,1,0,0:0:0:0:
233,80,91506,5,0,0:0:0:0:
125,143,91696,1,0,0:0:0:0:
108,163,91791,1,0,0:0:0:0:
93,185,91886,1,0,0:0:0:0:
257,187,92075,1,0,0:0:0:0:
337,229,92265,2,0,L|415:141,1,110
257,187,92645,2,0,L|171:273,1,110
157,273,92930,1,0,0:0:0:0:
136,281,93025,1,0,0:0:0:0:
206,131,93215,1,0,0:0:0:0:
263,285,93405,1,0,0:0:0:0:
105,237,93594,1,0,0:0:0:0:
101,215,93689,1,0,0:0:0:0:
97,196,93784,5,0,0:0:0:0:
144,37,93974,1,0,0:0:0:0:
166,59,94069,1,0,0:0:0:0:
191,86,94164,2,0,L|214:227,1,110
341,294,94544,2,0,L|320:184,1,110
332,128,94924,1,0,0:0:0:0:
244,266,95113,1,0,0:0:0:0:
229,278,95208,1,0,0:0:0:0:
216,288,95303,2,0,L|104:310,1,110
214,196,95683,2,0,P|283:182|323:173,1,110
341,182,95968,1,0,0:0:0:0:
360,193,96063,5,0,0:0:0:0:
209,161,96253,1,0,0:0:0:0:
226,124,96348,1,0,0:0:0:0:
243,95,96443,2,0,L|374:58,1,110
252,185,96822,2,0,P|153:143|133:130,1,110
275,113,97202,2,0,P|326:140|378:184,1,110
373,197,97487,1,0,0:0:0:0:
374,200,97582,1,0,0:0:0:0:
222,225,97772,1,0,0:0:0:0:
375,232,97962,2,0,P|354:300|327:341,1,110
316,344,98246,1,0,0:0:0:0:
314,344,98341,5,0,0:0:0:0:
203,236,98531,1,0,0:0:0:0:
198,219,98626,1,0,0:0:0:0:
193,203,98721,2,0,L|186:82,1,110
257,99,99101,1,0,0:0:0:0:
122,173,99291,1,0,0:0:0:0:
274,197,99481,2,0,P|288:258|309:305,1,110
293,327,99765,1,0,0:0:0:0:
293,327,99860,1,0,0:0:0:0:
153,262,100050,1,0,0:0:0:0:
253,145,100240,2,0,P|241:50|240:26,1,110
217,18,100525,1,0,0:0:0:0:
217,18,100620,5,0,0:0:0:0:
65,44,100810,1,0,0:0:0:0:
74,60,100905,1,0,0:0:0:0:
82,72,101000,2,0,L|67:187,1,110
114,328,101379,2,0,L|126:214,1,110
179,169,101759,1,0,0:0:0:0:
337,216,101949,1,0,0:0:0:0:
335,177,102044,1,0,0:0:0:0:
334,143,102139,1,0,0:0:0:0:
261,291,102329,1,0,0:0:0:0:
353,293,102519,2,0,P|398:243|424:196,1,110
415,182,102803,1,0,0:0:0:0:
409,163,102898,5,0,0:0:0:0:
346,159,103088,1,0,0:0:0:0:
334,143,103183,1,0,0:0:0:0:
325,130,103278,1,0,0:0:0:0:
230,150,103468,1,0,0:0:0:0:
324,14,103658,1,0,0:0:0:0:
190,111,103848,1,0,0:0:0:0:
349,69,104037,2,0,L|281:181,1,110
273,192,104322,1,0,0:0:0:0:
256,219,104417,1,0,0:0:0:0:
238,54,104607,1,0,0:0:0:0:
183,209,104797,2,0,P|204:259|231:325,1,110
254,314,105082,1,0,0:0:0:0:
254,314,105177,5,0,0:0:0:0:
199,158,105367,1,0,0:0:0:0:
181,151,105462,1,0,0:0:0:0:
162,143,105556,2,0,L|131:25,1,110
91,103,105936,1,0,0:0:0:0:
207,88,106126,1,0,0:0:0:0:
73,185,106316,1,0,0:0:0:0:
243,168,106506,1,0,0:0:0:0:
258,174,106601,1,0,0:0:0:0:
273,179,106696,1,0,0:0:0:0:
287,185,106791,1,0,0:0:0:0:
300,194,106886,1,0,0:0:0:0:
311,205,106981,1,0,0:0:0:0:
320,218,107075,1,0,0:0:0:0:
328,232,107170,1,0,0:0:0:0:
333,247,107265,1,0,0:0:0:0:
337,262,107360,1,0,0:0:0:0:
337,274,107455,6,0,L|330:359,1,82.5000031471254
416,264,107835,2,0,L|424:160,1,82.5000031471254
324,140,108215,1,0,0:0:0:0:
264,228,108405,1,0,0:0:0:0:
360,184,108594,2,0,L|432:96,1,82.5000031471254
412,120,108879,1,0,0:0:0:0:
412,120,108974,1,0,0:0:0:0:
312,84,109164,1,0,0:0:0:0:
280,184,109354,2,0,L|172:168,1,82.5000031471254
172,168,109639,1,0,0:0:0:0:
152,164,109734,6,0,L|64:132,1,82.5000031471254
64,128,110019,1,0,0:0:0:0:
64,128,110113,1,0,0:0:0:0:
162,85,110303,1,0,0:0:0:0:
138,189,110493,2,0,L|220:229,1,82.5000031471254
295,156,110873,2,0,P|259:111|226:86,1,82.5000031471254
232,202,111253,2,0,P|270:252|298:271,1,82.5000031471254
322,162,111632,1,0,0:0:0:0:
264,71,111822,1,0,0:0:0:0:
213,165,112012,6,0,L|197:272,1,82.5000031471254
200,246,112297,1,0,0:0:0:0:
200,246,112392,1,0,0:0:0:0:
296,295,112582,1,0,0:0:0:0:
271,190,112772,2,0,L|288:103,1,82.5000031471254
363,34,113151,2,0,L|345:126,1,82.5000031471254
348,115,113436,1,0,0:0:0:0:
347,114,113531,1,0,0:0:0:0:
370,219,113721,1,0,0:0:0:0:
365,326,113911,2,0,P|288:313|269:298,1,82.5000031471254
280,292,114196,1,0,0:0:0:0:
275,269,114291,6,0,P|228:236|186:229,1,82.5000031471254
204,230,114575,1,0,0:0:0:0:
204,230,114670,1,0,0:0:0:0:
146,139,114860,1,0,0:0:0:0:
252,129,115050,1,0,0:0:0:0:
200,223,115240,1,0,0:0:0:0:
225,118,115430,2,0,L|338:122,1,82.5000031471254
215,177,115810,2,0,L|121:176,1,82.5000031471254
204,230,116189,2,0,L|292:229,1,82.5000031471254
249,73,116569,6,0,P|190:74|150:55,1,82.5000031471254
168,66,116854,1,0,0:0:0:0:
168,66,116949,1,0,0:0:0:0:
246,140,117139,1,0,0:0:0:0:
337,83,117329,1,0,0:0:0:0:
242,31,117519,1,0,0:0:0:0:
246,140,117708,2,0,L|360:145,1,82.5000031471254
328,143,117993,1,0,0:0:0:0:
328,143,118088,1,0,0:0:0:0:
395,227,118278,1,0,0:0:0:0:
288,242,118468,1,0,0:0:0:0:
328,143,118658,1,0,0:0:0:0:
395,227,118848,6,0,L|391:330,1,82.5000031471254
391,309,119132,1,0,0:0:0:0:
391,309,119227,1,0,0:0:0:0:
300,366,119417,1,0,0:0:0:0:
323,261,119607,2,0,L|327:158,1,82.5000031471254
282,80,119987,1,0,0:0:0:0:
205,154,120177,1,0,0:0:0:0:
197,170,120272,1,0,0:0:0:0:
191,182,120367,1,0,0:0:0:0:
84,177,120556,1,0,0:0:0:0:
141,86,120746,2,0,L|231:86,1,82.5000031471254
239,234,121126,6,0,L|144:235,1,82.5000031471254
156,234,121411,1,0,0:0:0:0:
156,234,121506,1,0,0:0:0:0:
243,171,121696,1,0,0:0:0:0:
339,217,121886,2,0,P|346:268|333:316,1,82.5000031471254
281,208,122265,2,0,P|310:138|329:120,1,82.5000031471254
313,133,122550,1,0,0:0:0:0:
313,133,122645,1,0,0:0:0:0:
350,234,122835,1,0,0:0:0:0:
402,140,123025,1,0,0:0:0:0:
350,234,123215,1,0,0:0:0:0:
402,140,123405,6,0,L|445:33,1,82.5000031471254
432,63,123689,1,0,0:0:0:0:
432,63,123784,1,0,0:0:0:0:
329,94,123974,1,0,0:0:0:0:
370,193,124164,1,0,0:0:0:0:
438,110,124354,1,0,0:0:0:0:
329,94,124544,2,0,P|267:133|231:159,1,82.5000031471254
259,138,124829,1,0,0:0:0:0:
259,138,124924,1,0,0:0:0:0:
288,240,125113,1,0,0:0:0:0:
198,298,125303,1,0,0:0:0:0:
192,282,125398,1,0,0:0:0:0:
187,265,125493,1,0,0:0:0:0:
182,249,125588,1,0,0:0:0:0:
175,233,125683,6,0,L|161:147,1,82.5000031471254
296,194,126063,2,0,L|319:295,1,82.5000031471254
212,176,126443,2,0,L|198:61,1,82.5000031471254
295,198,126822,2,0,L|234:300,1,82.5000031471254
228,288,127107,1,0,0:0:0:0:
200,295,127202,2,0,L|109:325,1,82.5000031471254
213,213,127582,2,0,L|331:200,1,82.5000031471254
366,82,127962,6,0,L|277:103,1,82.5000031471254
268,114,128246,1,0,0:0:0:0:
243,125,128341,2,0,L|150:146,1,82.5000031471254
291,200,128721,2,0,L|395:193,1,82.5000031471254
262,281,129101,2,0,L|170:276,1,82.5000031471254
161,273,129386,1,0,0:0:0:0:
143,268,129481,2,0,L|35:261,1,82.5000031471254
177,185,129860,2,0,L|264:200,1,82.5000031471254
394,163,130240,6,0,L|302:143,1,82.5000031471254
195,68,130620,2,0,L|298:90,1,82.5000031471254
149,148,131000,2,0,L|35:124,1,82.5000031471254
183,210,131379,2,0,L|278:250,1,82.5000031471254
267,263,131664,1,0,0:0:0:0:
275,287,131759,2,0,L|358:325,1,82.5000031471254
290,193,132139,2,0,L|208:157,1,82.5000031471254
156,31,132519,6,0,L|241:70,1,82.5000031471254
262,65,132803,1,0,0:0:0:0:
291,65,132898,2,0,L|298:149,1,82.5000031471254
352,277,133278,2,0,L|343:180,1,82.5000031471254
389,61,133658,2,0,L|399:182,1,82.5000031471254
416,161,133943,1,0,0:0:0:0:
433,177,134037,2,0,L|432:267,1,82.5000031471254
332,347,134417,2,0,L|339:234,1,82.5000031471254
276,146,134797,6,0,P|191:168|178:174,1,82.5000031471254
174,179,135082,1,0,0:0:0:0:
158,193,135177,2,0,P|103:200|68:197,1,82.5000031471254
210,237,135556,2,0,P|280:223|296:223,1,82.5000031471254
177,306,135936,2,0,P|110:313|90:308,1,82.5000031471254
96,309,136221,1,0,0:0:0:0:
96,309,136316,1,0,0:0:0:0:
185,201,136506,1,0,0:0:0:0:
269,312,136696,2,0,P|338:300|363:303,1,82.5000031471254
296,171,137075,6,0,P|348:184|401:212,1,82.5000031471254
385,205,137360,1,0,0:0:0:0:
392,216,137455,2,0,L|399:307,1,82.5000031471254
449,166,137835,2,0,L|441:62,1,82.5000031471254
349,189,138215,2,0,L|335:91,1,82.5000031471254
337,107,138500,1,0,0:0:0:0:
337,107,138594,1,0,0:0:0:0:
208,52,138784,1,0,0:0:0:0:
246,186,138974,2,0,L|231:95,1,82.5000031471254
141,212,139354,6,0,L|161:295,1,82.5000031471254
187,300,139639,1,0,0:0:0:0:
210,304,139734,1,0,0:0:0:0:
255,171,139924,1,0,0:0:0:0:
135,98,140113,2,0,P|79:161|72:184,1,82.5000031471254
220,142,140493,2,0,P|262:99|273:67,1,82.5000031471254
270,79,140778,1,0,0:0:0:0:
270,79,140873,1,0,0:0:0:0:
394,144,141063,1,0,0:0:0:0:
285,55,141253,2,0,P|354:43|398:52,1,82.5000031471254
359,184,141632,6,0,P|269:201|265:200,1,82.5000031471254
256,189,141917,1,0,0:0:0:0:
256,189,142012,1,0,0:0:0:0:
183,68,142202,1,0,0:0:0:0:
214,65,142297,1,0,0:0:0:0:
246,64,142392,1,0,0:0:0:0:
324,180,142582,1,0,0:0:0:0:
276,312,142772,1,0,0:0:0:0:
137,290,142962,1,0,0:0:0:0:
125,270,143056,1,0,0:0:0:0:
110,248,143151,1,0,0:0:0:0:
206,146,143341,1,0,0:0:0:0:
238,142,143436,1,0,0:0:0:0:
270,138,143531,1,0,0:0:0:0:
370,268,143721,1,0,0:0:0:0:
466,134,143911,1,0,0:0:0:0:
