osu file format v13

[General]
AudioFilename: 10_-_Master_-_CALL.mp3
AudioLeadIn: 0
PreviewTime: 112012
Countdown: 0
SampleSet: None
StackLeniency: 0.7
Mode: 0
LetterboxInBreaks: 1
WidescreenStoryboard: 1

[Editor]
DistanceSpacing: 0.8
BeatDivisor: 4
GridSize: 4
TimelineZoom: 1

[Metadata]
Title:CALL
TitleUnicode:CALL
Artist:Nekomata Master
ArtistUnicode:猫叉 Master
Creator:Davidsoneca
Version:Hard
Source:
Tags:
BeatmapID:558017
BeatmapSetID:226613

[Difficulty]
HPDrainRate:5
CircleSize:4
OverallDifficulty:5
ApproachRate:8
SliderMultiplier:1.7
SliderTickRate:1

[Events]
//Background and Video events
0,0,"Konachan.com - 75036 sample.jpg",0,0
//Break Periods
//Storyboard Layer 0 (Background)
//Storyboard Layer 1 (Fail)
//Storyboard Layer 2 (Pass)
//Storyboard Layer 3 (Foreground)
//Storyboard Sound Samples
//Background Colour Transformations
3,100,163,162,255

[TimingPoints]
14038,379.746835443038,3,2,0,21,1,0
68721,-166.666666666667,3,2,0,21,0,0
71000,-100,3,2,0,21,0,1
107455,-100,3,2,0,21,0,0

[Colours]
Combo1 : 36,191,156
Combo2 : 113,173,255
Combo3 : 196,230,255
Combo4 : 106,255,111

[HitObjects]
176,280,14037,6,0,P|160:216|160:172,1,85
264,124,14417,2,0,P|280:176|288:212,1,85
220,284,14797,1,0,0:0:0:0:
168,196,14987,1,0,0:0:0:0:
208,112,15177,2,0,P|228:172|232:216,1,85
132,272,15556,2,0,P|96:200|88:168,1,85
140,104,15936,1,0,0:0:0:0:
208,180,16126,1,0,0:0:0:0:
260,296,16316,6,0,P|196:272|172:256,1,85
156,136,16696,2,0,P|244:120|340:120,1,170
396,224,17265,1,0,0:0:0:0:
288,288,17455,2,0,L|280:188,1,85
281,203,17740,1,0,0:0:0:0:
281,203,17835,1,0,0:0:0:0:
284,76,18025,1,0,0:0:0:0:
208,64,18215,1,0,0:0:0:0:
328,16,18405,1,0,0:0:0:0:
372,136,18594,6,0,P|352:204|348:236,1,85
240,280,18974,2,0,P|224:228|216:176,1,85
180,76,19354,1,0,0:0:0:0:
180,76,19544,1,0,0:0:0:0:
124,192,19734,2,0,P|136:236|160:284,1,85
180,148,20113,2,0,P|188:208|192:240,1,85
368,48,20683,1,0,0:0:0:0:
344,172,20873,6,0,P|308:88|256:48,1,127.5
240,84,21253,1,0,0:0:0:0:
244,272,21632,2,0,P|312:320|376:336,1,127.5
376,292,22012,1,0,0:0:0:0:
372,264,22107,1,0,0:0:0:0:
364,236,22202,1,0,0:0:0:0:
360,208,22297,1,0,0:0:0:0:
352,180,22392,1,0,0:0:0:0:
252,200,22582,1,0,0:0:0:0:
220,200,22677,1,0,0:0:0:0:
188,192,22772,1,0,0:0:0:0:
160,172,22867,1,0,0:0:0:0:
140,144,22962,1,0,0:0:0:0:
132,112,23056,1,0,0:0:0:0:
132,76,23151,6,0,L|252:68,1,85
288,176,23531,2,0,P|296:232|300:280,1,85
172,252,23911,1,0,0:0:0:0:
300,260,24101,1,0,0:0:0:0:
412,196,24291,2,0,P|384:136|360:100,1,85
252,80,24670,2,0,P|276:128|296:160,1,85
396,80,25050,1,0,0:0:0:0:
296,160,25240,1,0,0:0:0:0:
184,100,25430,6,0,P|176:152|172:192,1,85
48,156,25810,2,0,P|104:236|176:300,1,170
284,268,26379,1,0,0:0:0:0:
408,292,26569,2,0,P|404:236|400:208,1,85
276,240,26949,2,0,L|260:152,1,85
136,180,27329,2,0,L|100:84,1,85
220,40,27708,6,0,P|228:108|228:144,1,85
236,252,28088,2,0,P|168:236|68:184,1,170
112,68,28658,1,0,0:0:0:0:
188,168,28848,2,0,P|164:228|148:252,1,85
252,164,29227,2,0,P|288:116|316:88,1,85
428,136,29607,1,0,0:0:0:0:
428,136,29797,1,0,0:0:0:0:
416,280,29987,6,0,P|320:280|240:244,1,170
356,152,30556,2,0,P|280:104|188:76,1,170
236,220,31126,2,0,P|292:264|400:256,1,170
340,160,31696,2,0,P|292:120|260:96,1,85
244,108,31981,1,0,0:0:0:0:
216,108,32075,1,0,0:0:0:0:
188,112,32170,1,0,0:0:0:0:
160,116,32265,6,0,L|152:212,1,85,0|0,0:0|0:0,0:0:0:0:
288,212,32645,2,0,L|276:312,1,85
144,280,33025,1,0,0:0:0:0:
180,148,33215,1,0,0:0:0:0:
312,88,33405,2,0,L|304:180,1,85
448,168,33784,2,0,L|432:284,1,85
308,188,34164,1,0,0:0:0:0:
344,48,34354,1,0,0:0:0:0:
384,188,34544,6,0,L|364:296,1,85
272,96,34924,2,0,P|236:216|212:260,1,170
148,128,35493,1,0,0:0:0:0:
292,120,35683,2,0,L|416:116,1,85
244,180,36063,2,0,L|132:184,1,85
296,232,36443,1,0,0:0:0:0:
224,108,36632,1,0,0:0:0:0:
348,180,36822,6,0,L|344:80,1,85
260,212,37202,2,0,L|252:112,1,85
176,248,37582,2,0,L|168:136,1,85
264,272,37962,1,0,0:0:0:0:
204,140,38151,1,0,0:0:0:0:
340,188,38341,1,0,0:0:0:0:
196,200,38531,1,0,0:0:0:0:
312,112,38721,1,0,0:0:0:0:
260,248,38911,1,0,0:0:0:0:
244,104,39101,6,0,L|232:12,1,85
144,136,39481,2,0,L|68:64,1,85
104,220,39860,2,0,L|12:224,1,85
140,304,40240,1,0,0:0:0:0:
284,308,40430,1,0,0:0:0:0:
252,168,40620,2,0,L|148:168,1,85
280,260,41000,2,0,L|380:256,1,85
316,168,41379,6,0,P|176:172|148:180,1,170
232,240,41949,1,0,0:0:0:0:
252,140,42139,1,0,0:0:0:0:
184,64,42329,1,0,0:0:0:0:
96,112,42519,2,0,L|88:220,1,85
152,276,42898,2,0,L|160:184,1,85
228,116,43278,1,0,0:0:0:0:
328,92,43468,1,0,0:0:0:0:
392,172,43658,6,0,L|380:280,1,85
382,256,43943,1,0,0:0:0:0:
382,256,44037,1,0,0:0:0:0:
264,264,44227,1,0,0:0:0:0:
368,320,44417,1,0,0:0:0:0:
304,220,44607,1,0,0:0:0:0:
368,320,44797,2,0,L|456:320,1,85
304,336,45177,2,0,L|200:336,1,85
316,264,45556,2,0,L|408:248,1,85
332,140,45936,6,0,P|324:80|324:24,1,85
323,55,46221,1,0,0:0:0:0:
323,55,46316,1,0,0:0:0:0:
212,120,46506,1,0,0:0:0:0:
316,196,46696,1,0,0:0:0:0:
372,80,46886,1,0,0:0:0:0:
248,56,47075,2,0,L|144:80,1,85
165,75,47360,1,0,0:0:0:0:
165,75,47455,1,0,0:0:0:0:
136,200,47645,1,0,0:0:0:0:
176,320,47835,1,0,0:0:0:0:
136,200,48025,1,0,0:0:0:0:
252,256,48215,6,0,P|328:248|432:176,1,170
288,156,48784,2,0,P|212:168|120:216,1,170
256,224,49354,2,0,P|292:144|296:56,1,170
188,128,49924,2,0,P|168:240|176:300,1,170
200,308,50398,1,0,0:0:0:0:
228,316,50493,6,0,L|340:316,1,85
388,324,50873,1,0,0:0:0:0:
356,256,51063,2,0,L|256:240,1,85
228,180,51443,1,0,0:0:0:0:
288,136,51632,2,0,L|388:140,1,85
448,152,52012,1,0,0:0:0:0:
372,140,52202,2,0,L|272:136,1,85
212,128,52582,1,0,0:0:0:0:
136,116,52772,6,0,L|28:100,1,85
136,116,53151,1,0,0:0:0:0:
212,128,53341,2,0,L|316:144,1,85
368,112,53721,1,0,0:0:0:0:
300,148,53911,2,0,L|288:256,1,85
280,308,54291,1,0,0:0:0:0:
288,232,54481,2,0,L|192:224,1,85
128,216,54860,1,0,0:0:0:0:
140,140,55050,6,0,P|184:88|212:72,1,85
224,152,55430,1,0,0:0:0:0:
192,220,55620,2,0,P|140:204|104:180,1,85
164,132,56000,1,0,0:0:0:0:
240,120,56189,2,0,L|364:120,1,85
400,140,56569,1,0,0:0:0:0:
416,216,56759,2,0,P|392:264|352:296,1,85
328,220,57139,1,0,0:0:0:0:
376,160,57329,6,0,L|484:168,1,85
376,160,57708,2,0,L|272:152,1,85
228,200,58088,1,0,0:0:0:0:
228,200,58278,1,0,0:0:0:0:
244,276,58468,2,0,L|344:284,1,85
244,276,58848,2,0,L|152:276,1,85
180,348,59227,1,0,0:0:0:0:
180,348,59417,1,0,0:0:0:0:
136,256,59607,6,0,L|132:144,1,85
176,80,59987,1,0,0:0:0:0:
220,172,60177,2,0,L|232:276,1,85
296,336,60556,1,0,0:0:0:0:
340,244,60746,2,0,L|328:144,1,85
384,72,61126,1,0,0:0:0:0:
440,156,61316,2,0,L|452:252,1,85
376,308,61696,1,0,0:0:0:0:
300,240,61886,6,0,P|232:248|188:236,1,85
256,152,62265,1,0,0:0:0:0:
356,180,62455,2,0,P|404:184|460:208,1,85
376,276,62835,1,0,0:0:0:0:
304,184,63025,2,0,P|312:104|324:64,1,85
432,96,63405,1,0,0:0:0:0:
376,200,63594,2,0,P|344:264|312:296,1,85
256,184,63974,1,0,0:0:0:0:
160,116,64164,6,0,L|76:56,1,85
160,116,64544,1,0,0:0:0:0:
236,208,64734,2,0,L|260:304,1,85
236,208,65113,1,0,0:0:0:0:
260,92,65303,2,0,L|348:32,1,85
364,160,65683,1,0,0:0:0:0:
244,156,65873,2,0,L|148:204,1,85
148,312,66253,1,0,0:0:0:0:
260,272,66443,6,0,L|348:232,1,85,0|0,0:0|0:0,0:0:0:0:
456,228,66822,2,0,L|476:176,4,42.5,0|0|0|0|0,0:0|0:0|0:0|0:0|0:0,0:0:0:0:
348,180,67392,1,0,0:0:0:0:
340,152,67487,1,0,0:0:0:0:
332,124,67582,2,0,L|324:68,6,42.5,0|0|0|0|0|0|0,0:0|0:0|0:0|0:0|0:0|0:0|0:0,0:0:0:0:
224,144,68341,1,0,0:0:0:0:
200,156,68436,1,0,0:0:0:0:
176,164,68531,1,0,0:0:0:0:
152,172,68626,1,0,0:0:0:0:
132,188,68721,6,0,P|136:252|140:296,1,101.999996887207
316,268,69481,1,0,0:0:0:0:
220,192,69860,2,0,L|224:132,1,50.9999984436036
240,132,70145,1,0,0:0:0:0:
260,124,70240,1,0,0:0:0:0:
276,116,70335,1,0,0:0:0:0:
296,112,70430,1,0,0:0:0:0:
316,112,70525,1,0,0:0:0:0:
336,116,70620,1,0,0:0:0:0:
356,124,70715,1,0,0:0:0:0:
372,136,70810,1,0,0:0:0:0:
388,152,70905,1,0,0:0:0:0:
404,180,71000,6,0,L|408:288,1,85
