osu file format v13

[General]
AudioFilename: 10_-_Master_-_CALL.mp3
AudioLeadIn: 0
PreviewTime: 112012
Countdown: 0
SampleSet: Soft
StackLeniency: 0.7
Mode: 0
LetterboxInBreaks: 1
WidescreenStoryboard: 1

[Editor]
DistanceSpacing: 2
BeatDivisor: 4
GridSize: 4
TimelineZoom: 1.6

[Metadata]
Title:CALL
TitleUnicode:CALL
Artist:Nekomata Master
ArtistUnicode:猫叉 Master
Creator:Davidsoneca
Version:Extreme
Source:
Tags:
BeatmapID:528324
BeatmapSetID:226613

[Difficulty]
HPDrainRate:5
CircleSize:4
OverallDifficulty:5
ApproachRate:9.3
SliderMultiplier:2.3
SliderTickRate:1

[Events]
//Background and Video events
0,0,"Konachan.com - 75036 sample.jpg",0,0
//Break Periods
2,144111,161585
//Storyboard Layer 0 (Background)
//Storyboard Layer 1 (Fail)
//Storyboard Layer 2 (Pass)
//Storyboard Layer 3 (Foreground)
//Storyboard Sound Samples
//Background Colour Transformations
3,100,163,162,255

[TimingPoints]
14038,379.746835443038,3,2,0,21,1,0
50493,-133.333333333333,3,2,0,21,0,0
71000,-90.9090909090909,3,2,0,21,0,1
84101,-200,3,2,0,21,0,1
84670,-90.9090909090909,3,2,0,21,0,1
107455,-133.333333333333,3,2,0,21,0,0
116569,-111.111111111111,3,2,0,21,0,0
125683,-100,3,2,0,21,0,0
184354,-200,3,2,0,21,0,0
184924,-100,3,2,0,21,0,0
193468,-133.333333333333,3,2,0,21,0,0
194037,-100,3,2,0,21,0,0
198594,-133.333333333333,3,2,0,21,0,0
214544,-100,3,2,0,21,0,0
219101,-90.9090909090909,3,2,0,21,0,1
273784,-50,3,2,0,21,0,0

[Colours]
Combo1 : 36,191,156
Combo2 : 113,173,255
Combo3 : 196,230,255
Combo4 : 106,255,111

[HitObjects]
285,291,14037,6,0,L|333:179,1,115
224,153,14417,2,0,L|167:261,1,115
311,306,14797,2,0,L|379:208,1,115
230,177,15177,2,0,L|227:302,1,115
227,291,15462,1,0,0:0:0:0:
227,291,15556,1,0,0:0:0:0:
197,145,15746,1,0,0:0:0:0:
332,207,15936,2,0,P|329:111|333:83,1,115
339,78,16221,1,0,0:0:0:0:
351,65,16316,5,0,0:0:0:0:
401,205,16506,1,0,0:0:0:0:
348,204,16601,1,0,0:0:0:0:
306,199,16696,2,0,P|277:122|266:79,1,115
414,125,17075,2,0,P|425:208|426:255,1,115
286,295,17455,1,0,0:0:0:0:
258,273,17550,1,0,0:0:0:0:
233,248,17645,1,0,0:0:0:0:
214,219,17740,1,0,0:0:0:0:
202,186,17835,1,0,0:0:0:0:
311,84,18025,1,0,0:0:0:0:
325,232,18215,2,0,P|369:292|382:341,1,115
278,221,18594,5,0,0:0:0:0:
233,78,18784,1,0,0:0:0:0:
233,78,18879,1,0,0:0:0:0:
233,78,18974,2,0,P|234:147|223:201,1,115
116,88,19354,1,0,0:0:0:0:
245,163,19544,1,0,0:0:0:0:
147,276,19734,2,0,P|139:187|142:148,1,115
161,135,20019,1,0,0:0:0:0:
161,135,20113,1,0,0:0:0:0:
286,117,20303,2,0,P|299:214|221:321,1,230
221,258,20873,6,0,P|316:263|354:278,1,115
379,259,21158,1,0,0:0:0:0:
424,251,21253,1,0,0:0:0:0:
387,103,21443,1,0,0:0:0:0:
341,103,21537,1,0,0:0:0:0:
295,105,21632,2,0,L|211:184,1,115
364,284,22012,2,0,L|361:161,1,115
321,158,22297,1,0,0:0:0:0:
282,146,22392,1,0,0:0:0:0:
242,140,22487,1,0,0:0:0:0:
201,142,22582,1,0,0:0:0:0:
161,151,22677,1,0,0:0:0:0:
123,165,22772,1,0,0:0:0:0:
90,188,22867,1,0,0:0:0:0:
62,216,22962,1,0,0:0:0:0:
44,251,23056,1,0,0:0:0:0:
37,290,23151,5,0,0:0:0:0:
182,273,23341,1,0,0:0:0:0:
182,273,23531,1,0,0:0:0:0:
279,175,23721,1,0,0:0:0:0:
354,290,23911,2,0,P|388:200|411:169,1,115
271,242,24291,2,0,P|248:156|225:114,1,115
236,133,24575,1,0,0:0:0:0:
236,133,24670,1,0,0:0:0:0:
155,141,24860,1,0,0:0:0:0:
267,61,25050,1,0,0:0:0:0:
299,195,25240,1,0,0:0:0:0:
155,141,25430,6,0,P|140:85|111:19,1,115
118,32,25715,1,0,0:0:0:0:
118,32,25810,1,0,0:0:0:0:
80,165,26000,1,0,0:0:0:0:
216,177,26189,2,0,P|252:236|285:268,1,115
284,267,26474,1,0,0:0:0:0:
284,267,26569,1,0,0:0:0:0:
405,200,26759,1,0,0:0:0:0:
406,165,26854,1,0,0:0:0:0:
407,130,26949,1,0,0:0:0:0:
269,135,27139,1,0,0:0:0:0:
348,248,27329,2,0,L|343:365,1,115
343,362,27613,1,0,0:0:0:0:
343,362,27708,5,0,0:0:0:0:
238,273,27898,1,0,0:0:0:0:
225,234,27993,1,0,0:0:0:0:
214,195,28088,1,0,0:0:0:0:
111,56,28278,1,0,0:0:0:0:
277,101,28468,1,0,0:0:0:0:
106,128,28658,1,0,0:0:0:0:
256,43,28848,2,0,L|399:41,1,115
370,41,29132,1,0,0:0:0:0:
370,41,29227,1,0,0:0:0:0:
331,209,29417,1,0,0:0:0:0:
476,115,29607,2,0,P|373:120|341:115,1,115
188,122,29987,6,0,P|205:205|212:243,1,115
210,234,30272,1,0,0:0:0:0:
210,234,30367,1,0,0:0:0:0:
315,84,30556,2,0,P|377:148|405:181,1,115
393,167,30841,1,0,0:0:0:0:
393,167,30936,1,0,0:0:0:0:
437,346,31126,2,0,L|363:242,1,115
370,252,31411,1,0,0:0:0:0:
370,252,31506,1,0,0:0:0:0:
212,347,31696,2,0,L|256:230,1,115
252,239,31981,1,0,0:0:0:0:
252,239,32075,1,0,0:0:0:0:
252,239,32170,1,0,0:0:0:0:
252,239,32265,6,0,L|233:104,1,115
210,93,32550,1,0,0:0:0:0:
188,59,32645,1,0,0:0:0:0:
266,41,32835,1,0,0:0:0:0:
115,125,33025,1,0,0:0:0:0:
286,109,33215,1,0,0:0:0:0:
131,185,33405,2,0,L|152:317,1,115
173,308,33689,1,0,0:0:0:0:
194,314,33784,1,0,0:0:0:0:
269,158,33974,1,0,0:0:0:0:
96,169,34164,1,0,0:0:0:0:
265,200,34354,1,0,0:0:0:0:
294,204,34449,1,0,0:0:0:0:
317,208,34544,6,0,L|431:213,1,115
431,213,34829,1,0,0:0:0:0:
431,213,34924,1,0,0:0:0:0:
376,126,35113,1,0,0:0:0:0:
280,86,35303,1,0,0:0:0:0:
180,115,35493,1,0,0:0:0:0:
137,209,35683,2,0,L|179:324,1,115
217,320,35968,1,0,0:0:0:0:
257,321,36063,1,0,0:0:0:0:
290,247,36253,1,0,0:0:0:0:
119,270,36443,1,0,0:0:0:0:
290,247,36632,1,0,0:0:0:0:
119,270,36822,6,0,L|106:126,1,115
98,110,37107,1,0,0:0:0:0:
88,64,37202,1,0,0:0:0:0:
206,172,37392,1,0,0:0:0:0:
45,184,37582,2,0,L|57:322,1,115
146,164,37962,2,0,P|192:88|199:51,1,115
197,63,38246,1,0,0:0:0:0:
197,63,38341,1,0,0:0:0:0:
96,188,38531,1,0,0:0:0:0:
241,256,38721,2,0,P|311:195|345:153,1,115
325,178,39006,1,0,0:0:0:0:
325,178,39101,5,0,0:0:0:0:
186,96,39291,1,0,0:0:0:0:
160,127,39386,1,0,0:0:0:0:
135,159,39481,1,0,0:0:0:0:
248,144,39670,1,0,0:0:0:0:
355,104,39860,1,0,0:0:0:0:
245,226,40050,1,0,0:0:0:0:
146,284,40240,2,0,P|73:273|23:266,1,115
32,267,40525,1,0,0:0:0:0:
32,267,40620,1,0,0:0:0:0:
138,222,40810,1,0,0:0:0:0:
170,332,41000,2,0,L|300:317,1,115
309,294,41284,1,0,0:0:0:0:
342,258,41379,5,0,0:0:0:0:
253,123,41569,1,0,0:0:0:0:
253,123,41664,1,0,0:0:0:0:
253,123,41759,2,0,L|403:111,1,115
208,208,42139,1,0,0:0:0:0:
32,200,42329,1,0,0:0:0:0:
193,91,42519,2,0,P|239:58|306:38,1,115
293,39,42803,1,0,0:0:0:0:
293,39,42898,1,0,0:0:0:0:
334,195,43088,1,0,0:0:0:0:
341,34,43278,1,0,0:0:0:0:
280,214,43468,1,0,0:0:0:0:
393,59,43658,6,0,P|388:157|378:189,1,115
373,206,43943,1,0,0:0:0:0:
360,237,44037,1,0,0:0:0:0:
254,86,44227,1,0,0:0:0:0:
279,268,44417,2,0,P|197:237|144:228,1,115
254,86,44797,2,0,L|323:193,1,115
316,182,45082,1,0,0:0:0:0:
316,182,45177,1,0,0:0:0:0:
133,159,45367,1,0,0:0:0:0:
316,182,45556,1,0,0:0:0:0:
116,126,45746,1,0,0:0:0:0:
305,211,45936,6,0,L|426:298,1,115
398,278,46221,1,0,0:0:0:0:
398,278,46316,1,0,0:0:0:0:
214,275,46506,1,0,0:0:0:0:
312,119,46696,2,0,P|222:49|210:41,1,115
190,60,46981,1,0,0:0:0:0:
170,69,47075,1,0,0:0:0:0:
126,247,47265,1,0,0:0:0:0:
152,269,47360,1,0,0:0:0:0:
180,288,47455,1,0,0:0:0:0:
339,267,47645,1,0,0:0:0:0:
234,100,47835,1,0,0:0:0:0:
180,288,48025,1,0,0:0:0:0:
339,267,48215,6,0,L|377:142,1,115
371,122,48500,1,0,0:0:0:0:
371,87,48594,1,0,0:0:0:0:
148,77,48784,2,0,L|139:205,1,115
284,263,49164,1,0,0:0:0:0:
140,330,49354,2,0,L|102:184,1,115
88,184,49639,1,0,0:0:0:0:
64,151,49734,1,0,0:0:0:0:
218,50,49924,1,0,0:0:0:0:
269,225,50113,1,0,0:0:0:0:
94,165,50303,1,0,0:0:0:0:
133,156,50398,1,0,0:0:0:0:
163,153,50493,6,0,L|273:146,1,86.2500032901765
391,184,50873,1,0,0:0:0:0:
259,249,51063,2,0,L|154:276,1,86.2500032901765
280,167,51443,1,0,0:0:0:0:
115,217,51632,2,0,L|93:115,1,86.2500032901765
259,73,52012,1,0,0:0:0:0:
363,210,52202,2,0,L|379:304,1,86.2500032901765
262,164,52582,1,0,0:0:0:0:
211,329,52772,6,0,L|170:226,1,86.2500032901765
238,86,53151,1,0,0:0:0:0:
300,337,53341,2,0,L|273:245,1,86.2500032901765
307,83,53721,1,0,0:0:0:0:
143,26,53911,2,0,L|164:139,1,86.2500032901765
192,281,54291,1,0,0:0:0:0:
221,24,54481,2,0,L|244:119,1,86.2500032901765
250,280,54860,2,0,L|247:217,1,43.1250016450883
309,175,55050,6,0,L|378:80,1,86.2500032901765
312,272,55430,1,0,0:0:0:0:
274,103,55620,2,0,L|217:171,1,86.2500032901765
251,339,56000,1,0,0:0:0:0:
108,243,56189,2,0,L|178:171,1,86.2500032901765
171,354,56569,1,0,0:0:0:0:
99,196,56759,2,0,L|29:263,1,86.2500032901765
139,115,57139,1,0,0:0:0:0:
267,230,57329,6,0,L|374:246,1,86.2500032901765
386,221,57613,1,0,0:0:0:0:
424,198,57708,1,0,0:0:0:0:
255,159,57898,1,0,0:0:0:0:
427,152,58088,1,0,0:0:0:0:
255,159,58278,1,0,0:0:0:0:
429,124,58468,2,0,L|312:128,1,86.2500032901765
292,292,58848,1,0,0:0:0:0:
331,124,59037,1,0,0:0:0:0:
316,309,59227,1,0,0:0:0:0:
331,113,59417,1,0,0:0:0:0:
355,294,59607,6,0,L|344:195,1,86.2500032901765
345,208,59892,1,0,0:0:0:0:
345,208,59987,1,0,0:0:0:0:
217,92,60177,1,0,0:0:0:0:
265,210,60367,1,0,0:0:0:0:
243,230,60462,1,0,0:0:0:0:
215,242,60556,1,0,0:0:0:0:
184,243,60651,1,0,0:0:0:0:
154,235,60746,2,0,L|38:268,1,86.2500032901765
71,258,61031,1,0,0:0:0:0:
71,258,61126,1,0,0:0:0:0:
109,162,61316,1,0,0:0:0:0:
184,243,61506,1,0,0:0:0:0:
224,147,61696,1,0,0:0:0:0:
247,135,61791,1,0,0:0:0:0:
277,122,61886,6,0,L|385:144,1,86.2500032901765
371,176,62170,1,0,0:0:0:0:
376,214,62265,1,0,0:0:0:0:
375,252,62360,1,0,0:0:0:0:
365,289,62455,1,0,0:0:0:0:
259,213,62645,2,0,L|284:92,1,86.2500032901765
184,243,63025,2,0,L|155:344,1,86.2500032901765
160,325,63310,1,0,0:0:0:0:
160,325,63405,1,0,0:0:0:0:
114,205,63594,1,0,0:0:0:0:
192,102,63784,1,0,0:0:0:0:
319,77,63974,1,0,0:0:0:0:
351,88,64069,1,0,0:0:0:0:
382,101,64164,6,0,L|398:217,1,86.2500032901765
391,221,64449,1,0,0:0:0:0:
383,254,64544,1,0,0:0:0:0:
208,163,64734,2,0,L|216:251,1,86.2500032901765
301,142,65113,1,0,0:0:0:0:
128,127,65303,2,0,L|117:226,1,86.2500032901765
127,234,65588,1,0,0:0:0:0:
127,234,65683,1,0,0:0:0:0:
234,99,65873,2,0,L|232:40,1,43.1250016450883
240,196,66063,1,0,0:0:0:0:
337,93,66253,1,0,0:0:0:0:
230,297,66443,6,0,L|202:195,1,86.2500032901765
227,185,66727,1,0,0:0:0:0:
254,164,66822,1,0,0:0:0:0:
282,144,66917,1,0,0:0:0:0:
310,125,67012,1,0,0:0:0:0:
342,160,67107,1,0,0:0:0:0:
359,204,67202,1,0,0:0:0:0:
353,251,67297,1,0,0:0:0:0:
328,291,67392,1,0,0:0:0:0:
287,315,67487,1,0,0:0:0:0:
239,321,67582,2,0,P|179:284|126:279,1,86.2500032901765
134,238,67867,1,0,0:0:0:0:
97,200,67962,1,0,0:0:0:0:
52,174,68056,1,0,0:0:0:0:
50,122,68151,1,0,0:0:0:0:
69,74,68246,1,0,0:0:0:0:
105,35,68341,1,0,0:0:0:0:
150,10,68436,1,0,0:0:0:0:
201,8,68531,1,0,0:0:0:0:
246,32,68626,1,0,0:0:0:0:
266,79,68721,6,0,P|261:155|260:258,1,172.500006580353
111,299,69481,2,0,P|148:179|155:105,1,172.500006580353
194,317,70050,1,0,0:0:0:0:
245,314,70145,1,0,0:0:0:0:
293,296,70240,1,0,0:0:0:0:
338,271,70335,1,0,0:0:0:0:
366,228,70430,1,0,0:0:0:0:
383,179,70525,1,0,0:0:0:0:
391,127,70620,1,0,0:0:0:0:
384,75,70715,1,0,0:0:0:0:
353,33,70810,1,0,0:0:0:0:
307,7,70905,1,0,0:0:0:0:
256,19,71000,6,0,L|251:159,1,126.500003860474
240,176,71284,1,0,0:0:0:0:
224,204,71379,1,0,0:0:0:0:
116,96,71569,1,0,0:0:0:0:
333,100,71759,1,0,0:0:0:0:
116,96,71949,1,0,0:0:0:0:
184,272,72139,2,0,L|188:136,1,126.500003860474
196,108,72424,1,0,0:0:0:0:
204,72,72519,1,0,0:0:0:0:
308,212,72708,1,0,0:0:0:0:
132,200,72898,2,0,L|116:336,1,126.500003860474
208,172,73278,6,0,P|256:84|288:52,1,126.500003860474
312,56,73563,1,0,0:0:0:0:
348,56,73658,1,0,0:0:0:0:
340,244,73848,1,0,0:0:0:0:
216,236,74037,1,0,0:0:0:0:
284,128,74227,1,0,0:0:0:0:
340,244,74417,2,0,P|272:296|224:312,1,126.500003860474
208,304,74702,1,0,0:0:0:0:
184,296,74797,1,0,0:0:0:0:
168,144,74987,1,0,0:0:0:0:
384,148,75177,1,0,0:0:0:0:
372,364,75367,1,0,0:0:0:0:
184,296,75556,6,0,P|164:192|160:168,1,126.500003860474
132,156,75841,1,0,0:0:0:0:
104,140,75936,1,0,0:0:0:0:
252,72,76126,1,0,0:0:0:0:
344,264,76316,1,0,0:0:0:0:
140,240,76506,1,0,0:0:0:0:
156,76,76696,2,0,P|240:72|304:80,1,126.500003860474
316,104,76981,1,0,0:0:0:0:
348,132,77075,1,0,0:0:0:0:
268,168,77265,1,0,0:0:0:0:
404,16,77455,1,0,0:0:0:0:
448,216,77645,1,0,0:0:0:0:
408,220,77740,1,0,0:0:0:0:
372,224,77835,5,0,0:0:0:0:
224,292,78025,1,0,0:0:0:0:
200,260,78120,1,0,0:0:0:0:
180,228,78215,1,0,0:0:0:0:
252,80,78405,1,0,0:0:0:0:
396,276,78594,1,0,0:0:0:0:
148,260,78784,2,0,L|104:208,1,63.2500019302369
68,208,78974,2,0,L|80:56,1,126.500003860474
77,81,79259,1,0,0:0:0:0:
77,81,79354,1,0,0:0:0:0:
260,144,79544,1,0,0:0:0:0:
36,120,79734,1,0,0:0:0:0:
180,304,79924,1,0,0:0:0:0:
264,136,80113,6,0,P|252:56|228:12,1,126.500003860474
231,16,80398,1,0,0:0:0:0:
231,16,80493,1,0,0:0:0:0:
212,204,80683,1,0,0:0:0:0:
376,40,80873,1,0,0:0:0:0:
268,244,81063,1,0,0:0:0:0:
416,124,81253,2,0,P|356:160|292:184,1,126.500003860474
303,180,81537,1,0,0:0:0:0:
303,180,81632,1,0,0:0:0:0:
336,48,81822,1,0,0:0:0:0:
440,208,82012,1,0,0:0:0:0:
252,216,82202,1,0,0:0:0:0:
336,48,82392,6,0,P|368:128|372:176,1,126.500003860474
376,204,82677,1,0,0:0:0:0:
380,240,82772,1,0,0:0:0:0:
252,248,82962,1,0,0:0:0:0:
264,36,83151,1,0,0:0:0:0:
252,248,83341,2,0,L|317:296,1,63.2500019302369
309,331,83531,2,0,L|460:299,1,126.500003860474
432,304,83816,1,0,0:0:0:0:
432,304,83911,1,0,0:0:0:0:
364,88,84101,2,0,L|373:35,1,28.75
232,68,84291,2,0,L|221:27,1,28.75
124,128,84481,2,0,L|96:100,1,28.75
117,248,84670,6,0,P|217:241|277:221,1,126.500003860474
272,201,84955,1,0,0:0:0:0:
295,163,85050,1,0,0:0:0:0:
175,68,85240,1,0,0:0:0:0:
184,283,85430,1,0,0:0:0:0:
384,174,85620,1,0,0:0:0:0:
171,91,85810,2,0,L|184:221,1,126.500003860474
183,216,86094,1,0,0:0:0:0:
183,216,86189,1,0,0:0:0:0:
274,129,86379,1,0,0:0:0:0:
386,71,86569,1,0,0:0:0:0:
389,248,86759,1,0,0:0:0:0:
384,272,86854,1,0,0:0:0:0:
379,296,86949,6,0,L|248:311,1,126.500003860474
241,287,87234,1,0,0:0:0:0:
228,264,87329,1,0,0:0:0:0:
83,140,87519,1,0,0:0:0:0:
269,112,87708,1,0,0:0:0:0:
53,109,87898,1,0,0:0:0:0:
291,78,88088,2,0,L|427:81,1,126.500003860474
431,101,88373,1,0,0:0:0:0:
442,115,88468,1,0,0:0:0:0:
206,208,88658,1,0,0:0:0:0:
439,306,88848,1,0,0:0:0:0:
459,54,89037,1,0,0:0:0:0:
206,208,89227,6,0,L|64:231,1,126.500003860474
65,200,89512,1,0,0:0:0:0:
50,171,89607,1,0,0:0:0:0:
221,63,89797,1,0,0:0:0:0:
303,248,89987,1,0,0:0:0:0:
111,183,90177,1,0,0:0:0:0:
288,86,90367,2,0,L|354:206,1,126.500003860474
348,196,90651,1,0,0:0:0:0:
348,196,90746,1,0,0:0:0:0:
180,309,90936,1,0,0:0:0:0:
222,110,91126,1,0,0:0:0:0:
410,183,91316,1,0,0:0:0:0:
215,239,91506,6,0,P|174:154|147:103,1,126.500003860474
159,125,91791,1,0,0:0:0:0:
159,125,91886,1,0,0:0:0:0:
260,299,92075,1,0,0:0:0:0:
95,185,92265,1,0,0:0:0:0:
172,15,92455,1,0,0:0:0:0:
290,110,92645,2,0,L|437:128,1,126.500003860474
415,125,92930,1,0,0:0:0:0:
415,125,93025,1,0,0:0:0:0:
268,161,93215,1,0,0:0:0:0:
407,325,93405,1,0,0:0:0:0:
268,161,93594,1,0,0:0:0:0:
136,331,93784,6,0,L|133:184,1,126.500003860474
137,172,94069,1,0,0:0:0:0:
140,140,94164,1,0,0:0:0:0:
260,46,94354,1,0,0:0:0:0:
268,161,94544,1,0,0:0:0:0:
221,16,94734,1,0,0:0:0:0:
319,178,94924,2,0,L|401:281,1,126.500003860474
414,304,95208,1,0,0:0:0:0:
430,330,95303,1,0,0:0:0:0:
295,316,95493,1,0,0:0:0:0:
485,218,95683,1,0,0:0:0:0:
268,222,95873,1,0,0:0:0:0:
431,125,96063,6,0,L|490:9,1,126.500003860474
489,13,96348,1,0,0:0:0:0:
489,13,96443,1,0,0:0:0:0:
366,157,96632,1,0,0:0:0:0:
179,190,96822,1,0,0:0:0:0:
41,58,97012,1,0,0:0:0:0:
217,127,97202,2,0,L|264:273,1,126.500003860474
272,289,97487,1,0,0:0:0:0:
290,329,97582,1,0,0:0:0:0:
114,303,97772,1,0,0:0:0:0:
366,287,97962,1,0,0:0:0:0:
72,253,98151,1,0,0:0:0:0:
403,248,98341,6,0,L|437:104,1,126.500003860474,0|0,0:0|0:0,0:0:0:0:
448,90,98626,1,0,0:0:0:0:
462,54,98721,1,0,0:0:0:0:
261,83,98911,1,0,0:0:0:0:
369,254,99101,1,0,0:0:0:0:
438,63,99291,1,0,0:0:0:0:
253,146,99481,2,0,L|281:272,1,126.500003860474
280,269,99765,1,0,0:0:0:0:
280,269,99860,1,0,0:0:0:0:
471,202,100050,1,0,0:0:0:0:
269,184,100240,1,0,0:0:0:0:
366,361,100430,1,0,0:0:0:0:
473,199,100620,6,0,L|429:72,1,126.500003860474
429,82,100905,1,0,0:0:0:0:
429,82,101000,1,0,0:0:0:0:
312,246,101189,1,0,0:0:0:0:
296,44,101379,1,0,0:0:0:0:
312,246,101569,1,0,0:0:0:0:
128,159,101759,2,0,P|161:231|183:286,1,126.500003860474
184,297,102044,1,0,0:0:0:0:
184,297,102139,1,0,0:0:0:0:
281,134,102329,1,0,0:0:0:0:
74,78,102519,1,0,0:0:0:0:
281,134,102708,1,0,0:0:0:0:
97,181,102898,6,0,L|22:68,1,126.500003860474
27,75,103183,1,0,0:0:0:0:
27,75,103278,1,0,0:0:0:0:
277,39,103468,1,0,0:0:0:0:
119,237,103658,2,0,L|249:322,1,126.500003860474
473,355,104037,2,0,L|351:275,1,126.500003860474
367,285,104322,1,0,0:0:0:0:
367,285,104417,1,0,0:0:0:0:
433,41,104607,1,0,0:0:0:0:
201,142,104797,2,0,L|316:221,1,126.500003860474
147,13,105177,6,0,L|264:98,1,126.500003860474
249,87,105462,1,0,0:0:0:0:
249,87,105556,1,0,0:0:0:0:
131,145,105746,1,0,0:0:0:0:
226,337,105936,1,0,0:0:0:0:
418,240,106126,1,0,0:0:0:0:
320,47,106316,2,0,L|334:184,1,126.500003860474
298,201,106601,1,0,0:0:0:0:
261,226,106696,1,0,0:0:0:0:
221,245,106791,1,0,0:0:0:0:
178,256,106886,1,0,0:0:0:0:
133,256,106981,1,0,0:0:0:0:
90,244,107075,1,0,0:0:0:0:
57,213,107170,1,0,0:0:0:0:
33,175,107265,1,0,0:0:0:0:
11,136,107360,1,0,0:0:0:0:
6,106,107455,6,0,L|26:7,1,86.2500032901765
23,21,107740,1,0,0:0:0:0:
23,21,107835,1,0,0:0:0:0:
128,60,108025,1,0,0:0:0:0:
64,152,108215,2,0,L|64:256,1,86.2500032901765
130,147,108594,2,0,L|116:52,1,86.2500032901765
128,60,108879,1,0,0:0:0:0:
128,60,108974,1,0,0:0:0:0:
237,83,109164,1,0,0:0:0:0:
187,183,109354,2,0,L|198:286,1,86.2500032901765
208,279,109639,1,0,0:0:0:0:
220,286,109734,5,0,0:0:0:0:
284,194,109924,1,0,0:0:0:0:
287,174,110019,1,0,0:0:0:0:
290,154,110113,1,0,0:0:0:0:
417,134,110303,1,0,0:0:0:0:
290,106,110493,1,0,0:0:0:0:
419,95,110683,1,0,0:0:0:0:
290,77,110873,2,0,L|398:57,1,86.2500032901765
374,61,111158,1,0,0:0:0:0:
374,61,111253,1,0,0:0:0:0:
366,190,111443,1,0,0:0:0:0:
224,154,111632,1,0,0:0:0:0:
108,63,111822,1,0,0:0:0:0:
243,118,112012,6,0,P|301:177|321:211,1,86.2500032901765
302,179,112297,1,0,0:0:0:0:
302,179,112392,1,0,0:0:0:0:
156,191,112582,1,0,0:0:0:0:
266,94,112772,2,0,L|361:101,1,86.2500032901765
229,180,113151,2,0,L|137:179,1,86.2500032901765
142,179,113436,1,0,0:0:0:0:
142,179,113531,1,0,0:0:0:0:
200,117,113721,1,0,0:0:0:0:
258,251,113911,2,0,L|357:248,1,86.2500032901765
206,301,114291,6,0,L|105:300,1,86.2500032901765
119,300,114575,1,0,0:0:0:0:
119,300,114670,1,0,0:0:0:0:
215,177,114860,1,0,0:0:0:0:
238,330,115050,1,0,0:0:0:0:
302,188,115240,1,0,0:0:0:0:
160,252,115430,2,0,L|270:246,1,86.2500032901765
246,247,115715,1,0,0:0:0:0:
246,247,115810,1,0,0:0:0:0:
309,305,116000,1,0,0:0:0:0:
476,271,116189,1,0,0:0:0:0:
477,99,116379,1,0,0:0:0:0:
145,77,116569,6,0,L|157:187,1,103.499996841431
172,190,116854,1,0,0:0:0:0:
172,190,116949,1,0,0:0:0:0:
324,82,117139,2,0,L|348:20,2,51.7499984207154,0|0|0,0:0|0:0|0:0,0:0:0:0:
115,98,117519,1,0,0:0:0:0:
321,120,117708,2,0,L|340:232,1,103.499996841431
338,222,117993,1,0,0:0:0:0:
338,222,118088,1,0,0:0:0:0:
186,155,118278,1,0,0:0:0:0:
387,131,118468,1,0,0:0:0:0:
188,97,118658,1,0,0:0:0:0:
401,289,118848,6,0,L|401:178,1,103.499996841431
401,185,119132,1,0,0:0:0:0:
401,185,119227,1,0,0:0:0:0:
247,160,119417,1,0,0:0:0:0:
303,304,119607,1,0,0:0:0:0:
401,185,119797,1,0,0:0:0:0:
275,94,119987,2,0,P|203:111|157:136,1,103.499996841431
136,120,120272,1,0,0:0:0:0:
136,120,120367,1,0,0:0:0:0:
247,160,120556,1,0,0:0:0:0:
304,25,120746,2,0,L|414:44,1,103.499996841431
136,120,121126,6,0,L|3:101,1,103.499996841431
34,105,121411,1,0,0:0:0:0:
34,105,121506,1,0,0:0:0:0:
174,198,121696,1,0,0:0:0:0:
283,60,121886,1,0,0:0:0:0:
280,233,122075,1,0,0:0:0:0:
166,305,122265,2,0,P|129:229|123:195,1,103.499996841431
125,210,122550,1,0,0:0:0:0:
125,210,122645,1,0,0:0:0:0:
177,87,122835,1,0,0:0:0:0:
355,89,123025,1,0,0:0:0:0:
184,144,123215,1,0,0:0:0:0:
440,52,123405,6,0,L|432:174,1,103.499996841431
433,155,123689,1,0,0:0:0:0:
433,155,123784,1,0,0:0:0:0:
311,99,123974,1,0,0:0:0:0:
347,228,124164,2,0,L|369:122,1,103.499996841431
271,221,124544,2,0,L|250:330,1,103.499996841431
251,322,124829,1,0,0:0:0:0:
251,322,124924,1,0,0:0:0:0:
166,218,125113,1,0,0:0:0:0:
289,272,125303,1,0,0:0:0:0:
306,246,125398,1,0,0:0:0:0:
324,221,125493,1,0,0:0:0:0:
342,196,125588,1,0,0:0:0:0:
344,161,125683,6,0,L|421:61,1,115,0|0,0:0|0:0,0:0:0:0:
414,69,125968,1,0,0:0:0:0:
414,69,126063,1,0,0:0:0:0:
230,62,126253,1,0,0:0:0:0:
409,211,126443,2,0,L|346:320,1,115
407,135,126822,2,0,P|339:124|260:140,1,115
261,154,127107,1,0,0:0:0:0:
228,177,127202,2,0,L|97:228,1,115
235,88,127582,6,0,L|362:62,1,115
366,113,127867,1,0,0:0:0:0:
389,159,127962,1,0,0:0:0:0:
273,253,128151,1,0,0:0:0:0:
232,223,128246,1,0,0:0:0:0:
196,192,128341,1,0,0:0:0:0:
225,15,128531,1,0,0:0:0:0:
196,192,128721,2,0,L|61:179,1,115
225,136,129101,2,0,P|307:159|350:180,1,115
333,171,129386,1,0,0:0:0:0:
333,171,129481,1,0,0:0:0:0:
228,66,129670,1,0,0:0:0:0:
196,192,129860,2,0,P|129:152|108:112,1,115
279,198,130240,6,0,L|283:320,1,115
282,312,130525,1,0,0:0:0:0:
282,312,130620,1,0,0:0:0:0:
207,97,130810,1,0,0:0:0:0:
350,273,131000,2,0,L|348:146,1,115
217,288,131379,2,0,P|179:203|161:162,1,115
170,182,131664,1,0,0:0:0:0:
170,182,131759,1,0,0:0:0:0:
99,352,131949,1,0,0:0:0:0:
282,312,132139,1,0,0:0:0:0:
79,220,132329,1,0,0:0:0:0:
301,218,132519,6,0,P|335:133|356:90,1,115
345,111,132803,1,0,0:0:0:0:
345,111,132898,1,0,0:0:0:0:
161,96,133088,1,0,0:0:0:0:
366,73,133278,1,0,0:0:0:0:
139,142,133468,1,0,0:0:0:0:
396,25,133658,2,0,L|464:12,1,57.5
336,144,133848,1,0,0:0:0:0:
340,189,133943,1,0,0:0:0:0:
345,234,134037,1,0,0:0:0:0:
110,94,134227,1,0,0:0:0:0:
286,72,134417,2,0,L|289:189,1,115
137,311,134797,6,0,P|123:199|103:168,1,115
102,176,135082,1,0,0:0:0:0:
102,176,135177,1,0,0:0:0:0:
66,321,135367,1,0,0:0:0:0:
285,258,135556,1,0,0:0:0:0:
219,45,135746,1,0,0:0:0:0:
163,244,135936,2,0,L|242:340,1,115
236,332,136221,1,0,0:0:0:0:
236,332,136316,1,0,0:0:0:0:
389,195,136506,1,0,0:0:0:0:
360,149,136601,1,0,0:0:0:0:
336,105,136696,1,0,0:0:0:0:
102,80,136886,1,0,0:0:0:0:
290,227,137075,6,0,P|383:221|439:208,1,115
404,216,137360,1,0,0:0:0:0:
404,216,137455,1,0,0:0:0:0:
328,83,137645,1,0,0:0:0:0:
273,77,137740,1,0,0:0:0:0:
223,75,137835,1,0,0:0:0:0:
142,302,138025,1,0,0:0:0:0:
362,296,138215,2,0,L|347:157,1,115
349,181,138500,1,0,0:0:0:0:
349,181,138594,1,0,0:0:0:0:
142,167,138784,1,0,0:0:0:0:
155,195,138879,1,0,0:0:0:0:
168,223,138974,1,0,0:0:0:0:
370,102,139164,1,0,0:0:0:0:
307,321,139354,6,0,P|275:234|246:195,1,115
262,215,139639,1,0,0:0:0:0:
262,215,139734,1,0,0:0:0:0:
157,277,139924,1,0,0:0:0:0:
347,114,140113,1,0,0:0:0:0:
104,50,140303,1,0,0:0:0:0:
255,191,140493,2,0,L|342:266,1,115
342,266,140778,1,0,0:0:0:0:
342,266,140873,1,0,0:0:0:0:
316,60,141063,1,0,0:0:0:0:
273,69,141158,1,0,0:0:0:0:
236,78,141253,1,0,0:0:0:0:
157,277,141443,1,0,0:0:0:0:
180,72,141632,5,0,0:0:0:0:
242,293,141822,1,0,0:0:0:0:
299,297,141917,1,0,0:0:0:0:
356,301,142012,1,0,0:0:0:0:
149,199,142202,1,0,0:0:0:0:
99,170,142297,1,0,0:0:0:0:
48,142,142392,1,0,0:0:0:0:
277,152,142582,1,0,0:0:0:0:
70,254,142772,1,0,0:0:0:0:
293,206,142962,1,0,0:0:0:0:
349,195,143056,1,0,0:0:0:0:
405,187,143151,1,0,0:0:0:0:
191,100,143341,1,0,0:0:0:0:
137,79,143436,1,0,0:0:0:0:
83,56,143531,1,0,0:0:0:0:
313,56,143721,1,0,0:0:0:0:
102,149,143911,1,0,0:0:0:0:
208,300,162139,6,0,L|192:168,1,115
194,185,162424,1,0,0:0:0:0:
194,185,162519,1,0,0:0:0:0:
48,116,162708,1,0,0:0:0:0:
120,260,162898,2,0,L|128:380,1,115
72,220,163278,2,0,L|56:92,1,115
54,106,163563,1,0,0:0:0:0:
57,105,163658,1,0,0:0:0:0:
168,224,163848,1,0,0:0:0:0:
160,64,164037,2,0,P|224:64|284:68,1,115
400,168,164417,6,0,L|376:296,1,115
378,281,164702,1,0,0:0:0:0:
378,281,164797,1,0,0:0:0:0:
252,180,164987,1,0,0:0:0:0:
412,152,165177,2,0,L|440:28,1,115
296,112,165556,2,0,L|268:224,1,115
268,223,165841,1,0,0:0:0:0:
268,223,165936,1,0,0:0:0:0:
128,144,166126,1,0,0:0:0:0:
336,108,166316,2,0,L|380:-8,1,115
376,0,166601,1,0,0:0:0:0:
376,0,166696,5,0,0:0:0:0:
228,63,166886,1,0,0:0:0:0:
228,63,166981,1,0,0:0:0:0:
228,63,167075,1,0,0:0:0:0:
219,223,167265,1,0,0:0:0:0:
175,67,167455,1,0,0:0:0:0:
258,204,167645,1,0,0:0:0:0:
133,101,167835,2,0,P|206:164|231:170,1,115
221,168,168120,1,0,0:0:0:0:
221,168,168215,1,0,0:0:0:0:
87,184,168405,1,0,0:0:0:0:
212,283,168594,2,0,P|141:273|86:249,1,115
110,217,168879,1,0,0:0:0:0:
120,178,168974,5,0,0:0:0:0:
266,224,169164,1,0,0:0:0:0:
284,187,169259,1,0,0:0:0:0:
300,150,169354,1,0,0:0:0:0:
313,112,169449,1,0,0:0:0:0:
317,72,169544,1,0,0:0:0:0:
191,127,169734,2,0,L|194:250,1,115
419,328,170113,2,0,L|427:202,1,115
404,193,170398,1,0,0:0:0:0:
381,175,170493,1,0,0:0:0:0:
242,179,170683,1,0,0:0:0:0:
410,124,170873,1,0,0:0:0:0:
197,143,171063,1,0,0:0:0:0:
165,138,171158,1,0,0:0:0:0:
131,132,171253,6,0,L|18:173,1,115
22,171,171537,1,0,0:0:0:0:
22,171,171632,1,0,0:0:0:0:
153,76,171822,1,0,0:0:0:0:
143,236,172012,2,0,L|270:179,1,115
247,188,172297,1,0,0:0:0:0:
247,188,172392,1,0,0:0:0:0:
354,68,172582,1,0,0:0:0:0:
326,68,172677,1,0,0:0:0:0:
301,69,172772,1,0,0:0:0:0:
156,139,172962,1,0,0:0:0:0:
313,167,173151,2,0,L|447:154,1,115
427,155,173436,1,0,0:0:0:0:
427,155,173531,5,0,0:0:0:0:
293,244,173721,1,0,0:0:0:0:
246,256,173816,1,0,0:0:0:0:
202,269,173911,1,0,0:0:0:0:
156,279,174006,1,0,0:0:0:0:
106,287,174101,1,0,0:0:0:0:
211,165,174291,2,0,L|331:135,1,115
163,114,174670,2,0,L|45:150,1,115
53,147,174955,1,0,0:0:0:0:
53,147,175050,1,0,0:0:0:0:
199,214,175240,1,0,0:0:0:0:
244,59,175430,1,0,0:0:0:0:
354,176,175620,1,0,0:0:0:0:
367,193,175715,1,0,0:0:0:0:
379,208,175810,6,0,L|389:336,1,115
366,345,176094,1,0,0:0:0:0:
366,345,176189,1,0,0:0:0:0:
243,239,176379,1,0,0:0:0:0:
326,101,176569,2,0,L|180:135,1,115
190,109,176854,1,0,0:0:0:0:
162,90,176949,1,0,0:0:0:0:
129,247,177139,1,0,0:0:0:0:
149,218,177234,1,0,0:0:0:0:
169,189,177329,1,0,0:0:0:0:
329,171,177519,1,0,0:0:0:0:
157,169,177708,1,0,0:0:0:0:
352,156,177898,1,0,0:0:0:0:
140,144,178088,6,0,L|67:36,1,115
75,48,178373,1,0,0:0:0:0:
75,48,178468,1,0,0:0:0:0:
260,188,178658,2,0,L|324:283,1,115
324,283,178943,1,0,0:0:0:0:
324,283,179037,1,0,0:0:0:0:
96,264,179227,2,0,L|23:156,1,115
31,168,179512,1,0,0:0:0:0:
31,168,179607,1,0,0:0:0:0:
212,28,179797,2,0,L|276:123,1,115
276,123,180082,1,0,0:0:0:0:
276,123,180177,1,0,0:0:0:0:
276,123,180272,1,0,0:0:0:0:
276,123,180367,6,0,P|388:136|420:148,1,115
408,160,180651,1,0,0:0:0:0:
420,188,180746,1,0,0:0:0:0:
224,196,180936,1,0,0:0:0:0:
348,44,181126,1,0,0:0:0:0:
416,228,181316,1,0,0:0:0:0:
416,228,181411,1,0,0:0:0:0:
416,228,181506,2,0,L|276:240,1,115
268,260,181791,1,0,0:0:0:0:
232,280,181886,1,0,0:0:0:0:
436,284,182075,1,0,0:0:0:0:
336,104,182265,1,0,0:0:0:0:
272,300,182455,1,0,0:0:0:0:
388,128,182645,6,0,P|296:76|252:64,1,115
248,88,182930,1,0,0:0:0:0:
212,104,183025,1,0,0:0:0:0:
64,248,183215,1,0,0:0:0:0:
272,236,183405,1,0,0:0:0:0:
68,272,183594,1,0,0:0:0:0:
264,208,183784,2,0,L|404:172,1,115
375,179,184069,1,0,0:0:0:0:
375,179,184164,1,0,0:0:0:0:
256,272,184354,2,0,L|260:312,1,28.75
148,172,184544,2,0,L|156:212,1,28.75
312,104,184734,2,0,L|320:144,1,28.75
252,48,184924,6,0,L|256:172,1,115
255,162,185208,1,0,0:0:0:0:
255,162,185303,1,0,0:0:0:0:
100,196,185493,1,0,0:0:0:0:
224,92,185683,1,0,0:0:0:0:
356,188,185873,1,0,0:0:0:0:
224,280,186063,2,0,L|112:224,1,115
121,228,186348,1,0,0:0:0:0:
121,228,186443,1,0,0:0:0:0:
236,116,186632,1,0,0:0:0:0:
284,268,186822,2,0,L|412:332,1,115
386,319,187107,1,0,0:0:0:0:
386,319,187202,5,0,0:0:0:0:
364,112,187392,1,0,0:0:0:0:
320,92,187487,1,0,0:0:0:0:
276,76,187582,1,0,0:0:0:0:
152,240,187772,1,0,0:0:0:0:
360,252,187962,2,0,L|360:124,1,115
320,124,188246,1,0,0:0:0:0:
280,116,188341,1,0,0:0:0:0:
140,112,188531,1,0,0:0:0:0:
148,164,188626,1,0,0:0:0:0:
156,216,188721,1,0,0:0:0:0:
376,220,188911,1,0,0:0:0:0:
164,272,189101,1,0,0:0:0:0:
384,264,189291,1,0,0:0:0:0:
339,49,189481,6,0,P|272:44|213:54,1,115
196,84,189765,1,0,0:0:0:0:
168,113,189860,1,0,0:0:0:0:
314,223,190050,1,0,0:0:0:0:
368,114,190240,2,0,P|463:98|498:77,1,115
297,128,190620,2,0,P|275:185|270:260,1,115
292,278,190905,1,0,0:0:0:0:
321,313,191000,1,0,0:0:0:0:
421,180,191189,1,0,0:0:0:0:
207,213,191379,1,0,0:0:0:0:
452,121,191569,1,0,0:0:0:0:
161,171,191759,6,0,L|150:297,1,115
178,306,192044,1,0,0:0:0:0:
208,321,192139,1,0,0:0:0:0:
241,330,192234,1,0,0:0:0:0:
275,335,192329,1,0,0:0:0:0:
237,107,192519,2,0,P|144:122|113:132,1,115
282,172,192898,2,0,P|366:160|417:141,1,115
419,126,193183,1,0,0:0:0:0:
441,99,193278,1,0,0:0:0:0:
273,57,193468,2,0,L|346:58,1,43.1250016450883
165,157,193658,2,0,L|216:156,1,43.1250016450883
275,274,193848,2,0,L|329:273,1,43.1250016450883
179,251,194037,6,0,P|116:254|36:278,1,115
46,295,194322,1,0,0:0:0:0:
30,325,194417,1,0,0:0:0:0:
205,333,194607,1,0,0:0:0:0:
122,155,194797,1,0,0:0:0:0:
265,349,194987,1,0,0:0:0:0:
140,98,195177,2,0,L|22:109,1,115
25,108,195462,1,0,0:0:0:0:
25,108,195556,1,0,0:0:0:0:
201,217,195746,1,0,0:0:0:0:
162,42,195936,2,0,P|308:48|309:49,1,115
302,252,196316,6,0,L|307:111,1,115
306,137,196601,1,0,0:0:0:0:
306,137,196696,1,0,0:0:0:0:
77,165,196886,2,0,L|72:279,1,115
51,121,197265,1,0,0:0:0:0:
162,322,197455,2,0,L|167:181,1,115
168,207,197740,1,0,0:0:0:0:
168,207,197835,1,0,0:0:0:0:
394,163,198025,2,0,L|389:277,1,115
420,122,198405,1,0,0:0:0:0:
252,83,198594,6,0,P|172:89|128:91,1,86.2500032901765
335,125,198974,1,0,0:0:0:0:
166,160,199164,2,0,L|73:166,1,86.2500032901765
182,305,199544,1,0,0:0:0:0:
319,200,199734,2,0,L|316:80,1,86.2500032901765
300,285,200113,1,0,0:0:0:0:
397,142,200303,2,0,L|397:46,1,86.2500032901765
416,228,200683,1,0,0:0:0:0:
277,125,200873,6,0,L|172:124,1,86.2500032901765
360,85,201253,1,0,0:0:0:0:
192,44,201443,2,0,L|89:42,1,86.2500032901765
248,139,201822,1,0,0:0:0:0:
409,78,202012,2,0,L|505:36,1,86.2500032901765
248,139,202392,1,0,0:0:0:0:
103,78,202582,2,0,L|7:36,1,86.2500032901765
249,102,202962,1,0,0:0:0:0:
251,273,203151,6,0,P|303:265|350:239,1,86.2500032901765
457,129,203531,1,0,0:0:0:0:
251,206,203721,2,0,P|197:221|150:252,1,86.2500032901765
24,141,204101,1,0,0:0:0:0:
251,139,204291,2,0,L|358:164,1,86.2500032901765
130,85,204670,1,0,0:0:0:0:
261,139,204860,2,0,L|154:164,1,86.2500032901765
382,85,205240,1,0,0:0:0:0:
261,208,205430,6,0,L|259:307,1,86.2500032901765
190,194,205810,2,0,L|207:92,1,86.2500032901765
258,216,206189,2,0,L|226:309,1,86.2500032901765
216,176,206569,2,0,L|277:89,1,86.2500032901765
240,224,206949,2,0,L|162:289,1,86.2500032901765
225,169,207329,2,0,L|324:126,1,86.2500032901765
131,137,207708,6,0,L|124:245,1,86.2500032901765
125,223,207993,1,0,0:0:0:0:
125,223,208088,1,0,0:0:0:0:
246,100,208278,1,0,0:0:0:0:
254,115,208373,1,0,0:0:0:0:
262,129,208468,1,0,0:0:0:0:
271,143,208563,1,0,0:0:0:0:
281,156,208658,1,0,0:0:0:0:
293,167,208753,1,0,0:0:0:0:
305,178,208848,2,0,L|401:228,1,86.2500032901765
381,217,209132,1,0,0:0:0:0:
381,217,209227,1,0,0:0:0:0:
406,47,209417,1,0,0:0:0:0:
458,211,209607,1,0,0:0:0:0:
322,104,209797,1,0,0:0:0:0:
491,136,209987,6,0,L|405:184,1,86.2500032901765
415,178,210272,1,0,0:0:0:0:
415,178,210367,1,0,0:0:0:0:
317,328,210556,1,0,0:0:0:0:
304,316,210651,1,0,0:0:0:0:
291,304,210746,1,0,0:0:0:0:
278,292,210841,1,0,0:0:0:0:
264,281,210936,1,0,0:0:0:0:
250,270,211031,1,0,0:0:0:0:
236,259,211126,2,0,L|148:206,1,86.2500032901765
162,214,211411,1,0,0:0:0:0:
162,214,211506,1,0,0:0:0:0:
334,218,211696,2,0,L|405:211,1,43.1250016450883
258,158,211886,2,0,L|303:117,1,43.1250016450883
172,127,212075,2,0,L|197:75,1,43.1250016450883
201,333,212265,6,0,L|304:332,1,86.2500032901765
300,332,212550,1,0,0:0:0:0:
312,331,212645,1,0,0:0:0:0:
177,57,212835,2,0,L|76:64,1,86.2500032901765
78,66,213120,1,0,0:0:0:0:
65,69,213215,1,0,0:0:0:0:
175,205,213405,2,0,L|83:214,1,86.2500032901765
77,219,213689,1,0,0:0:0:0:
65,224,213784,1,0,0:0:0:0:
283,200,213974,2,0,L|388:209,1,86.2500032901765
381,206,214259,1,0,0:0:0:0:
393,202,214354,1,0,0:0:0:0:
186,303,214544,6,0,L|64:313,1,115
71,312,214829,1,0,0:0:0:0:
71,312,214924,1,0,0:0:0:0:
175,108,215113,1,0,0:0:0:0:
197,141,215208,1,0,0:0:0:0:
219,174,215303,1,0,0:0:0:0:
240,208,215398,1,0,0:0:0:0:
267,237,215493,1,0,0:0:0:0:
288,270,215588,1,0,0:0:0:0:
320,293,215683,2,0,L|441:252,1,115
446,219,215968,1,0,0:0:0:0:
449,178,216063,1,0,0:0:0:0:
444,137,216158,1,0,0:0:0:0:
424,101,216253,1,0,0:0:0:0:
394,73,216348,1,0,0:0:0:0:
357,56,216443,1,0,0:0:0:0:
317,56,216537,1,0,0:0:0:0:
278,66,216632,1,0,0:0:0:0:
243,87,216727,1,0,0:0:0:0:
229,124,216822,6,0,P|265:231|376:262,1,230
392,55,217392,1,0,0:0:0:0:
295,238,217582,1,0,0:0:0:0:
273,247,217677,1,0,0:0:0:0:
252,257,217772,1,0,0:0:0:0:
230,265,217867,1,0,0:0:0:0:
208,271,217962,2,0,L|97:229,1,115
345,166,218341,2,0,L|465:221,1,115
173,337,218721,1,0,0:0:0:0:
163,291,218816,1,0,0:0:0:0:
150,246,218911,1,0,0:0:0:0:
142,200,219006,1,0,0:0:0:0:
132,150,219101,6,0,L|123:12,1,126.500003860474
129,26,219386,1,0,0:0:0:0:
129,26,219481,1,0,0:0:0:0:
313,56,219670,1,0,0:0:0:0:
436,56,219860,1,0,0:0:0:0:
433,172,220050,1,0,0:0:0:0:
304,179,220240,2,0,P|233:155|178:126,1,126.500003860474
179,128,220525,1,0,0:0:0:0:
179,128,220620,1,0,0:0:0:0:
346,101,220810,1,0,0:0:0:0:
110,140,221000,1,0,0:0:0:0:
346,101,221189,1,0,0:0:0:0:
176,192,221379,6,0,P|86:212|34:192,1,126.500003860474
63,198,221664,1,0,0:0:0:0:
58,198,221759,1,0,0:0:0:0:
298,304,221949,1,0,0:0:0:0:
106,132,222139,1,0,0:0:0:0:
260,331,222329,1,0,0:0:0:0:
166,117,222519,2,0,P|225:96|286:105,1,126.500003860474
286,105,222803,1,0,0:0:0:0:
286,105,222898,1,0,0:0:0:0:
60,69,223088,1,0,0:0:0:0:
349,83,223278,1,0,0:0:0:0:
38,39,223468,1,0,0:0:0:0:
286,105,223658,6,0,P|338:146|398:133,1,126.500003860474
394,135,223943,1,0,0:0:0:0:
394,135,224037,1,0,0:0:0:0:
362,46,224227,1,0,0:0:0:0:
199,78,224417,1,0,0:0:0:0:
280,270,224607,1,0,0:0:0:0:
471,158,224797,2,0,P|424:59|395:41,1,126.500003860474
409,46,225082,1,0,0:0:0:0:
409,46,225177,1,0,0:0:0:0:
257,192,225367,1,0,0:0:0:0:
457,319,225556,1,0,0:0:0:0:
257,192,225746,1,0,0:0:0:0:
234,182,225841,1,0,0:0:0:0:
208,171,225936,6,0,P|99:190|79:207,1,126.500003860474
78,207,226221,1,0,0:0:0:0:
79,207,226316,1,0,0:0:0:0:
257,326,226506,1,0,0:0:0:0:
456,192,226696,1,0,0:0:0:0:
255,58,226886,1,0,0:0:0:0:
56,192,227076,1,0,0:0:0:0:
268,292,227265,1,0,0:0:0:0:
268,292,227360,1,0,0:0:0:0:
268,292,227455,1,0,0:0:0:0:
483,177,227645,1,0,0:0:0:0:
244,30,227835,1,0,0:0:0:0:
22,204,228025,1,0,0:0:0:0:
22,204,228120,1,0,0:0:0:0:
22,204,228215,6,0,P|89:265|129:272,1,126.500003860474
139,247,228500,1,0,0:0:0:0:
139,247,228594,1,0,0:0:0:0:
152,82,228784,1,0,0:0:0:0:
238,234,228974,1,0,0:0:0:0:
152,82,229164,1,0,0:0:0:0:
303,166,229354,2,0,L|447:163,1,126.500003860474
446,145,229639,1,0,0:0:0:0:
446,145,229734,1,0,0:0:0:0:
283,38,229924,1,0,0:0:0:0:
303,242,230113,2,0,L|165:266,1,126.500003860474
354,299,230493,6,0,P|429:282|486:245,1,126.500003860474
471,257,230778,1,0,0:0:0:0:
471,257,230873,1,0,0:0:0:0:
401,100,231063,1,0,0:0:0:0:
108,86,231253,1,0,0:0:0:0:
218,328,231443,1,0,0:0:0:0:
385,237,231632,2,0,P|435:149|445:106,1,126.500003860474
436,114,231917,1,0,0:0:0:0:
427,100,232012,1,0,0:0:0:0:
129,129,232202,1,0,0:0:0:0:
421,47,232392,1,0,0:0:0:0:
116,177,232582,1,0,0:0:0:0:
359,59,232772,6,0,L|361:187,1,126.500003860474
323,213,233056,1,0,0:0:0:0:
267,214,233151,2,0,P|234:275|181:318,1,126.500003860474
283,83,233531,2,0,P|365:72|422:89,1,126.500003860474
212,325,233911,2,0,L|184:196,1,126.500003860474
203,163,234196,1,0,0:0:0:0:
231,123,234291,2,0,P|303:90|355:96,1,126.500003860474
208,327,234670,2,0,P|123:318|77:289,1,126.500003860474
88,298,234955,1,0,0:0:0:0:
88,298,235050,5,0,0:0:0:0:
109,129,235240,1,0,0:0:0:0:
109,129,235335,1,0,0:0:0:0:
109,129,235430,1,0,0:0:0:0:
379,74,235620,1,0,0:0:0:0:
320,260,235810,1,0,0:0:0:0:
71,213,236000,1,0,0:0:0:0:
283,283,236189,2,0,P|348:311|411:297,1,126.500003860474
414,297,236474,1,0,0:0:0:0:
414,297,236569,1,0,0:0:0:0:
397,140,236759,1,0,0:0:0:0:
134,335,236949,1,0,0:0:0:0:
218,31,237139,1,0,0:0:0:0:
277,278,237329,6,0,P|256:187|237:145,1,126.500003860474
239,155,237613,1,0,0:0:0:0:
239,155,237708,1,0,0:0:0:0:
285,51,237898,1,0,0:0:0:0:
191,239,238088,2,0,P|212:312|243:362,1,126.500003860474
458,131,238468,2,0,P|380:96|312:93,1,126.500003860474
313,93,238753,1,0,0:0:0:0:
314,93,238848,1,0,0:0:0:0:
47,113,239037,1,0,0:0:0:0:
212,107,239227,2,0,P|296:158|353:163,1,126.500003860474
144,65,239607,6,0,P|64:41|8:46,1,126.500003860474
17,49,239892,1,0,0:0:0:0:
17,49,239987,1,0,0:0:0:0:
234,41,240177,1,0,0:0:0:0:
141,258,240367,2,0,P|137:159|152:116,1,126.500003860474
441,134,240746,2,0,P|452:195|444:258,1,126.500003860474
432,270,241031,1,0,0:0:0:0:
432,270,241126,1,0,0:0:0:0:
192,104,241316,1,0,0:0:0:0:
369,98,241506,1,0,0:0:0:0:
192,297,241696,1,0,0:0:0:0:
165,286,241791,1,0,0:0:0:0:
140,277,241886,6,0,P|127:200|111:137,1,126.500003860474
80,140,242170,1,0,0:0:0:0:
41,128,242265,1,0,0:0:0:0:
88,314,242455,1,0,0:0:0:0:
202,132,242645,2,0,P|184:36|173:7,1,126.500003860474
206,225,243025,2,0,P|214:287|234:347,1,126.500003860474
244,350,243310,1,0,0:0:0:0:
244,350,243405,1,0,0:0:0:0:
345,291,243594,1,0,0:0:0:0:
87,292,243784,1,0,0:0:0:0:
356,236,243974,1,0,0:0:0:0:
380,225,244069,1,0,0:0:0:0:
413,213,244164,6,0,P|421:122|431:74,1,126.500003860474
450,83,244449,1,0,0:0:0:0:
474,78,244544,1,0,0:0:0:0:
452,279,244734,1,0,0:0:0:0:
345,87,244924,1,0,0:0:0:0:
290,332,245113,1,0,0:0:0:0:
211,79,245303,2,0,L|79:51,1,126.500003860474
68,49,245588,1,0,0:0:0:0:
68,49,245683,1,0,0:0:0:0:
163,284,245873,2,0,L|85:244,1,63.2500019302369
32,94,246063,2,0,L|89:123,1,63.2500019302369
317,174,246253,2,0,L|239:134,1,63.2500019302369
300,258,246443,6,0,L|432:311,1,126.500003860474
417,305,246727,1,0,0:0:0:0:
417,305,246822,1,0,0:0:0:0:
166,171,247012,1,0,0:0:0:0:
476,48,247202,1,0,0:0:0:0:
210,302,247392,1,0,0:0:0:0:
373,57,247582,2,0,L|335:177,1,126.500003860474
329,184,247867,1,0,0:0:0:0:
329,184,247962,1,0,0:0:0:0:
150,59,248151,1,0,0:0:0:0:
150,59,248341,1,0,0:0:0:0:
259,312,248531,1,0,0:0:0:0:
251,295,248626,1,0,0:0:0:0:
243,278,248721,6,0,L|157:171,1,126.500003860474
163,179,249006,1,0,0:0:0:0:
163,179,249101,1,0,0:0:0:0:
363,231,249291,1,0,0:0:0:0:
136,264,249481,1,0,0:0:0:0:
415,161,249670,1,0,0:0:0:0:
163,179,249860,2,0,L|259:79,1,126.500003860474
274,85,250145,1,0,0:0:0:0:
314,83,250240,1,0,0:0:0:0:
204,286,250430,1,0,0:0:0:0:
356,104,250620,1,0,0:0:0:0:
437,314,250810,1,0,0:0:0:0:
178,315,251000,6,0,P|88:311|42:279,1,126.500003860474
43,265,251284,1,0,0:0:0:0:
43,265,251379,1,0,0:0:0:0:
116,120,251569,1,0,0:0:0:0:
272,168,251759,1,0,0:0:0:0:
148,276,251949,1,0,0:0:0:0:
200,120,252139,1,0,0:0:0:0:
364,100,252329,1,0,0:0:0:0:
364,100,252424,1,0,0:0:0:0:
364,100,252519,1,0,0:0:0:0:
284,244,252708,1,0,0:0:0:0:
260,80,252898,1,0,0:0:0:0:
416,132,253088,1,0,0:0:0:0:
364,288,253278,6,0,P|264:292|212:284,1,126.500003860474
238,288,253563,1,0,0:0:0:0:
238,288,253658,1,0,0:0:0:0:
304,140,253848,1,0,0:0:0:0:
248,360,254037,2,0,L|168:332|88:304,1,126.500003860474
216,136,254417,2,0,L|372:136,1,126.500003860474
342,136,254702,1,0,0:0:0:0:
342,136,254797,1,0,0:0:0:0:
100,204,254987,1,0,0:0:0:0:
352,224,255177,1,0,0:0:0:0:
324,208,255272,1,0,0:0:0:0:
296,192,255367,1,0,0:0:0:0:
268,180,255462,1,0,0:0:0:0:
244,160,255556,6,0,L|248:28,1,126.500003860474
247,33,255841,1,0,0:0:0:0:
247,33,255936,1,0,0:0:0:0:
332,144,256126,1,0,0:0:0:0:
168,188,256316,1,0,0:0:0:0:
328,264,256506,1,0,0:0:0:0:
172,324,256696,2,0,P|176:240|188:188,1,126.500003860474
184,198,256981,1,0,0:0:0:0:
184,198,257075,1,0,0:0:0:0:
392,320,257265,1,0,0:0:0:0:
244,132,257455,1,0,0:0:0:0:
392,320,257645,1,0,0:0:0:0:
152,320,257835,6,0,P|84:272|84:208,1,126.500003860474
77,233,258120,1,0,0:0:0:0:
77,233,258215,1,0,0:0:0:0:
328,204,258405,1,0,0:0:0:0:
92,116,258594,2,0,L|228:148,1,126.500003860474
468,104,258974,2,0,L|312:132,1,126.500003860474
343,126,259259,1,0,0:0:0:0:
343,126,259354,1,0,0:0:0:0:
272,272,259544,1,0,0:0:0:0:
248,20,259734,1,0,0:0:0:0:
340,256,259924,1,0,0:0:0:0:
180,60,260113,6,0,L|272:152,1,126.500003860474
269,149,260398,1,0,0:0:0:0:
269,149,260493,1,0,0:0:0:0:
352,160,260683,1,0,0:0:0:0:
208,212,260873,1,0,0:0:0:0:
332,300,261063,1,0,0:0:0:0:
352,160,261253,2,0,P|304:108|232:80,1,126.500003860474
254,84,261537,1,0,0:0:0:0:
254,84,261632,1,0,0:0:0:0:
124,216,261822,1,0,0:0:0:0:
348,248,262012,1,0,0:0:0:0:
264,36,262202,1,0,0:0:0:0:
236,264,262392,6,0,P|264:160|240:116,1,126.500003860474
259,147,262677,1,0,0:0:0:0:
259,147,262772,1,0,0:0:0:0:
32,148,262962,1,0,0:0:0:0:
248,220,263151,2,0,P|336:216|404:212,1,126.500003860474
148,176,263531,1,0,0:0:0:0:
380,144,263721,1,0,0:0:0:0:
388,96,263816,1,0,0:0:0:0:
400,48,263911,1,0,0:0:0:0:
208,112,264101,2,0,L|200:40,1,63.2500019302369
304,184,264291,2,0,L|300:76,1,63.2500019302369
208,288,264481,2,0,L|196:200,1,63.2500019302369
312,360,264670,6,0,P|316:280|304:200,1,126.500003860474
311,234,264955,1,0,0:0:0:0:
311,234,265050,1,0,0:0:0:0:
56,228,265240,1,0,0:0:0:0:
300,288,265430,2,0,L|428:276,1,126.500003860474
252,92,265810,2,0,L|108:108,1,126.500003860474
126,105,266094,1,0,0:0:0:0:
126,105,266189,1,0,0:0:0:0:
256,324,266379,1,0,0:0:0:0:
200,76,266569,2,0,P|128:40|68:48,1,126.500003860474
112,296,266949,6,0,P|204:312|268:280,1,126.500003860474
233,302,267234,1,0,0:0:0:0:
233,302,267329,1,0,0:0:0:0:
344,184,267519,1,0,0:0:0:0:
92,188,267708,1,0,0:0:0:0:
344,184,267898,1,0,0:0:0:0:
92,188,268088,2,0,L|244:160,1,126.500003860474
216,165,268373,1,0,0:0:0:0:
216,165,268468,1,0,0:0:0:0:
132,56,268658,1,0,0:0:0:0:
204,300,268848,1,0,0:0:0:0:
368,104,269038,1,0,0:0:0:0:
132,196,269227,5,0,0:0:0:0:
380,252,269417,2,0,L|376:176|376:176,1,63.2500019302369
336,172,269607,2,0,L|324:40,1,126.500003860474
92,148,269987,2,0,L|96:296,1,126.500003860474
348,236,270367,1,0,0:0:0:0:
180,48,270556,2,0,L|180:120|180:120,1,63.2500019302369
136,136,270746,2,0,P|136:248|160:292,1,126.500003860474
392,304,271126,2,0,P|424:232|432:148,1,126.500003860474
432,172,271411,1,0,0:0:0:0:
432,172,271506,5,0,0:0:0:0:
180,144,271696,1,0,0:0:0:0:
180,144,271791,1,0,0:0:0:0:
180,144,271886,1,0,0:0:0:0:
428,100,272075,1,0,0:0:0:0:
96,148,272265,1,0,0:0:0:0:
336,68,272455,1,0,0:0:0:0:
112,264,272645,1,0,0:0:0:0:
248,44,272835,1,0,0:0:0:0:
184,48,272930,1,0,0:0:0:0:
124,56,273025,1,0,0:0:0:0:
304,312,273215,1,0,0:0:0:0:
52,304,273405,1,0,0:0:0:0:
380,304,273594,1,0,0:0:0:0:
52,304,273784,1,0,0:0:0:0:
