osu file format v13

[General]
AudioFilename: 04.mp3
AudioLeadIn: 2000
PreviewTime: 147743
Countdown: 0
SampleSet: Soft
StackLeniency: 0.4
Mode: 0
LetterboxInBreaks: 1
WidescreenStoryboard: 0

[Editor]
DistanceSpacing: 1
BeatDivisor: 4
GridSize: 8
TimelineZoom: 2.6

[Metadata]
Title:Byakuya Gentou
TitleUnicode:白夜幻燈
Artist:Nekomata Master
ArtistUnicode:猫叉Master
Creator:vivicat
Version:Insane
Source:Pop'n Music 18 Sengoku Retsuden
Tags:cmn_891127 shia s_h_i_a
BeatmapID:130645
BeatmapSetID:41337

[Difficulty]
HPDrainRate:7
CircleSize:5
OverallDifficulty:7
ApproachRate:9
SliderMultiplier:1.8
SliderTickRate:2

[Events]
//Background and Video events
0,0,"14841519.jpg",0,0
//Break Periods
2,90990,104955
2,120990,122768
2,124505,126518
//Storyboard Layer 0 (Background)
//Storyboard Layer 1 (Fail)
//Storyboard Layer 2 (Pass)
//Storyboard Layer 3 (Foreground)
//Storyboard Sound Samples
//Background Colour Transformations
3,100,163,162,255

[TimingPoints]
790,468.75,4,2,2,20,1,0
8172,-100,4,1,1,40,0,0
11805,-100,4,2,1,40,0,0
23055,-100,4,2,1,50,0,0
23993,-100,4,2,1,55,0,0
25450,-100,4,2,1,5,0,0
27040,-100,4,2,0,40,0,0
27274,-100,4,2,0,50,0,0
27743,-100,4,2,0,60,0,0
28211,-100,4,1,0,45,0,0
28840,-100,4,1,0,35,0,0
41922,-100,4,1,0,45,0,0
43797,-100,4,1,1,20,0,0
44820,-100,4,1,1,50,0,0
45063,-100,4,1,0,10,0,0
45790,-100,4,1,0,30,0,0
51484,-100,4,2,0,50,0,0
51718,-100,4,1,0,30,0,0
51952,-100,4,2,0,50,0,0
52162,-100,4,1,0,30,0,0
52502,-100,4,2,0,50,0,0
52704,-100,4,1,0,30,0,0
52938,-100,4,2,0,50,0,0
53172,-100,4,1,0,30,0,0
57274,-100,4,2,0,50,0,0
57460,-100,4,1,0,30,0,0
57625,-100,4,2,0,50,0,0
57860,-100,4,1,0,30,0,0
58094,-100,4,2,0,50,0,0
58300,-100,4,1,0,30,0,0
58563,-100,4,2,0,50,0,0
58767,-100,4,1,0,40,0,0
58984,-100,4,2,0,50,0,0
59218,-100,4,1,0,40,0,0
59452,-100,4,2,0,50,0,0
59705,-100,4,1,0,45,0,0
60642,-100,4,1,1,55,0,0
63220,-100,4,2,2,50,0,0
64392,-100,4,1,1,55,0,0
66970,-100,4,2,2,50,0,0
68407,-100,4,2,2,50,0,0
75672,-100,4,1,0,35,0,0
75868,-100,4,1,0,25,0,0
76844,-100,4,1,0,5,0,0
76961,-100,4,1,0,25,0,0
77079,-100,4,1,0,5,0,0
77196,-100,4,1,0,25,0,0
77313,-100,4,1,0,5,0,0
77430,-100,4,1,0,25,0,0
78250,-100,4,1,0,5,0,0
78368,-100,4,1,0,25,0,0
78485,-100,4,1,0,5,0,0
78602,-100,4,1,0,25,0,0
78719,-100,4,1,0,5,0,0
78836,-100,4,1,0,25,0,0
78954,-100,4,1,0,5,0,0
79071,-100,4,1,0,25,0,0
79188,-100,4,1,0,5,0,0
79305,-100,4,1,0,25,0,0
80125,-100,4,1,0,5,0,0
80243,-100,4,1,0,25,0,0
80360,-100,4,1,0,5,0,0
80477,-100,4,1,0,25,0,0
80594,-100,4,1,0,5,0,0
80711,-100,4,1,0,25,0,0
80829,-100,4,1,0,5,0,0
80946,-100,4,1,0,25,0,0
81063,-100,4,1,0,5,0,0
81180,-100,4,1,0,25,0,0
82000,-100,4,1,0,5,0,0
82118,-100,4,1,0,25,0,0
82235,-100,4,1,0,5,0,0
82352,-100,4,1,0,25,0,0
82469,-100,4,1,0,5,0,0
82586,-100,4,1,0,25,0,0
82703,-100,4,1,0,5,0,0
82820,-100,4,1,0,25,0,0
82937,-100,4,1,0,5,0,0
83054,-100,4,1,0,25,0,0
85750,-100,4,1,0,5,0,0
85830,-100,4,1,0,25,0,0
85984,-100,4,1,0,5,0,0
86071,-100,4,1,0,25,0,0
86218,-100,4,1,0,5,0,0
86305,-100,4,1,0,25,0,0
86452,-100,4,1,0,5,0,0
86539,-100,4,1,0,25,0,0
86686,-100,4,1,0,5,0,0
86770,-100,4,1,0,25,0,0
87157,-100,4,1,0,5,0,0
87290,-100,4,1,0,25,0,0
87625,-100,4,1,0,5,0,0
87830,-100,4,1,0,25,0,0
88093,-100,4,1,0,5,0,0
88250,-100,4,1,0,25,0,0
88561,-100,4,1,0,5,0,0
88690,-100,4,1,0,25,0,0
89032,-100,4,1,0,5,0,0
89207,-100,4,1,0,25,0,0
89558,-100,4,1,0,5,0,0
89675,-100,4,1,0,25,0,0
90026,-100,4,1,0,5,0,0
90143,-100,4,1,0,25,0,0
90494,-100,4,1,0,5,0,0
90614,-100,4,1,0,25,0,0
105321,-100,4,2,2,30,0,0
120711,-100,4,2,0,40,0,0
123133,-100,4,2,2,20,0,0
126883,-100,4,2,2,30,0,0
128172,-100,4,1,1,50,0,0
128407,-100,4,1,1,40,0,0
128641,-100,4,1,1,45,0,0
128875,-100,4,1,1,50,0,0
129110,-100,4,1,1,55,0,0
129344,-100,4,1,1,60,0,0
129579,-100,4,1,1,70,0,0
129813,-100,4,1,1,80,0,0
130047,-100,4,1,1,40,0,0
132625,-100,4,2,2,40,0,0
133797,-100,4,1,1,40,0,0
136375,-100,4,2,2,40,0,0
137547,-100,4,1,1,40,0,0
139500,-100,4,2,1,40,0,0
140125,-100,4,2,2,40,0,0
141297,-100,4,1,1,40,0,0
143875,-100,4,2,2,40,0,0
145047,-100,4,1,1,50,0,0
148915,-100,4,1,0,40,0,0
171883,-100,4,2,2,60,0,0
172235,-100,4,1,0,40,0,0
179032,-100,4,1,0,35,0,0
191922,-100,4,1,0,45,0,0

[Colours]
Combo1 : 155,189,247
Combo2 : 255,77,77
Combo3 : 253,214,149

[HitObjects]
64,264,790,6,0,B|48:312|144:352|160:320|144:200|-40:192|224:296|208:184,1,270,4|0,0:0|0:0,0:0:0:0:
448,264,1727,2,0,B|464:312|368:352|352:320|368:200|552:192|288:296|304:184,1,270
144,160,2665,2,0,P|188:144|224:88,1,90
368,160,3133,2,0,B|312:160|288:96,1,90
256,48,3602,2,0,B|256:56|256:56|248:64|256:72|256:72|264:80|256:88|256:88|248:96|256:104|256:104|264:112|256:120|256:120|248:128|256:136|256:136|264:144|256:152|256:152|248:160|256:168|256:168|264:176|256:184|256:184|248:192|256:200|256:200|264:208|256:216|256:216|248:224|256:232|256:232|264:240|256:248|256:248|248:256|256:264|256:264|264:272|256:280|256:280|248:288|284:275|284:275,1,270
88,72,4540,6,0,B|-20:144|140:104|64:176|84:160|84:160|168:96|250:186,1,270,6|0,0:0|0:0,0:0:0:0:
432,72,5477,2,0,B|539:144|379:104|456:176|435:160|435:160|368:104|283:171,1,270,0|0,0:0|0:0,0:0:0:0:
256,280,6415,2,0,B|208:296|256:312|312:312|232:344,2,90,0|0|0,0:0|0:0|0:0,0:0:0:0:
384,248,7118,6,0,B|432:264,2,45,2|0|2,0:0|0:0|0:0,0:0:0:0:
256,232,7586,1,0,0:0:0:0:
128,248,7821,2,0,B|88:264,3,30,2|0|0|2,0:0|0:0|0:0|0:0,0:0:0:0:
256,232,8290,6,0,B|256:176,1,45,12|4,0:0|0:0,0:0:0:0:
184,132,8641,2,0,B|130:149,2,45,4|8|4,0:0|0:0|0:0,0:0:0:0:
304,44,9110,2,0,B|332:5,2,45,4|8|4,0:0|0:0|0:0,0:0:0:0:
216,44,9579,2,0,B|192:4,2,45,4|8|4,0:0|0:0|0:0,0:0:0:0:
328,132,10047,1,4,0:0:0:0:
339,132,10165,1,12,0:0:0:0:
346,140,10282,1,4,0:0:0:0:
357,141,10399,1,12,0:0:0:0:
365,149,10516,1,4,0:0:0:0:
376,150,10633,1,12,0:0:0:0:
385,159,10750,1,4,0:0:0:0:
385,159,10985,5,4,0:0:0:0:
408,232,11219,1,4,0:0:0:0:
368,248,11336,1,12,0:0:0:0:
328,232,11454,1,4,0:0:0:0:
288,248,11571,1,6,0:0:0:0:
152,168,12040,5,8,0:0:0:0:
152,168,12157,1,0,0:0:0:0:
88,104,12391,1,0,0:0:0:0:
88,104,12508,1,8,0:0:0:0:
88,104,12625,1,0,0:0:0:0:
24,167,12860,1,0,0:0:0:0:
24,167,12977,1,8,0:0:0:0:
24,167,13094,1,0,0:0:0:0:
87,230,13329,1,0,0:0:0:0:
87,230,13446,1,8,0:0:0:0:
87,230,13563,1,0,0:0:0:0:
152,168,13797,5,0,0:0:0:0:
186,157,13915,2,0,B|242:133,1,45,8|0,0:0|0:0,0:0:0:0:
256,160,14149,2,0,B|312:184,1,45,8|0,0:0|0:0,0:0:0:0:
332,168,14383,2,0,B|388:144,1,45,8|0,0:0|0:0,0:0:0:0:
344,264,14735,5,0,0:0:0:0:
312,280,14852,2,0,B|256:304,1,45,8|0,0:0|0:0,0:0:0:0:
239,279,15086,2,0,B|183:255,1,45,8|0,0:0|0:0,0:0:0:0:
164,275,15320,2,0,B|108:299,1,45,8|0,0:0|0:0,0:0:0:0:
48,240,15672,5,0,0:0:0:0:
32,208,15790,1,8,0:0:0:0:
16,176,15907,1,0,0:0:0:0:
128,256,16141,5,0,0:0:0:0:
128,288,16258,1,8,0:0:0:0:
128,320,16375,1,0,0:0:0:0:
152,176,16610,5,0,0:0:0:0:
168,144,16727,1,8,0:0:0:0:
184,112,16844,1,0,0:0:0:0:
192,264,17079,5,0,0:0:0:0:
172,289,17196,1,8,0:0:0:0:
151,312,17313,1,0,0:0:0:0:
264,208,17547,5,0,0:0:0:0:
296,192,17665,2,0,B|352:168,1,45,8|0,0:0|0:0,0:0:0:0:
368,192,17899,2,0,B|424:216,1,45,8|0,0:0|0:0,0:0:0:0:
440,184,18133,2,0,B|496:160,1,45,8|0,0:0|0:0,0:0:0:0:
440,264,18485,5,0,0:0:0:0:
408,280,18602,2,0,B|352:304,1,45,8|0,0:0|0:0,0:0:0:0:
336,280,18836,2,0,B|280:256,1,45,8|0,0:0|0:0,0:0:0:0:
260,272,19070,2,0,B|204:296,1,45,8|0,0:0|0:0,0:0:0:0:
248,176,19422,5,0,0:0:0:0:
211,136,19540,2,0,B|264:112,3,45,8|0|2|0,0:0|0:0|0:0|0:0,0:0:0:0:
284,132,20008,2,0,B|308:185,3,45,8|0|2|0,0:0|0:0|0:0|0:0,0:0:0:0:
284,204,20477,2,0,B|231:228,3,45,8|0|2|0,0:0|0:0|0:0|0:0,0:0:0:0:
211,208,20945,2,0,B|187:155,3,45,8|0|2|0,0:0|0:0|0:0|0:0,0:0:0:0:
207,125,21415,5,8,0:0:0:0:
181,100,21532,1,0,0:0:0:0:
146,102,21649,1,10,0:0:0:0:
122,75,21766,1,0,0:0:0:0:
87,77,21883,1,10,0:0:0:0:
63,50,22000,1,0,0:0:0:0:
136,168,22235,5,0,0:0:0:0:
162,193,22352,1,8,0:0:0:0:
203,195,22469,1,0,0:0:0:0:
229,221,22586,1,10,0:0:0:0:
265,218,22703,1,0,0:0:0:0:
288,246,22820,1,10,0:0:0:0:
324,243,22937,1,0,0:0:0:0:
448,152,23172,5,0,0:0:0:0:
417,132,23290,2,0,B|369:92,1,45,8|0,0:0|0:0,0:0:0:0:
288,88,23641,1,0,0:0:0:0:
258,67,23758,2,0,B|202:27,1,45,8|0,0:0|0:0,0:0:0:0:
96,160,24110,5,0,0:0:0:0:
125,180,24227,2,0,B|161:206,1,45,10|0,0:0|0:0,0:0:0:0:
240,176,24579,1,0,0:0:0:0:
272,200,24696,2,0,B|320:240,1,45,10|0,0:0|0:0,0:0:0:0:
328,264,24930,2,0,B|344:320,1,45,8|0,0:0|0:0,0:0:0:0:
384,312,25165,2,0,B|440:336,2,45,12|0|0,0:0|0:0|0:0,0:0:0:0:
256,192,25516,12,2,27040,0:0:0:0:
136,192,27508,5,2,0:0:0:0:
368,280,27977,1,2,0:0:0:0:
256,240,28329,1,0,0:0:0:0:
248,200,28446,1,0,0:0:0:0:
256,160,28563,1,0,0:0:0:0:
264,120,28680,1,0,0:0:0:0:
256,80,28797,1,0,0:0:0:0:
256,40,28915,6,0,P|216:96|144:80,1,135,4|0,0:0|0:0,0:0:0:0:
256,40,29383,2,0,P|296:96|368:80,1,135,8|0,0:0|0:0,0:0:0:0:
176,160,29852,2,0,P|104:160|112:240,1,135,0|0,0:0|0:0,0:0:0:0:
336,160,30321,2,0,P|408:160|400:240,1,135,8|0,0:0|0:0,0:0:0:0:
312,216,30790,2,0,P|248:248|192:192,1,135,0|0,0:0|0:0,0:0:0:0:
200,216,31258,1,8,0:0:0:0:
176,296,31493,5,0,0:0:0:0:
216,312,31610,1,0,0:0:0:0:
256,320,31727,1,0,0:0:0:0:
296,312,31844,1,0,0:0:0:0:
336,296,31961,1,8,0:0:0:0:
301,104,32196,2,0,B|272:104|256:88|256:88|240:104|209:106,1,90,8|0,0:0|0:0,0:0:0:0:
256,200,32665,6,0,P|208:264|136:264,1,135,0|0,0:0|0:0,0:0:0:0:
256,200,33133,2,0,P|304:264|376:264,1,135,8|0,0:0|0:0,0:0:0:0:
73,341,33602,2,0,P|81:293|177:285,1,135,0|0,0:0|0:0,0:0:0:0:
439,341,34071,2,0,P|431:293|335:285,1,135,8|0,0:0|0:0,0:0:0:0:
256,360,34540,2,0,B|280:320|256:288|232:256|264:224,1,135
258,231,35008,1,8,0:0:0:0:
176,200,35243,5,0,0:0:0:0:
152,160,35360,1,0,0:0:0:0:
112,136,35477,1,0,0:0:0:0:
64,136,35594,1,0,0:0:0:0:
24,160,35711,1,8,0:0:0:0:
80,280,35946,2,0,B|96:320|144:280|90:236|160:304,1,90,8|0,0:0|0:0,0:0:0:0:
112,136,36415,6,0,P|72:88|120:48,1,135,4|0,0:0|0:0,0:0:0:0:
208,72,36883,2,0,P|248:120|200:160,1,135,8|0,0:0|0:0,0:0:0:0:
400,136,37352,2,0,P|440:88|392:48,1,135,0|0,0:0|0:0,0:0:0:0:
304,72,37820,2,0,P|264:120|312:160,1,135,8|0,0:0|0:0,0:0:0:0:
256,344,38290,2,0,B|272:320|256:288|237:258|261:210,1,135,0|0,0:0|0:0,0:0:0:0:
260,213,38758,1,8,0:0:0:0:
328,120,38993,5,0,0:0:0:0:
296,88,39110,1,0,0:0:0:0:
256,72,39227,1,0,0:0:0:0:
216,88,39344,1,0,0:0:0:0:
184,120,39461,1,8,0:0:0:0:
296,304,39696,2,0,B|256:336|200:296,1,90,8|0,0:0|0:0,0:0:0:0:
344,264,40165,6,0,B|300:196|344:128,1,135
432,152,40633,2,0,B|344:200,1,90,8|0,0:0|0:0,0:0:0:0:
168,264,41102,2,0,B|211:196|168:128,1,135
80,152,41571,2,0,B|168:200,1,90,8|0,0:0|0:0,0:0:0:0:
408,212,42040,5,0,0:0:0:0:
377,324,42274,1,0,0:0:0:0:
264,293,42508,1,0,0:0:0:0:
295,179,42743,1,0,0:0:0:0:
352,192,42860,1,0,0:0:0:0:
408,212,42977,1,0,0:0:0:0:
272,232,43211,1,0,0:0:0:0:
136,213,43446,5,0,0:0:0:0:
104,240,43524,1,0,0:0:0:0:
64,216,43602,1,0,0:0:0:0:
32,248,43680,1,0,0:0:0:0:
56,112,43915,2,8,B|52:80,15,22.5
56,112,44852,1,2,0:0:0:0:
120,232,45204,5,0,0:0:0:0:
156,209,45321,1,8,0:0:0:0:
198,218,45438,1,8,0:0:0:0:
235,195,45555,1,0,0:0:0:0:
280,208,45672,1,8,0:0:0:0:
314,181,45790,2,0,B|352:160|408:164,1,90,4|0,0:0|0:0,0:0:0:0:
432,80,46258,5,8,0:0:0:0:
389,71,46375,1,0,0:0:0:0:
353,93,46493,1,0,0:0:0:0:
311,85,46610,1,0,0:0:0:0:
274,107,46727,2,0,B|232:128|171:125,1,90
137,115,47079,1,0,0:0:0:0:
96,96,47196,2,0,B|51:86|9:111,1,90,8|0,0:0|0:0,0:0:0:0:
72,176,47665,6,0,B|192:176|184:320,1,180,0|8,0:0|0:0,0:0:0:0:
96,264,48368,1,0,0:0:0:0:
138,248,48485,1,0,0:0:0:0:
176,225,48602,2,0,P|224:208|224:144,1,90
120,88,49071,2,0,P|72:105|72:169,1,90,8|0,0:0|0:0,0:0:0:0:
223,151,49540,6,0,B|264:168|320:160,1,90
360,240,50008,1,8,0:0:0:0:
317,245,50125,1,0,0:0:0:0:
282,221,50243,1,0,0:0:0:0:
239,227,50360,1,0,0:0:0:0:
204,203,50477,2,0,B|160:176|104:200,1,90
80,224,50829,1,0,0:0:0:0:
80,272,50946,2,0,B|64:320|8:328,1,90,8|0,0:0|0:0,0:0:0:0:
0,238,51415,6,0,B|18:346,1,90,0|2,0:0|0:0,0:0:0:0:
80,224,51883,2,0,B|63:124,1,90,8|2,0:0|0:0,0:0:0:0:
56,88,52235,1,0,0:0:0:0:
72,48,52352,1,0,0:0:0:0:
112,32,52469,1,0,0:0:0:0:
156,40,52586,1,2,0:0:0:0:
176,128,52821,1,8,0:0:0:0:
336,128,53055,1,2,0:0:0:0:
256,80,53290,6,0,B|256:160|256:160|248:168|248:168|264:176|264:176|256:184|256:184|256:272,1,180,4|8,0:0|0:0,0:0:0:0:
360,296,53993,1,0,0:0:0:0:
408,288,54110,1,0,0:0:0:0:
440,256,54227,1,0,0:0:0:0:
336,224,54461,1,0,0:0:0:0:
304,224,54540,1,0,0:0:0:0:
272,216,54618,1,0,0:0:0:0:
248,208,54696,2,0,B|206:182|192:128,1,90,8|0,0:0|0:0,0:0:0:0:
285,137,55165,6,0,P|200:176|192:280,1,180,0|8,0:0|0:0,0:0:0:0:
248,208,55868,1,0,0:0:0:0:
288,224,55985,1,0,0:0:0:0:
336,224,56102,2,0,P|384:240|424:208,1,90
160,144,56571,2,0,B|131:146|115:135|115:135|96:148|72:144,1,90,8|0,0:0|0:0,0:0:0:0:
103,239,57040,6,0,B|176:272|191:359,1,135,0|2,0:0|0:0,0:0:0:0:
224,368,57508,2,0,B|320:328,1,90,8|2,0:0|0:0,0:0:0:0:
352,248,57977,1,0,0:0:0:0:
288,184,58211,1,2,0:0:0:0:
312,160,58290,1,0,0:0:0:0:
344,152,58368,1,0,0:0:0:0:
376,160,58446,2,0,B|432:160|464:208,1,90,8|2,0:0|0:0,0:0:0:0:
352,248,58915,5,0,0:0:0:0:
256,248,59149,1,8,0:0:0:0:
144,160,59383,5,0,0:0:0:0:
256,160,59618,1,8,0:0:0:0:
400,72,59852,5,0,0:0:0:0:
400,72,59969,1,0,0:0:0:0:
400,72,60086,1,0,0:0:0:0:
120,72,60321,5,0,0:0:0:0:
120,72,60438,1,0,0:0:0:0:
120,72,60555,1,0,0:0:0:0:
256,160,60790,5,4,0:0:0:0:
256,160,60907,2,0,B|230:210|270:250,1,90,4|4,0:0|0:0,0:0:0:0:
264,243,61258,1,8,0:0:0:0:
96,232,61727,1,4,0:0:0:0:
96,232,61844,2,0,B|122:282|82:322,1,90,4|4,0:0|0:0,0:0:0:0:
88,316,62196,1,8,0:0:0:0:
264,288,62665,1,4,0:0:0:0:
264,288,62782,2,0,B|238:338|278:378,1,90,4|4,0:0|0:0,0:0:0:0:
272,371,63133,1,8,0:0:0:0:
416,336,63368,5,0,0:0:0:0:
432,304,63485,1,0,0:0:0:0:
432,256,63602,2,0,B|400:208|440:152,1,90,10|0,0:0|0:0,0:0:0:0:
496,112,64071,2,0,B|528:160|488:216,1,90,10|0,0:0|0:0,0:0:0:0:
480,304,64540,5,4,0:0:0:0:
480,304,64657,2,0,B|520:272|496:216,1,90,4|4,0:0|0:0,0:0:0:0:
498,223,65008,1,8,0:0:0:0:
216,240,65477,1,4,0:0:0:0:
216,240,65594,2,0,B|176:208|200:152,1,90,4|4,0:0|0:0,0:0:0:0:
197,159,65946,1,8,0:0:0:0:
392,144,66415,1,4,0:0:0:0:
392,144,66532,2,0,B|432:112|408:56,1,90
410,63,66883,1,8,0:0:0:0:
208,96,67118,5,0,0:0:0:0:
184,128,67235,1,0,0:0:0:0:
197,160,67352,2,0,B|229:208|189:264,1,90,10|0,0:0|0:0,0:0:0:0:
120,328,67821,2,0,B|88:280|128:224,1,90,10|0,0:0|0:0,0:0:0:0:
250,94,68290,6,0,B|274:174|370:166,1,135,14|0,0:0|0:0,0:0:0:0:
351,166,68758,1,0,0:0:0:0:
458,107,68993,1,0,0:0:0:0:
458,107,69071,1,0,0:0:0:0:
458,107,69149,1,0,0:0:0:0:
458,107,69227,2,0,B|376:126|335:39,1,135,10|0,0:0|0:0,0:0:0:0:
344,56,69696,1,0,0:0:0:0:
253,107,69930,5,0,0:0:0:0:
253,107,70008,1,0,0:0:0:0:
253,107,70086,1,0,0:0:0:0:
253,107,70165,2,0,B|304:120|299:176,1,90,10|0,0:0|0:0,0:0:0:0:
299,173,70477,1,0,0:0:0:0:
299,173,70555,1,0,0:0:0:0:
299,175,70633,2,0,B|294:222|345:243,1,90,10|0,0:0|0:0,0:0:0:0:
345,243,70946,1,0,0:0:0:0:
345,243,71024,1,0,0:0:0:0:
345,243,71102,2,0,B|396:264|391:312,2,90,10|0|10,0:0|0:0|0:0,0:0:0:0:
264,304,71805,2,0,B|208:304,1,45
264,304,72040,6,0,B|240:224|144:232,1,135,10|0,0:0|0:0,0:0:0:0:
163,232,72508,1,0,0:0:0:0:
56,291,72743,1,0,0:0:0:0:
56,291,72821,1,0,0:0:0:0:
56,291,72899,1,0,0:0:0:0:
56,291,72977,2,0,B|138:272|179:359,1,135,10|0,0:0|0:0,0:0:0:0:
170,342,73446,1,0,0:0:0:0:
261,291,73680,5,0,0:0:0:0:
261,291,73758,1,0,0:0:0:0:
261,291,73836,1,0,0:0:0:0:
261,291,73915,2,0,B|210:270|215:222,1,90,10|0,0:0|0:0,0:0:0:0:
214,222,74227,1,0,0:0:0:0:
214,222,74305,1,0,0:0:0:0:
215,223,74383,2,0,B|220:176|169:155,1,90,10|0,0:0|0:0,0:0:0:0:
168,154,74696,1,0,0:0:0:0:
168,154,74774,1,0,0:0:0:0:
169,155,74852,2,0,B|118:134|123:86,2,90,10|0|10,0:0|0:0|0:0,0:0:0:0:
280,112,75555,2,0,B|336:112,1,45
280,112,75790,6,0,B|296:224|208:280,1,180,4|8,0:0|0:0,0:0:0:0:
136,200,76493,1,0,0:0:0:0:
280,112,76727,2,0,B|248:136|200:112,1,67.5
216,119,76961,2,0,B|183:101|151:125,1,67.5
153,124,77196,2,0,B|121:148|73:124,1,67.5,8|0,0:0|0:0,0:0:0:0:
89,131,77430,1,0,0:0:0:0:
32,232,77665,5,0,0:0:0:0:
45,274,77782,1,0,0:0:0:0:
58,316,77899,1,0,0:0:0:0:
160,240,78133,2,0,B|190:217|223:235,1,67.5,8|0,0:0|0:0,0:0:0:0:
223,235,78368,2,0,B|255:252|286:230,1,67.5
286,230,78602,2,0,B|316:207|349:225,1,67.5
349,225,78836,2,0,B|381:242|412:220,1,67.5
412,220,79071,2,0,B|442:197|475:215,1,67.5,8|0,0:0|0:0,0:0:0:0:
475,215,79305,1,0,0:0:0:0:
475,215,79540,6,0,B|475:103,1,90
416,56,80008,2,0,B|379:63|370:100,1,67.5,8|0,0:0|0:0,0:0:0:0:
370,100,80243,2,0,B|361:136|324:144,1,67.5,0|0,0:0|0:0,0:0:0:0:
324,144,80477,2,0,B|287:151|278:188,1,67.5,0|0,0:0|0:0,0:0:0:0:
278,188,80711,2,0,B|269:224|232:232,1,67.5,0|0,0:0|0:0,0:0:0:0:
232,232,80946,2,0,B|195:239|186:276,1,67.5,8|0,0:0|0:0,0:0:0:0:
186,276,81180,1,0,0:0:0:0:
256,352,81415,5,0,0:0:0:0:
256,352,81532,1,0,0:0:0:0:
256,352,81649,1,0,0:0:0:0:
344,304,81883,2,0,B|337:267|300:258,1,67.5,8|0,0:0|0:0,0:0:0:0:
300,258,82118,2,0,B|264:249|256:212,1,67.5,0|0,0:0|0:0,0:0:0:0:
256,212,82352,2,0,B|249:175|212:166,1,67.5,0|0,0:0|0:0,0:0:0:0:
212,166,82586,2,0,B|176:157|168:120,1,67.5,0|0,0:0|0:0,0:0:0:0:
168,120,82821,2,0,B|161:83|124:74,1,67.5,8|0,0:0|0:0,0:0:0:0:
124,74,83055,2,0,B|88:65|80:28,1,67.5,0|0,0:0|0:0,0:0:0:0:
124,74,83290,6,0,B|146:133|86:151|86:151|111:196|44:229,1,180,4|8,0:0|0:0,0:0:0:0:
51,342,83993,2,0,B|0:342,2,30
51,342,84227,2,0,B|98:319|74:274|74:274|134:256|112:199,1,180,0|8,0:0|0:0,0:0:0:0:
136,136,84930,1,0,0:0:0:0:
184,192,85165,5,0,0:0:0:0:
328,192,85399,1,0,0:0:0:0:
344,304,85633,2,0,B|337:267|300:258,1,67.5,8|0,0:0|0:0,0:0:0:0:
344,304,85868,2,0,B|377:285|374:247,1,67.5,0|0,0:0|0:0,0:0:0:0:
344,304,86102,2,0,B|371:329|406:315,1,67.5,0|0,0:0|0:0,0:0:0:0:
344,304,86336,2,0,B|327:338|352:367,1,67.5,0|0,0:0|0:0,0:0:0:0:
344,304,86571,2,0,B|306:299|286:331,1,67.5,8|0,0:0|0:0,0:0:0:0:
344,304,86805,1,0,0:0:0:0:
424,280,87040,6,0,B|368:240,1,60,0|0,0:0|0:0,0:0:0:0:
456,200,87430,1,0,0:0:0:0:
456,200,87508,2,0,B|408:160,1,60,8|0,0:0|0:0,0:0:0:0:
304,169,87899,1,0,0:0:0:0:
304,169,87977,2,0,B|344:104,1,60,0|0,0:0|0:0,0:0:0:0:
280,80,88368,1,0,0:0:0:0:
280,80,88446,2,0,B|312:16,1,60,8|0,0:0|0:0,0:0:0:0:
184,58,88836,5,0,0:0:0:0:
184,58,88915,2,0,B|104:88,1,60
144,144,89305,1,0,0:0:0:0:
144,144,89383,2,0,B|64:176,1,60,8|0,0:0|0:0,0:0:0:0:
152,232,89774,1,0,0:0:0:0:
152,232,89853,2,0,B|208:280,1,60,0|0,0:0|0:0,0:0:0:0:
192,352,90243,1,0,0:0:0:0:
192,352,90322,2,0,B|128:304,1,60,8|0,0:0|0:0,0:0:0:0:
336,304,90711,5,0,0:0:0:0:
336,304,90790,1,4,0:0:0:0:
64,192,105555,6,0,L|40:136,1,60
64,192,105790,6,0,B|80:112|168:136|168:136|216:80,1,180,4|2,0:0|0:0,0:0:0:0:
256,56,106493,2,0,L|256:16,2,30,0|0|0,0:0|0:0|0:0,0:0:0:0:
315,102,106727,2,0,B|344:136|344:136|432:112|448:192,1,180,0|2,0:0|0:0,0:0:0:0:
376,200,107430,6,0,B|376:230,3,30,0|0|0|2,0:0|0:0|0:0|0:0,0:0:0:0:
336,128,107899,2,0,B|310:113,3,30,0|0|0|2,0:0|0:0|0:0|0:0,0:0:0:0:
416,136,108368,2,0,B|441:121,2,30,0|0|0,0:0|0:0|0:0,0:0:0:0:
376,200,108602,2,0,B|392:256|352:280|352:280|368:328|328:360,1,180,2|2,0:0|0:0,0:0:0:0:
264,344,109305,1,0,0:0:0:0:
224,288,109540,6,0,B|184:232|104:216|40:288,1,180,0|6,0:0|0:0,0:0:0:0:
32,328,110243,2,0,B|0:344,2,30
32,328,110477,2,0,B|97:307|137:236|88:153,1,180,0|2,0:0|0:0,0:0:0:0:
56,128,111180,6,0,B|32:112,3,30,0|0|0|2,0:0|0:0|0:0|0:0,0:0:0:0:
136,120,111649,2,0,B|160:104,3,30,0|0|0|2,0:0|0:0|0:0|0:0,0:0:0:0:
104,184,112118,2,0,B|112:216,2,30,0|0|0,0:0|0:0|0:0,0:0:0:0:
104,184,112352,2,0,B|160:208|160:264|160:264|211:255|240:304,1,180,2|2,0:0|0:0,0:0:0:0:
240,360,113055,1,0,0:0:0:0:
168,336,113290,6,0,B|216:360|264:336|280:288|280:288|352:288,1,180,0|6,0:0|0:0,0:0:0:0:
384,328,113993,2,0,B|384:360,2,30
384,328,114227,2,0,B|408:280|376:240|376:240|392:184|336:144,1,180,0|2,0:0|0:0,0:0:0:0:
436,153,114930,6,0,B|460:169,3,30,0|0|0|2,0:0|0:0|0:0|0:0,0:0:0:0:
356,161,115399,2,0,B|332:177,3,30,0|0|0|2,0:0|0:0|0:0|0:0,0:0:0:0:
388,97,115868,2,0,B|380:65,3,30,0|0|0|2,0:0|0:0|0:0|0:0,0:0:0:0:
240,112,116571,1,2,0:0:0:0:
184,64,116805,1,0,0:0:0:0:
112,80,117040,6,0,B|68:111|66:164|101:201|101:201|67:264,1,180,0|6,0:0|0:0,0:0:0:0:
72,304,117743,2,0,B|40:320,2,30
72,304,117977,2,0,B|120:328|168:304|184:256|184:256|256:256,1,180,0|2,0:0|0:0,0:0:0:0:
304,264,118680,6,0,B|328:248,3,30,0|0|0|2,0:0|0:0|0:0|0:0,0:0:0:0:
224,256,119149,2,0,B|200:240,3,30,0|0|0|2,0:0|0:0|0:0|0:0,0:0:0:0:
256,320,119618,2,0,B|248:352,2,30,0|0|0,0:0|0:0|0:0,0:0:0:0:
304,264,119852,2,0,B|352:240|352:184|352:184|410:192|440:144,1,180,2|2,0:0|0:0,0:0:0:0:
480,112,120555,5,0,0:0:0:0:
428,60,120790,1,4,0:0:0:0:
384,136,123368,6,0,B|432:120,2,45,2|0|2,0:0|0:0|0:0,0:0:0:0:
256,152,123836,1,0,0:0:0:0:
128,136,124071,2,0,B|96:128,3,30,2|0|0|2,0:0|0:0|0:0|0:0,0:0:0:0:
400,272,127118,5,0,0:0:0:0:
400,272,127235,1,0,0:0:0:0:
400,272,127352,1,2,0:0:0:0:
256,232,127586,5,0,0:0:0:0:
104,152,127821,1,2,0:0:0:0:
104,152,127899,1,0,0:0:0:0:
104,152,127977,1,0,0:0:0:0:
104,152,128055,1,0,0:0:0:0:
128,248,128290,5,2,0:0:0:0:
140,235,128524,1,4,0:0:0:0:
159,254,128758,1,4,0:0:0:0:
184,228,128993,1,4,0:0:0:0:
215,259,129227,1,4,0:0:0:0:
253,220,129461,1,4,0:0:0:0:
297,264,129696,1,4,0:0:0:0:
347,213,129930,1,4,0:0:0:0:
410,276,130165,5,12,0:0:0:0:
410,276,130282,2,0,P|424:232|480:208,1,90,8|8,0:0|0:0,0:0:0:0:
459,174,130633,2,0,P|422:150|410:108,1,90,8|8,0:0|0:0,0:0:0:0:
328,136,131102,1,8,0:0:0:0:
328,136,131219,2,0,B|280:136|248:72,1,90,8|8,0:0|0:0,0:0:0:0:
256,87,131571,2,0,B|232:135|184:135,1,90,8|8,0:0|0:0,0:3:0:0:
256,248,132040,2,0,B|256:336,2,90,8|8|8,0:0|0:0|0:0,0:0:0:0:
296,120,132743,5,0,0:0:0:0:
344,120,132860,1,0,0:0:0:0:
392,120,132977,2,0,B|440:136|456:200,1,90,10|0,0:0|0:0,0:0:0:0:
328,232,133446,2,0,B|280:216|264:152,1,90,10|0,0:0|0:0,0:0:0:0:
128,112,133915,5,8,0:0:0:0:
128,112,134032,2,0,B|114:164|42:180,1,90,8|8,0:0|0:0,0:0:0:0:
66,172,134383,2,0,B|113:180|127:232,1,90,8|8,0:0|0:0,0:0:0:0:
210,252,134852,1,8,0:0:0:0:
210,252,134969,2,0,B|258:252|290:316,1,90,8|8,0:0|0:0,0:0:0:0:
281,300,135321,2,0,B|304:251|352:251,1,90,8|8,0:0|0:0,0:0:0:0:
256,160,135790,2,0,B|256:72,2,90,8|8|8,0:0|0:0|0:0,0:0:0:0:
208,280,136493,5,0,0:0:0:0:
168,256,136610,1,0,0:0:0:0:
120,256,136727,2,0,B|112:208|72:176,1,90,10|0,0:0|0:0,0:0:0:0:
200,93,137196,2,0,B|216:141|264:165,1,90,10|0,0:0|0:0,0:0:0:0:
312,328,137665,6,0,B|336:248|432:256,1,135,12|4,0:0|0:0,0:0:0:0:
448,224,138133,1,8,0:0:0:0:
448,176,138250,1,8,0:0:0:0:
424,136,138368,1,8,0:0:0:0:
380,126,138485,1,8,0:0:0:0:
344,152,138602,6,4,B|262:171|221:84,1,135,12|8,0:0|0:0,0:0:0:0:
192,80,139071,1,8,0:0:0:0:
153,102,139188,1,8,0:0:0:0:
153,146,139305,1,8,0:0:0:0:
192,168,139422,1,8,0:0:0:0:
230,144,139540,6,0,B|278:160|294:208,2,90,8|8|8,0:0|0:0|0:0,0:0:0:0:
296,80,140243,1,0,0:0:0:0:
328,112,140360,1,0,0:0:0:0:
367,120,140477,2,0,P|416:136|431:200,1,90,8|0,0:0|0:0,0:0:0:0:
304,256,140946,2,0,P|255:240|240:176,1,90,8|0,0:0|0:0,0:0:0:0:
200,56,141415,6,0,B|176:136|80:128,1,135,8|8,0:0|0:0,0:0:0:0:
64,144,141883,2,0,B|152:168|184:232,1,135,8|0,0:0|0:0,0:0:0:0:
208,232,142352,5,8,0:0:0:0:
248,224,142469,1,8,0:0:0:0:
288,248,142586,1,8,0:0:0:0:
328,232,142704,1,8,0:0:0:0:
360,256,142820,2,0,P|408:272|450:239,1,90,8|0,0:0|0:0,0:0:0:0:
256,160,143290,6,0,B|256:72,2,90,8|8|8,0:0|0:0|0:0,0:0:0:0:
208,280,143993,1,0,0:0:0:0:
216,232,144110,1,0,0:0:0:0:
216,184,144227,2,0,B|208:136|168:104,1,90,10|0,0:0|0:0,0:0:0:0:
32,168,144696,2,0,B|40:216|80:248,1,90,10|0,0:0|0:0,0:0:0:0:
80,96,145165,5,4,0:0:0:0:
104,160,145868,5,8,0:0:0:0:
193,160,146102,1,4,0:0:0:0:
128,224,146805,5,8,0:0:0:0:
236,224,147040,1,4,0:0:0:0:
336,224,147508,5,4,0:0:0:0:
384,80,147977,6,0,B|328:64,1,45,8|4,0:0|0:0,0:0:0:0:
304,80,148211,2,0,B|248:104,1,45,8|4,0:0|0:0,0:0:0:0:
224,88,148446,2,0,B|168:56,1,45,8|4,0:0|0:0,0:0:0:0:
152,72,148680,2,0,B|100:91,1,45,8|4,0:0|0:0,0:0:0:0:
72,88,148915,6,0,B|72:160|72:160|72:200|128:208,1,135,4|0,0:0|0:0,0:0:0:0:
144,208,149383,1,8,0:0:0:0:
270,196,149618,1,0,0:0:0:0:
248,320,149852,1,0,0:0:0:0:
288,328,149969,1,0,0:0:0:0:
328,336,150086,1,0,0:0:0:0:
392,264,150321,2,0,B|448:264|480:216,1,90,8|0,0:0|0:0,0:0:0:0:
392,184,150790,6,0,B|360:88|256:112,1,135
251,121,151258,1,8,0:0:0:0:
296,200,151493,1,0,0:0:0:0:
256,224,151610,1,0,0:0:0:0:
240,264,151727,1,0,0:0:0:0:
200,280,151844,1,0,0:0:0:0:
176,320,151961,1,0,0:0:0:0:
336,320,152196,1,8,0:0:0:0:
352,184,152430,1,0,0:0:0:0:
200,160,152665,6,0,B|142:115|56:144,1,135
32,160,153133,1,8,0:0:0:0:
96,216,153368,2,0,P|128:224|120:256,1,60
120,296,153602,2,0,B|192:320|254:280,1,135
280,320,154071,2,0,B|352:296|414:335,1,135,8|0,0:0|0:0,0:0:0:0:
448,312,154540,5,0,0:0:0:0:
481,228,154774,2,0,B|431:216|406:176,1,90,0|8,0:0|0:0,0:0:0:0:
328,224,155243,1,0,0:0:0:0:
296,192,155360,1,0,0:0:0:0:
256,176,155477,1,0,0:0:0:0:
216,192,155594,1,0,0:0:0:0:
184,224,155711,1,0,0:0:0:0:
256,328,155946,1,8,0:0:0:0:
256,176,156180,5,0,0:0:0:0:
256,128,156297,1,0,0:0:0:0:
256,80,156415,2,0,B|216:32|152:88|192:128,1,135,4|0,0:0|0:0,0:0:0:0:
256,80,156883,2,0,B|296:32|360:88|320:128,1,135,8|0,0:0|0:0,0:0:0:0:
368,128,157352,2,0,B|408:232,1,90
144,128,157821,2,0,B|104:232,1,90,8|0,0:0|0:0,0:0:0:0:
312,296,158290,6,0,B|276:262|208:264,2,90,0|0|8,0:0|0:0|0:0,0:0:0:0:
352,216,158993,1,0,0:0:0:0:
360,176,159110,1,0,0:0:0:0:
352,128,159227,2,0,B|400:144|441:134,1,90
248,160,159696,2,0,B|200:144|158:153,1,90,8|0,0:0|0:0,0:0:0:0:
192,344,160165,6,0,B|272:360|344:312,1,135
240,288,160633,2,0,B|160:275|109:205,1,135,8|0,0:0|0:0,0:0:0:0:
350,255,161102,2,0,B|421:215|445:132,1,135
152,176,161571,2,0,B|99:114|104:28,1,135,8|0,0:0|0:0,0:0:0:0:
400,56,162040,5,8,0:0:0:0:
216,160,162274,1,0,0:0:0:0:
344,216,162508,1,8,0:0:0:0:
296,304,162743,1,0,0:0:0:0:
195,280,162977,5,8,0:0:0:0:
180,277,163094,1,0,0:0:0:0:
167,273,163211,1,8,0:0:0:0:
153,271,163329,1,0,0:0:0:0:
140,267,163446,1,8,0:0:0:0:
126,264,163563,1,0,0:0:0:0:
113,261,163680,1,8,0:0:0:0:
99,257,163797,1,0,0:0:0:0:
87,254,163915,6,0,B|108:347,1,90,4|0,0:0|0:0,0:0:0:0:
87,130,164383,2,0,B|108:36,1,90,8|0,0:0|0:0,0:0:0:0:
168,144,164852,2,0,P|192:96|256:136,1,135
254,255,165321,2,0,B|168:232,1,90,8|0,0:0|0:0,0:3:0:0:
359,128,165790,6,0,B|399:152|399:224|351:256,1,135
320,248,166258,2,0,B|232:248,1,90,8|0,0:0|0:0,0:0:0:0:
192,272,166610,1,0,0:0:0:0:
160,248,166727,2,0,B|120:224|64:248,1,90
16,336,167196,2,0,B|56:360|112:336,1,90,8|0,0:0|0:0,0:0:0:0:
128,192,167665,6,0,B|168:168|200:192|232:216|272:184,1,135
258,193,168133,1,8,0:0:0:0:
312,264,168368,1,0,0:0:0:0:
352,288,168485,1,0,0:0:0:0:
394,301,168602,1,0,0:0:0:0:
437,290,168719,1,0,0:0:0:0:
475,266,168836,1,0,0:0:0:0:
392,224,169071,2,0,B|368:168|432:128,1,90,8|0,0:0|0:0,0:0:0:0:
392,224,169540,6,0,B|296:192,1,90
120,224,170008,2,0,B|216:192,1,90,8|0,0:0|0:0,0:0:0:0:
256,120,170477,1,0,0:0:0:0:
256,120,170829,6,0,B|256:72,1,45,0|8,0:0|0:0,0:0:0:0:
256,168,171180,1,0,0:0:0:0:
256,256,171415,1,4,0:0:0:0:
256,120,172118,5,10,0:0:0:0:
216,232,172352,1,0,0:0:0:0:
256,232,172469,1,0,0:0:0:0:
288,232,172586,1,0,0:0:0:0:
192,344,172821,1,0,0:0:0:0:
256,344,172938,1,0,0:0:0:0:
320,344,173055,1,0,0:0:0:0:
256,344,173290,6,0,P|280:296|216:240,1,135
240,192,173758,2,0,B|235:137|280:88,1,90,8|0,0:0|0:0,0:0:0:0:
312,96,174110,1,0,0:0:0:0:
352,120,174227,2,0,B|368:168|440:184,1,90,0|0,0:0|0:0,0:0:0:0:
160,120,174696,2,0,B|144:168|72:184,1,90,8|0,0:0|0:0,0:0:0:0:
144,256,175165,5,0,0:0:0:0:
175,287,175282,2,0,B|223:306|239:359,1,90
267,381,175633,1,8,0:0:0:0:
298,349,175750,2,0,B|310:306|358:286,1,90
390,254,176102,1,0,0:0:0:0:
357,221,176219,2,0,B|308:201|292:148,1,90
265,127,176571,1,8,0:0:0:0:
234,159,176688,2,0,B|221:201|173:221,1,90
141,253,177040,5,8,0:0:0:0:
265,127,177274,1,0,0:0:0:0:
390,254,177508,1,8,0:0:0:0:
267,381,177743,1,0,0:0:0:0:
141,253,177977,1,8,0:0:0:0:
137,239,178094,1,0,0:0:0:0:
133,225,178211,1,8,0:0:0:0:
130,212,178329,1,0,0:0:0:0:
126,198,178446,1,8,0:0:0:0:
122,185,178563,1,0,0:0:0:0:
119,171,178680,1,8,0:0:0:0:
115,158,178797,1,0,0:0:0:0:
112,144,178915,6,0,P|176:152|225:104,1,135,4|0,0:0|0:0,0:0:0:0:
160,40,179383,2,0,P|96:56|47:0,1,135,8|0,0:0|0:0,0:0:0:0:
352,40,179852,2,0,P|416:56|465:0,1,135,0|0,0:0|0:0,0:0:0:0:
400,144,180321,2,0,P|336:152|287:104,1,135,8|0,0:0|0:0,0:0:0:0:
256,192,180790,2,0,B|224:232|256:264|288:296|240:344,1,135,0|0,0:0|0:0,0:0:0:0:
258,320,181258,1,8,0:0:0:0:
320,184,181493,5,0,0:0:0:0:
296,144,181610,1,0,0:0:0:0:
256,128,181727,1,0,0:0:0:0:
216,144,181844,1,0,0:0:0:0:
192,184,181961,1,8,0:0:0:0:
217,57,182196,2,0,B|248:24|264:88|304:56,1,90,8|0,0:0|0:0,0:0:0:0:
191,257,182665,6,0,P|176:320|111:313,1,135
191,257,183133,2,0,P|184:192|258:197,1,135,8|0,0:0|0:0,0:0:0:0:
321,257,183602,2,0,P|336:320|401:313,1,135
321,257,184070,2,0,P|328:192|254:197,1,135,8|0,0:0|0:0,0:0:0:0:
200,128,184540,2,0,B|224:80|296:80|312:144,1,135
306,129,185008,1,8,0:0:0:0:
376,184,185243,5,0,0:0:0:0:
368,232,185360,1,0,0:0:0:0:
344,272,185477,2,0,B|304:296|248:280,1,90,0|8,0:0|0:0,0:0:0:0:
168,112,185946,2,0,B|192:72|209:106|224:144|240:96,1,90,8|0,0:0|0:0,0:0:0:0:
256,280,186415,6,0,P|279:341|344:336,1,135,4|0,0:0|0:0,0:0:0:0:
256,280,186883,2,0,P|233:341|168:336,1,135,8|0,0:0|0:0,0:0:0:0:
416,272,187352,2,0,P|393:211|328:216,1,135,0|0,0:0|0:0,0:0:0:0:
96,272,187821,2,0,P|119:211|184:216,1,135,8|0,0:0|0:0,0:0:0:0:
257,283,188290,2,0,B|281:251|257:219|232:192|265:147,1,135,0|0,0:0|0:0,0:0:0:0:
259,108,188758,1,8,0:0:0:0:
168,120,188993,5,0,0:0:0:0:
136,152,189110,1,0,0:0:0:0:
120,192,189227,1,0,0:0:0:0:
136,232,189344,1,0,0:0:0:0:
168,264,189461,1,8,0:0:0:0:
291,236,189696,2,0,B|312:192|286:146,1,90,8|0,0:0|0:0,0:0:0:0:
336,280,190165,6,0,B|256:264|232:176,1,135
112,96,190633,2,0,B|16:144,1,90,8|0,0:0|0:0,0:0:0:0:
176,280,191102,2,0,B|256:264|280:176,1,135
400,96,191571,2,0,B|496:144,1,90,8|0,0:0|0:0,0:0:0:0:
456,240,192040,5,0,0:0:0:0:
352,280,192274,1,0,0:0:0:0:
256,240,192508,1,8,0:0:0:0:
152,272,192743,5,0,0:0:0:0:
92,251,192860,1,0,0:0:0:0:
32,232,192977,1,0,0:0:0:0:
72,112,193211,1,0,0:0:0:0:
192,152,193446,1,8,0:0:0:0:
192,152,193524,1,0,0:0:0:0:
192,152,193602,1,0,0:0:0:0:
192,152,193680,1,8,0:0:0:0:
