osu file format v9

[General]
AudioFilename: 2-02b.mp3
AudioLeadIn: 0
PreviewTime: 37663
Countdown: 0
SampleSet: Normal
StackLeniency: 0.7
Mode: 0
LetterboxInBreaks: 1

[Editor]
Bookmarks: 21023
DistanceSpacing: 0.8
BeatDivisor: 4
GridSize: 8

[Metadata]
Title:Byakuya Gentou
Artist:Nekomata Master
Creator:ignorethis
Version:Normal
Source:Pop'n Music 18 Sengoku Retsuden
Tags:forest snow dksslqj Nakagawa-Kanon v2b Heatherfield frank7654321

[Difficulty]
HPDrainRate:4
CircleSize:4
OverallDifficulty:4
ApproachRate:5
SliderMultiplier:1.3
SliderTickRate:2

[Events]
//Background and Video events
0,0,"bakayuca.jpg"
//Break Periods
2,35754,36698
//Storyboard Layer 0 (Background)
//Storyboard Layer 1 (Fail)
//Storyboard Layer 2 (Pass)
//Storyboard Layer 3 (Foreground)
//Storyboard Sound Samples
//Background Colour Transformations
3,100,0,0,0

[TimingPoints]
398,468.75,4,1,1,45,1,0
52898,-100,4,2,1,85,0,0
71413,-100,4,1,1,45,0,0
116296,-100,4,2,1,85,0,0

[Colours]
Combo1 : 255,150,0
Combo2 : 5,240,5
Combo3 : 5,5,240
Combo4 : 240,5,5

[HitObjects]
88,340,21023,2,0,B|60:279|94:215,3,130,0|2|0|2
184,267,22898,2,0,B|308:339|461:257,1,260,0|2
467,84,24773,6,0,B|407:48|343:82,3,130,0|2|0|2
262,146,26648,2,0,B|204:191|126:137,1,130,0|2
67,72,27585,1,0
29,168,28054,1,2
66,265,28523,6,0,B|80:334|178:363,1,130,4|2
227,281,29460,2,0,B|213:212|115:183,2,130,0|2|0
301,353,30866,1,2
377,283,31335,2,0,B|421:147,1,130,0|2
351,78,32273,6,0,B|287:34|210:87,3,130,0|2|0|2
127,48,34148,2,0,B|48:140|133:239,2,195,0|2|0
427,336,37898,6,0,B|439:258,1,65
391,247,38366,2,0,B|401:194,2,32.5,2|0|0
345,271,38835,2,0,B|275:296|205:264,1,130,0|2
123,314,39773,6,0,B|73:264|106:175,1,130,0|2
71,149,40476,2,0,B|23:127,2,32.5
99,105,40944,2,0,B|112:67|124:31,1,65,0|2
223,52,41648,6,0,B|271:108|261:180,1,130,0|2
235,216,42351,2,0,B|204:256,2,32.5
277,245,42819,2,0,B|284:285|322:324,1,65,0|2
399,345,43523,6,0,B|448:281|394:217,1,130,0|2
302,191,44460,2,0,B|254:135|303:71,2,130,0|2|4
202,222,45866,1,2
180,269,46101,2,0,B|171:318,2,32.5
128,260,46569,2,0,B|92:244|58:263,2,65,0|2|0
145,210,47273,6,0,B|186:154|154:73,2,130,0|2|0
127,258,48444,2,0,B|142:328,1,65,0|2
240,352,49148,6,0,B|305:332|388:361,1,130,0|2
421,265,50085,2,0,B|356:285|273:256,1,130,0|2
270,160,51023,1,0
247,113,51257,1,0
205,81,51491,2,0,B|132:52|78:118,1,130,2|0
64,154,52194,1,0
66,206,52429,1,2
61,309,52898,6,8,B|93:315|131:330,1,65
170,348,53366,2,8,B|231:392|314:337,2,130,10|8|10
244,275,54773,2,8,B|305:232|366:276,2,130,8|10|8
194,290,55944,2,8,B|160:280|116:267,1,65,8|10
66,190,56648,6,8,B|72:148|91:108,1,65
99,78,57116,2,8,B|151:19|218:35,2,130,10|8|10
181,141,58523,6,8,B|234:187|234:261,1,130,8|10
333,224,59460,2,8,B|332:292|385:338,2,130,8|10|12
420,167,60866,1,10
411,115,61101,2,8,B|404:71,2,32.5,8|8|8
308,130,61804,1,10
319,180,62038,2,8,B|326:224,2,32.5
273,155,62507,2,8,B|266:111,2,32.5,8|8|10
240,196,62976,2,8,B|247:240,2,32.5
142,159,63679,1,10
104,194,63913,6,8,B|108:235|100:268,1,65
143,354,64616,1,10
190,332,64851,2,8,B|194:293|192:256,1,65
277,207,65554,1,10
320,235,65788,1,8
361,203,66023,2,8,B|408:145|356:69,2,130,8|10|8
439,270,67429,1,10
410,313,67663,6,8,B|368:312|321:312,1,65,8|12
139,341,68835,1,12
250,165,69773,2,12,B|240:101|230:28,2,130,12|12|12
348,199,71179,1,12
447,168,71648,6,0,B|486:236|435:303,2,130,0|2|0
347,196,73054,2,0,B|308:128|359:61,1,130,2|0
196,100,74226,2,0,B|188:48,2,32.5
139,187,74929,1,2
235,224,75398,6,0,B|256:308|175:348,2,130,0|2|0
319,162,76804,1,2
406,217,77273,6,0,B|463:76|308:-58|159:52,1,390,0|0
93,100,79148,6,0,B|41:162|83:243,1,130,4|2
146,296,80085,2,0,B|198:234|156:153,1,130,0|2
257,124,81023,2,0,B|242:201|296:255,2,130,0|2|0
342,64,82429,1,2
384,158,82898,6,0,B|470:224|425:349,2,195,0|2|0
256,192,84773,12,4,86648
68,181,87585,6,0,B|27:244|72:312,2,130,0|2|0
268,238,89460,2,0,B|309:175|264:107,2,130,0|2|0
202,319,90866,1,2
303,342,91335,2,0,B|405:380|484:343|506:240,1,260,0|2
419,55,93210,6,0,B|317:17|238:54|216:157,1,260,0|4
29,239,95085,1,0
71,268,95319,2,0,B|66:319,2,32.5,0|0|2
112,236,95788,2,0,B|151:235|198:238,1,65,0|4
299,139,96726,2,0,B|285:84,2,32.5
340,170,97194,2,0,B|347:207|352:242,2,65,0|2|0
383,141,97898,6,0,B|456:132|507:198,1,130,0|2
500,291,98835,2,0,B|457:346|384:337,1,130,0|2
256,192,99773,12,4,101648
443,200,103523,6,0,B|468:131|411:72,1,130,0|2
317,106,104460,2,0,B|292:175|349:234,1,130,0|2
418,297,105398,6,0,B|357:367|286:376|203:351|171:321,1,260,4|0
81,302,106804,1,2
100,199,107273,2,0,B|161:129|232:120|315:145|347:175,1,260
408,240,108679,1,2
483,168,109148,6,0,B|515:108|483:39,2,130,4|2|0
399,229,110554,1,2
314,168,111023,2,0,B|196:96|59:172,1,260,0|2
199,328,112898,6,0,B|317:400|454:324,2,260,0|2|0
95,340,115241,1,2
141,247,115710,1,0
38,264,116179,1,2
256,192,116648,12,4,118523
