osu file format v9

[General]
AudioFilename: 2-02b.mp3
AudioLeadIn: 0
PreviewTime: 37663
Countdown: 0
SampleSet: Soft
StackLeniency: 0.7
Mode: 0
LetterboxInBreaks: 1

[Editor]
Bookmarks: 21023
DistanceSpacing: 1.2
BeatDivisor: 4
GridSize: 8

[Metadata]
Title:Byakuya Gentou
Artist:Nekomata Master
Creator:ignorethis
Version:Hard
Source:Pop'n Music 18 Sengoku Retsuden
Tags:forest snow dksslqj Nakagawa-Kanon v2b Heatherfield frank7654321

[Difficulty]
HPDrainRate:6
CircleSize:5
OverallDifficulty:6
ApproachRate:8
SliderMultiplier:1.6
SliderTickRate:2

[Events]
//Background and Video events
0,0,"bakayuca.jpg"
//Break Periods
2,35754,36913
//Storyboard Layer 0 (Background)
//Storyboard Layer 1 (Fail)
//Storyboard Layer 2 (Pass)
//Storyboard Layer 3 (Foreground)
//Storyboard Sound Samples
//Background Colour Transformations
3,100,0,0,0

[TimingPoints]
398,468.75,4,1,1,45,1,0
52780,-100,4,2,1,85,0,0
71648,-100,4,1,1,45,0,0
116530,-100,4,2,1,85,0,0

[Colours]
Combo1 : 255,150,0
Combo2 : 5,240,5
Combo3 : 5,5,240
Combo4 : 240,5,5

[HitObjects]
96,264,21023,2,0,B|39:189|106:108,1,160,0|0
168,48,21726,1,0
232,120,21960,2,0,B|291:191|232:269,2,160,0|2|0
232,120,23132,1,0
232,120,23366,1,2
280,40,23601,2,0,B|328:40,2,40
280,40,24304,1,2
472,240,24773,6,0,B|424:328|336:296,1,160,0|2
368,208,25476,1,0
280,168,25710,2,0,B|328:80|416:112,2,160,0|2|0
208,232,26882,1,0
136,168,27116,1,2
64,232,27351,1,0
56,328,27585,2,0,B|232:328,1,160,0|2
352,352,28523,6,0,B|440:344|472:248,2,160,4|2|0
296,272,29694,1,0
200,272,29929,1,2
88,96,30398,6,0,B|165:144|260:91,1,160,0|2
320,48,31101,1,0
328,144,31335,2,0,B|496:144,1,160,0|2
456,328,32273,6,0,B|376:296|284:331,1,160,0|2
299,325,32976,1,0
208,344,33210,2,0,B|40:344,2,160,0|2|0
256,192,34265,12,0,35554
448,344,37663,5,0
376,288,37898,2,0,B|376:200,2,80,4|0|2
296,344,38601,1,0
216,288,38835,2,0,B|48:288,1,160,0|2
184,176,39773,6,0,B|134:99|192:22,1,160,0|2
444,27,40710,2,0,B|494:103|440:176,1,160,0|2
72,192,41648,6,0,B|45:156|67:116,1,80
120,48,42116,1,2
192,112,42351,1,0
264,48,42585,2,0,B|352:48,1,80
344,48,43054,1,2
72,352,43523,6,0,B|17:273|80:195,2,160
168,352,44694,1,0
264,352,44929,1,2
360,352,45163,1,0
456,352,45398,6,0,B|511:273|448:195,1,160,4|0
168,232,46335,1,0
72,232,46569,2,0,B|72:128,1,80,0|2
224,32,47273,6,0,B|408:32,1,160,0|2
440,112,47976,1,0
384,192,48210,2,0,B|280:192,2,80,0|0|2
256,336,49148,5,0
168,296,49382,2,0,B|130:323|88:292,2,80,0|2|0
256,336,50085,1,0
344,296,50319,2,0,B|382:269|424:300,2,80,0|2|0
256,248,51023,6,0,B|184:192|96:240,2,160,0|2|0
256,56,52429,1,2
64,56,52898,6,8,B|40:152,1,80
120,192,53366,1,10
70,274,53601,1,8
136,344,53835,2,8,B|32:368,2,80,8|10|10
328,344,54773,6,8,B|395:268|312:192,1,160,8|10
192,64,55710,1,8
384,64,56179,1,10
288,64,56413,1,8
192,64,56648,1,8
192,256,57116,6,8,B|32:280,2,160,10|8|10
256,328,58288,1,8
328,264,58523,2,8,B|488:240,2,160,8|10|8
256,88,59929,1,10
72,48,60398,6,8,B|48:144,1,80,12|10
128,184,60866,2,8,B|92:261|132:359,1,160,10|8
387,339,61804,2,8,B|420:261|384:184,1,160,10|8
128,184,62741,2,8,B|92:261|132:359,1,160,10|8
387,339,63679,6,8,B|420:261|384:184,1,160,10|8
312,128,64382,1,8
240,192,64616,1,10
136,32,65085,6,8,B|216:-8|303:39,1,160,8|10
465,128,66023,2,8,B|386:168|312:128,1,160,8|10
240,192,66726,1,8
144,192,66960,1,8
64,248,67194,2,8,B|32:352,1,80,8|10
256,352,67898,5,12
256,32,68835,1,12
256,352,69773,5,12
256,32,70241,1,14
256,352,70710,1,14
256,32,71178,1,14
40,192,71648,6,0,B|200:192,1,160,4|2
272,128,72351,1,0
344,192,72585,2,0,B|440:192,2,80,0|0|2
256,360,73523,6,0,B|168:360|136:264,1,160,0|2
256,24,74460,2,0,B|344:24|376:120,1,160,0|2
400,208,75163,1,0
328,272,75398,6,0,B|304:360,2,80,0|0|2
256,96,76335,1,0
80,176,76804,2,0,B|56:88,2,80,2|0|0
216,312,77741,2,0,B|48:352,2,160,2|0|2
408,352,79148,6,0,B|408:184,1,160,4|2
256,48,80085,1,0
192,120,80319,1,0
256,192,80554,1,2
320,264,80788,1,0
256,336,81023,1,0
56,336,81726,5,0
56,336,81960,2,0,B|48:240|144:192,1,160,0|2
272,80,82898,2,0,B|448:80,3,160,0|2|0|2
440,272,84773,6,0,B|280:352,1,160,0|2
296,343,85476,1,0
216,296,85710,2,0,B|376:216,2,160,0|2|4
56,192,87116,6,0,B|12:116|69:29,1,160,2|0
160,24,87819,1,0
216,104,88054,2,0,B|192:200,2,80,2|0|0
408,120,88991,6,0,B|432:24,2,80,2|0|0
384,216,89694,1,0
456,272,89929,2,0,B|424:360|328:336,1,160,2|0
256,160,90866,1,2
184,96,91101,2,0,B|144:48,2,40
112,160,91569,1,0
112,160,91804,2,0,B|63:240|120:324,1,160,2|0
400,224,92741,6,0,B|449:144|392:60,1,160,2|0
304,48,93444,2,0,B|304:8,2,40,0|0|2
216,80,93913,2,0,B|216:136,2,40,0|0|4
320,352,94851,5,0
240,304,95085,2,0,B|80:304,2,160,0|0|6
320,128,96491,2,0,B|480:128,2,160,2|0|2
256,200,97663,1,0
192,128,97898,2,0,B|116:84|33:130,1,160,0|2
191,256,98835,2,0,B|116:300|39:257,1,160,0|2
256,192,99773,12,4,101648
56,344,103523,6,0,B|56:168,1,160,0|2
168,32,104460,2,0,B|168:208,1,160,0|2
184,288,105163,1,0
256,344,105398,1,4
456,344,107273,6,0,B|456:168,1,160,0|2
344,32,108210,2,0,B|344:208,1,160,0|2
328,288,108913,1,0
256,344,109148,6,0,B|72:344,2,160,4|2|0
448,344,110554,1,0
448,152,111023,6,0,B|440:54|325:54,1,160,0|2
64,152,111960,2,0,B|72:54|187:54,1,160,0|2
256,96,112663,1,0
256,192,112898,1,0
136,344,113366,6,0,B|41:318|65:210,2,160,2|0|2
256,192,114773,12,0,116648
256,256,117937,6,8,B|256:216,1,40,8|10
256,136,118288,1,8
256,136,118523,1,10
