osu file format v5

[General]
AudioFilename: Contemporary Nation - Beyond the Earth.mp3
AudioLeadIn: 993
PreviewTime: -1
Countdown: 1
SampleSet: Normal
StackLeniency: 0.7
Mode: 0
LetterboxInBreaks: 1

[Metadata]
Title:Beyond the Earth
Artist:Nekomata Master
Creator:flyboy87
Version:Over the skies...
Source:Pop'n Music
Tags:

[Difficulty]
HPDrainRate:5
CircleSize:5
OverallDifficulty:5
SliderMultiplier:1.4
SliderTickRate:1

[Events]
//Background and Video events
//Break Periods
2,29469,35549
2,84546,91162
//Storyboard Layer 0 (Background)
//Storyboard Layer 1 (Failing)
//Storyboard Layer 2 (Passing)
//Storyboard Layer 3 (Foreground)
//Storyboard Sound Samples
//Background Colour Transformations
3,100,163,162,255

[TimingPoints]
1178,428.591428571428,4,1,0,100,1

[HitObjects]
256,192,1178,1,2
256,192,2035,1,4
184,112,2678,5,0
216,112,2892,1,0
248,112,3106,1,8
320,112,3535,1,0
352,112,3749,1,2
384,112,3963,1,8
416,112,4178,1,0
448,112,4392,1,2
448,144,4606,5,8
448,216,5035,1,8
448,288,5463,1,0
376,288,5892,2,0,B|216:288,1,140
168,288,6749,2,2,B|0:288,1,140
24,216,7606,1,0
24,144,8035,1,4
24,144,8356,1,4
24,144,8678,1,4
24,112,8892,5,8
104,48,9535,1,0
136,48,9749,1,2
168,48,9964,1,2
240,48,10392,1,0
272,48,10607,1,0
304,48,10821,1,0
336,48,11035,1,8
368,48,11249,1,2
400,48,11464,1,0
400,120,11892,1,2
400,120,12321,1,2
400,192,12749,6,0,B|304:192,1,70
368,192,13178,2,8,B|104:64,1,280
184,72,14464,1,0
256,72,14892,1,4
304,72,15214,1,4
352,72,15535,1,4
488,64,16392,6,0,B|392:64,2,70
488,96,17035,2,2,B|408:96,2,70
488,128,17678,1,0
448,128,17893,1,2
416,128,18107,1,0
384,128,18321,1,2
312,128,18750,1,2
240,128,19178,1,2
168,128,19607,6,2,B|124:114|104:144,2,70
168,200,20464,2,0,B|205:250|240:176,2,70
240,200,21321,1,8
272,200,21536,1,0
304,200,21750,1,4
352,200,22071,1,4
352,200,22393,1,4
352,160,22607,5,2
328,136,22821,1,0
368,80,23250,1,0
336,80,23464,1,2
304,80,23679,1,8
272,80,23893,1,8
200,80,24321,1,4
96,80,24964,5,2
96,112,25179,1,2
96,144,25393,1,0
96,176,25607,1,8
96,248,26036,1,2
168,248,26464,2,0,B|320:248,1,140
256,112,27750,5,2
256,40,28179,1,0
320,56,28607,1,4
312,104,28929,1,4
296,152,29250,1,4
64,64,37179,5,8
112,64,37501,1,0
200,64,38036,1,8
272,64,38465,1,10
344,64,38894,1,8
272,184,39751,1,10
128,192,40608,5,0
128,192,40929,1,0
312,320,42322,6,0,B|264:280|208:216,2,140
376,240,43822,5,2
384,224,43929,1,2
392,208,44037,1,0
288,208,44680,1,0
296,224,44787,1,0
304,240,44894,1,8
200,240,45537,1,0
208,224,45644,1,2
216,208,45751,1,2
96,136,46608,5,0
168,136,47037,1,0
240,136,47465,1,4
168,56,48108,6,8,B|216:56,2,35
64,56,48965,1,0
64,72,49073,1,0
64,88,49180,1,2
64,160,49608,1,0
64,160,50037,1,8
64,264,50680,5,0
80,264,50787,1,0
96,264,50894,1,8
200,264,51537,2,10,B|240:264,2,35
304,264,52394,1,0
320,264,52501,1,0
336,264,52608,1,8
336,120,53466,5,2
264,120,53894,1,2
192,120,54323,2,0,B|64:120|256:312|248:312|248:312|384:176|360:104|264:40,1,560
144,64,56894,1,4
248,64,57537,6,0,B|400:64,1,140
496,64,58609,1,8
496,200,59466,1,2
496,336,60323,1,2
424,336,60752,2,8,B|264:336,1,140
216,336,61609,2,8,B|48:336,1,140
136,296,62466,1,0
208,296,62895,1,4
176,256,63216,1,4
136,224,63538,1,4
48,112,64395,5,0
80,112,64609,1,8
112,112,64823,1,8
184,112,65252,5,2
216,112,65466,1,2
248,112,65681,1,0
280,112,65895,1,8
312,112,66109,1,0
344,112,66323,1,2
416,112,66752,1,2
488,112,67181,1,2
488,184,67609,6,0,B|376:320|80:248,1,420
160,240,69324,1,8
112,184,69752,1,4
152,152,70074,1,4
192,184,70395,1,4
72,56,71466,5,0
144,56,71895,1,0
216,56,72324,1,8
288,56,72752,1,8
360,56,73181,6,0,B|360:224,1,140
432,200,74038,2,8,B|432:56,1,140
432,56,74895,2,0,B|280:56,1,140
224,56,75752,2,8,B|304:192,1,140
360,168,76610,2,2,B|472:56,1,140
464,136,77467,2,0,B|360:136,2,70
464,208,78324,5,4
464,208,78645,1,4
464,296,79181,1,4
408,296,79503,1,4
320,296,80038,1,4
320,296,80360,1,4
232,296,80896,5,4
176,296,81217,1,4
88,296,81753,1,4
88,296,82074,1,4
88,208,82610,1,4
88,208,82931,1,4
88,120,83467,6,0,B|176:120,3,70
192,120,84324,1,4
416,56,92039,5,2
416,104,92360,1,0
416,264,93325,1,8
80,160,95468,5,2
128,160,95789,1,0
352,160,97182,1,4
232,80,98039,5,0
272,112,98361,1,0
312,144,98682,5,0
312,144,98789,1,0
312,144,98896,1,0
312,248,99539,1,2
296,248,99646,1,2
280,248,99754,1,2
176,248,100396,1,0
192,248,100504,1,0
208,248,100611,1,8
144,168,101254,5,2
144,120,101468,2,0,B|200:80|232:120,4,70
248,120,102968,1,2
264,120,103075,1,2
280,120,103182,1,0
384,120,103825,2,0,B|424:120,2,35
384,192,104468,1,8
384,192,104897,1,8
384,264,105325,1,4
352,264,105540,5,0
336,264,105647,1,2
320,264,105754,1,2
216,264,106397,1,8
200,264,106504,1,8
184,264,106611,1,8
80,264,107254,1,2
64,264,107361,1,2
48,264,107468,1,2
48,120,108325,5,0
80,120,108540,1,2
112,120,108754,1,2
144,120,108968,1,0
256,192,109183,12,0,112183
56,40,112397,6,2,B|112:96,1,70
200,40,113254,2,0,B|128:104,1,70
112,184,114111,2,0,B|112:288,1,70
192,184,114969,2,0,B|248:184,2,35
200,216,115397,1,0
216,240,115611,1,2
232,264,115826,1,2
256,288,116040,1,0
328,216,116683,5,8
344,216,116790,1,0
360,216,116897,1,0
464,216,117540,1,2
448,216,117647,1,2
432,216,117754,1,0
432,144,118183,1,2
432,72,118612,1,2
328,72,119254,5,0
312,72,119362,1,0
296,72,119469,2,0,B|136:72,1,140
120,72,120112,1,0
104,72,120219,1,0
88,72,120326,2,8,B|192:184,1,140
216,176,120969,1,2
232,176,121076,1,2
248,176,121183,2,0,B|392:176,1,140
424,176,121826,6,0,B|424:216,2,35
392,200,122255,1,2
368,224,122469,1,2
344,248,122683,1,2
312,272,122897,2,0,B|-32:8,1,420
16,16,124398,1,2
32,16,124505,1,2
48,16,124612,2,0,B|384:280,1,420
448,256,126326,5,2
392,256,126648,1,2
304,256,127183,1,0
248,256,127505,1,0
160,256,128041,1,8
104,256,128362,1,8
56,176,128898,1,2
32,128,129219,1,2
64,48,129755,5,4
104,80,130076,1,4
184,48,130612,1,4
224,80,130934,1,4
304,48,131469,1,4
344,80,131791,1,4
424,48,132326,1,4
424,64,132434,1,4
424,112,132755,1,4
