osu file format v5

[General]
AudioFilename: Contemporary Nation - Beyond the Earth.mp3
AudioLeadIn: 993
PreviewTime: -1
Countdown: 1
SampleSet: Normal
StackLeniency: 0.7
Mode: 0
LetterboxInBreaks: 1

[Metadata]
Title:Beyond the Earth
Artist:Nekomata Master
Creator:flyboy87
Version:Out of this World!!!
Source:Pop'n Music
Tags:

[Difficulty]
HPDrainRate:7
CircleSize:5
OverallDifficulty:7
SliderMultiplier:1.4
SliderTickRate:1

[Events]
//Background and Video events
//Break Periods
2,29469,35549
2,84546,91162
//Storyboard Layer 0 (Background)
//Storyboard Layer 1 (Failing)
//Storyboard Layer 2 (Passing)
//Storyboard Layer 3 (Foreground)
//Storyboard Sound Samples
//Background Colour Transformations
3,100,163,162,255

[TimingPoints]
1178,428.591428571428,4,1,0,100,1

[HitObjects]
88,80,1178,1,2
176,192,2035,1,4
248,120,2678,5,2
272,96,2892,1,2
304,72,3106,1,0
336,56,3320,1,0
368,56,3535,1,2
400,64,3749,1,2
432,72,3963,1,8
456,96,4178,1,8
480,120,4392,1,0
480,152,4606,1,2
472,184,4821,1,8
456,216,5035,1,0
448,248,5249,1,2
432,280,5463,1,8
368,304,5892,6,8,B|296:272,1,70
296,240,6321,2,2,B|200:240,1,70
200,216,6749,2,0,B|128:160,1,70
144,208,7178,2,0,B|208:152,1,70
196,161,7606,2,2,B|128:224,1,70
144,240,8035,1,4
144,240,8356,1,4
144,240,8678,1,4
160,264,8892,5,2
192,264,9106,1,2
224,264,9321,1,4
256,248,9535,1,0
288,224,9749,1,2
256,208,9964,1,0
256,208,10071,1,2
288,192,10178,1,2
288,152,10392,1,8
256,168,10607,1,8
288,152,10821,1,0
312,168,11035,1,2
288,192,11249,1,8
312,216,11464,1,0
288,240,11678,1,8
256,216,11892,1,2
256,248,12107,1,0
280,272,12321,1,8
352,280,12749,6,0,B|424:224,1,70
400,200,13178,2,2,B|288:72|128:144,1,280,2|2
96,184,14464,5,0
120,208,14678,1,2
144,232,14892,1,4
184,264,15214,1,4
224,288,15535,1,4
256,296,15750,2,8,B|408:296,1,140
408,264,16392,5,0
376,240,16607,1,0
408,240,16821,1,0
376,224,17035,1,2
392,216,17143,1,2
408,208,17250,1,0
384,184,17464,1,2
416,184,17678,2,0,B|320:184,1,70
346,184,18107,1,8
312,184,18321,2,2,B|240:136,1,70
240,176,18750,2,8,B|304:216,1,70
336,216,19178,1,4
272,248,19607,5,0
256,248,19714,1,2
240,248,19821,1,8
208,248,20036,1,2
136,248,20464,2,8,B|80:248,2,35
168,248,20893,1,4
168,176,21321,2,0,B|216:176,3,35
216,176,21750,1,4
216,176,22071,1,4
216,176,22393,1,4
216,136,22607,5,2
216,104,22821,1,2
216,32,23250,5,2
184,48,23464,1,0
160,72,23679,1,0
160,104,23893,1,8
160,104,24000,1,0
160,136,24107,1,8
160,168,24321,1,2
160,200,24536,1,0
160,232,24750,1,0
160,264,24964,1,2
160,296,25179,2,2,B|160:216,1,70
160,226,25607,2,2,B|160:152,1,70
160,120,26036,1,4
160,48,26464,5,0
160,48,26572,1,0
160,48,26679,1,0
192,48,26893,2,2,B|392:288,1,280
416,320,28179,1,0
384,320,28393,1,2
352,320,28607,1,4
296,320,28929,1,4
240,320,29250,1,4
48,40,36965,6,8,B|136:40,1,70
168,40,37501,1,0
216,40,37822,5,0
232,40,37929,1,0
248,40,38036,1,2
272,64,38251,1,2
280,80,38358,1,2
288,96,38465,1,0
304,128,38679,1,8
320,160,38894,1,0
304,224,39322,5,2
280,248,39536,1,0
256,272,39751,1,2
232,296,39965,1,0
200,312,40179,1,0
144,264,40608,5,2
96,240,40929,1,8
56,208,41251,5,0
40,200,41358,1,0
24,192,41465,1,0
40,160,41679,1,0
56,144,41787,1,2
72,128,41894,1,2
96,104,42108,1,4
128,96,42322,6,2,B|248:96,1,105
288,96,42965,2,8,B|384:96,1,70
424,96,43608,1,8
424,128,43822,5,2
424,144,43929,1,2
424,160,44037,2,0,B|424:320,1,140
384,296,44680,1,0
368,296,44787,1,0
352,296,44894,2,0,B|304:296|176:296,1,140
176,296,45537,1,8
160,296,45644,1,8
144,296,45751,2,2,B|0:296,1,140
32,272,46394,5,0
32,272,46501,1,0
32,272,46608,1,0
64,256,46822,1,2
96,240,47037,1,0
128,224,47251,1,2
160,208,47465,2,0,B|312:128,1,140
312,128,48108,1,2
304,112,48215,1,2
288,96,48323,2,8,B|136:32,1,140
192,56,48965,1,2
208,64,49073,1,2
224,72,49180,2,4,B|360:168|360:168|168:248,1,350
144,288,50680,5,0
144,288,50787,1,0
144,288,50894,2,2,B|288:224,1,140
271,231,51537,1,8
271,231,51644,1,8
271,231,51751,2,0,B|136:168,1,140
144,171,52394,1,2
144,171,52501,1,2
144,171,52608,2,0,B|280:112,1,140
304,120,53251,1,2
320,120,53359,1,2
336,120,53466,1,2
368,120,53680,2,8,B|368:200,2,70
368,120,54323,2,2,B|75:324|16:368,1,420
24,361,55823,1,8
40,352,55930,1,8
56,344,56037,2,8,B|360:128,1,350
400,104,57537,5,0
368,128,57752,1,2
336,152,57966,1,2
312,128,58180,1,0
336,152,58394,1,0
360,176,58609,1,8
384,152,58823,1,2
408,176,59037,1,0
384,208,59252,1,8
384,152,59466,1,0
360,176,59680,1,8
336,152,59895,1,8
304,176,60109,1,2
280,152,60323,1,8
336,104,60752,5,0
336,104,60859,1,0
336,104,60966,1,2
296,104,61180,1,0
256,104,61395,1,2
224,104,61609,1,0
208,104,61716,1,0
208,104,61823,1,0
176,104,62037,1,2
144,104,62252,2,0,B|64:104,1,70
40,104,62680,1,4
40,136,62895,1,4
40,184,63216,1,4
40,184,63538,1,4
40,216,63752,5,0
64,240,63966,1,2
136,240,64395,6,0,B|192:288,1,70
189,285,64823,2,2,B|248:240,1,70
244,242,65252,2,8,B|184:192,1,70
190,197,65681,2,8,B|120:248,1,70
133,238,66109,2,0,B|72:192,1,70
77,195,66538,2,2,B|8:248,1,70
24,240,66966,2,8,B|96:312,1,70
75,277,67395,2,0,B|144:232,1,70
133,238,67823,1,2
133,238,68038,2,8,B|256:232|432:160,1,280
448,112,69324,5,2
416,112,69538,1,0
376,112,69752,1,4
376,112,70074,1,4
376,112,70395,1,4
344,112,70609,5,8
240,112,71252,5,0
224,112,71359,1,0
208,112,71466,1,0
176,112,71681,1,2
144,112,71895,1,0
104,112,72109,2,0,B|56:112,2,35
104,144,72538,2,0,B|104:288,1,140
104,284,73181,1,8
104,284,73288,1,8
104,284,73395,1,8
104,284,73609,2,0,B|104:136,1,140
104,104,74252,1,4
168,72,74681,5,0
168,72,74788,1,0
168,72,74895,1,8
200,72,75110,1,2
232,72,75324,1,8
272,72,75538,1,0
304,72,75752,1,2
336,72,75967,1,0
368,72,76181,2,8,B|240:176,1,140
296,160,76824,1,2
328,160,77038,1,8
360,160,77252,1,2
392,160,77467,1,0
392,160,77574,1,0
392,160,77681,1,2
392,176,77788,1,0
392,192,77895,1,0
392,208,78003,1,8
392,224,78110,1,10
392,256,78324,5,4
392,256,78645,1,4
304,256,79181,1,4
304,200,79503,1,4
240,256,80038,1,4
240,200,80360,1,4
152,200,80896,1,4
152,256,81217,1,4
64,256,81753,1,4
64,200,82074,1,4
64,112,82610,1,0
64,160,82931,1,0
136,112,83467,1,0
168,112,83681,1,0
200,112,83896,1,0
232,112,84110,1,2
264,112,84324,1,0
80,304,92039,5,4
128,304,92360,1,2
288,304,93325,1,8
360,304,93753,1,4
360,160,94610,1,2
360,16,95468,1,0
304,16,95789,1,0
72,24,97182,1,0
72,72,97503,1,2
72,120,97825,1,0
72,152,98039,1,4
72,200,98361,1,4
72,240,98682,5,2
72,240,98789,1,2
72,240,98896,2,0,B|216:176,1,140
199,183,99539,1,8
199,183,99646,1,8
199,183,99754,2,0,B|272:40,1,140
262,58,100396,1,0
262,58,100504,1,0
262,58,100611,2,2,B|336:192,1,140
360,184,101254,5,0
376,184,101361,1,0
392,184,101468,1,2
424,184,101682,1,8
424,216,101896,1,2
424,248,102111,1,8
424,280,102325,2,8,B|248:280,1,140
284,280,102968,1,2
284,280,103075,1,2
284,280,103182,2,0,B|136:280,1,140
144,280,103825,1,8
144,280,103932,1,8
144,280,104039,2,2,B|520:280,1,350
494,280,105325,1,4
472,248,105540,5,0
456,232,105647,1,0
440,216,105754,2,0,B|328:104,1,140
376,120,106397,1,2
392,120,106504,1,2
408,120,106611,2,8,B|296:224,1,140
336,216,107254,1,0
352,216,107361,1,0
368,216,107468,2,2,B|264:120,1,140
296,120,108111,1,0
312,120,108218,1,0
328,120,108325,1,2
360,120,108540,2,8,B|464:120,2,70
430,120,109183,2,0,B|48:328,1,420
61,320,110683,1,2
61,320,110790,1,2
64,320,110897,2,4,B|296:24,1,350,4|4
279,44,112183,1,4
312,48,112397,5,2
328,48,112504,1,2
344,48,112611,2,8,B|488:48,1,140
484,48,113254,1,0
484,48,113361,1,0
484,48,113468,2,0,B|328:48,1,140
344,80,114111,1,8
344,80,114218,1,8
344,80,114326,2,0,B|496:80,1,140
448,80,114969,1,2
432,80,115076,1,2
416,80,115183,1,0
384,80,115397,1,0
352,80,115611,1,8
312,80,115826,1,0
280,80,116040,2,0,B|112:80,1,140
104,80,116683,6,2,B|48:80,2,35
104,184,117540,2,0,B|104:136,2,35
104,256,118183,1,0
176,256,118612,1,2
256,192,119254,5,0
256,192,119362,1,2
256,192,119469,2,6,B|160:88,1,140
256,192,120112,1,8
256,192,120219,1,8
256,192,120326,2,0,B|352:88,1,140
256,192,120969,1,2
256,192,121076,1,2
256,192,121183,2,0,B|256:344,1,140
256,332,121826,2,0,B|256:280,2,35
256,297,122255,2,2,B|256:216,1,70
256,192,122683,1,8
256,192,122897,12,0,125898
80,64,126326,5,0
128,64,126648,1,8
216,64,127183,1,8
264,64,127505,1,2
352,64,128041,1,0
352,64,128362,1,0
352,152,128898,1,2
352,152,129219,1,2
296,152,129541,2,0,B|232:152,2,35
261,152,130076,1,4
176,152,130612,1,4
176,152,130934,1,4
88,152,131469,1,4
88,152,131791,1,4
88,240,132326,1,4
104,240,132434,1,4
152,240,132755,1,4
