osu file format v5

[General]
AudioFilename: Contemporary Nation - Beyond the Earth.mp3
AudioLeadIn: 993
PreviewTime: -1
Countdown: 1
SampleSet: Normal
StackLeniency: 0.7
Mode: 0
LetterboxInBreaks: 1

[Metadata]
Title:Beyond the Earth
Artist:Nekomata Master
Creator:flyboy87
Version:Earthly
Source:Pop'n Music
Tags:

[Difficulty]
HPDrainRate:3
CircleSize:3
OverallDifficulty:3
SliderMultiplier:1.4
SliderTickRate:1

[Events]
//Background and Video events
//Break Periods
2,29469,35549
2,84546,90622
//Storyboard Layer 0 (Background)
//Storyboard Layer 1 (Failing)
//Storyboard Layer 2 (Passing)
//Storyboard Layer 3 (Foreground)
//Storyboard Sound Samples
//Background Colour Transformations
3,100,163,162,255

[TimingPoints]
1178,428.591636348053,4,1,0,100,1

[HitObjects]
96,112,1177,1,2
232,112,2035,1,8
336,112,2678,5,0
408,112,3106,1,2
480,112,3535,1,2
480,216,4606,5,8
336,216,5463,1,8
192,216,6321,1,2
48,216,7178,1,2
48,72,8035,5,0
48,72,8356,1,0
48,72,8678,1,0
184,72,9321,5,8
288,72,9964,1,0
392,72,10607,1,2
392,208,11464,5,2
392,208,11892,1,2
392,208,12321,1,2
248,208,13178,6,0,B|208:320|-8:144,1,280
64,112,14464,1,2
136,112,14892,1,4
136,112,15214,1,4
136,112,15535,1,4
272,120,16393,5,0
448,120,17464,1,2
448,256,18321,5,0
376,256,18750,1,8
304,256,19178,1,8
184,184,20036,1,2
296,104,20893,5,0
432,104,21750,1,0
432,152,22071,1,2
432,200,22393,1,2
288,184,23250,5,0
184,184,24107,1,0
32,104,25179,1,8
104,104,25607,1,2
176,104,26036,1,2
248,104,26464,5,8
248,32,26893,2,2,B|32:224|32:224|32:232,1,280
104,216,28179,1,0
176,216,28607,1,4
176,216,28929,1,4
176,216,29250,1,4
48,56,36965,6,0,B|232:192,1,210
288,184,38036,1,8
360,184,38465,5,2
464,184,38894,1,0
408,56,39751,1,8
304,48,40394,6,0,B|244:211|184:40,1,210
136,248,42322,6,4,B|288:248,2,140
32,248,43822,5,2
32,216,44037,1,2
32,112,44680,5,8
32,80,44894,1,8
136,80,45537,1,8
136,112,45751,1,0
264,64,46608,5,2
336,64,47037,1,2
296,120,47465,1,2
296,224,48108,5,0
296,256,48323,1,4
192,224,48965,1,8
192,256,49180,2,2,B|256:368|448:72,1,350
368,64,50680,5,0
328,64,50894,1,8
224,64,51537,1,2
184,64,51751,1,0
256,184,52608,1,4
144,264,53466,6,8,B|288:264,1,140
328,272,54323,2,0,B|488:168|488:168|280:8,1,420
240,40,56037,1,4
80,48,57537,5,0
208,168,58609,1,0
344,168,59466,1,0
344,24,60323,1,2
256,136,61180,5,2
256,272,62038,1,2
392,272,62895,1,4
392,272,63216,1,4
392,272,63538,1,4
480,120,64609,5,2
352,64,65466,1,0
224,120,66323,1,2
96,64,67181,1,2
192,168,68038,1,2
456,64,69752,5,4
408,80,70074,1,4
360,104,70395,1,4
184,104,71467,5,0
256,104,71895,1,0
216,160,72324,1,0
184,224,72752,1,8
256,224,73181,1,8
392,224,74038,6,0,B|296:88,1,140
256,64,74895,2,2,B|136:184,1,140
96,200,75752,2,8,B|240:264,1,140
288,280,76610,1,2
352,256,77038,1,2
352,48,78324,5,4
352,48,78645,1,4
352,136,79181,1,4
352,136,79503,1,4
352,224,80038,1,4
352,224,80360,1,4
264,224,80896,5,4
264,224,81217,1,4
264,312,81753,1,4
208,312,82074,1,4
168,232,82610,1,4
136,184,82931,1,4
200,128,83467,5,4
224,104,83681,1,4
272,56,84110,1,4
272,88,84324,1,4
64,72,92039,5,2
112,72,92360,1,2
272,72,93325,1,8
32,320,95468,5,0
88,48,97182,6,0,B|264:48,2,140
88,120,98468,1,4
88,192,98896,5,2
152,312,99754,1,2
240,200,100611,1,2
344,288,101468,5,0
344,216,101897,1,2
344,144,102325,1,2
344,40,102968,5,8
312,40,103182,1,8
168,48,104039,1,4
408,96,105540,5,0
384,128,105754,1,2
264,200,106611,1,8
136,144,107468,1,2
248,56,108325,5,0
296,104,108754,1,0
344,152,109183,2,2,B|456:396|56:248,1,420
80,184,110897,1,4
72,48,112397,5,2
104,48,112611,1,0
104,152,113254,1,0
136,152,113469,1,8
104,248,114111,1,0
136,248,114326,1,2
168,112,115183,6,8,B|189:-4|288:104,2,140
168,216,116683,1,0
168,216,116790,1,0
168,216,116897,1,0
304,216,117754,1,2
304,144,118183,5,2
232,144,118612,1,2
152,72,119254,5,0
184,72,119469,1,8
288,72,120112,1,0
320,72,120326,1,2
256,160,120969,1,8
272,160,121076,1,8
288,160,121183,1,2
232,280,122040,5,0
304,280,122469,1,2
256,192,122898,12,0,124183
48,40,124612,5,2
328,48,126326,5,0
360,88,126648,1,0
368,176,127183,5,2
336,216,127505,1,2
344,304,128041,5,2
368,352,128362,1,8
432,296,128898,5,8
456,248,129219,1,0
480,160,129755,6,2,B|376:88,1,105
328,72,130612,6,2,B|216:144,1,105
288,200,131469,6,2,B|184:288,1,105
136,216,132327,5,4
136,216,132755,1,4
