osu file format v9

[General]
AudioFilename: Beyond the Earth.mp3
AudioLeadIn: 1000
PreviewTime: 97668
Countdown: 0
SampleSet: Soft
StackLeniency: 0.7
Mode: 0
LetterboxInBreaks: 1

[Editor]
DistanceSpacing: 0.8
BeatDivisor: 4
GridSize: 4

[Metadata]
Title:Beyond the Earth
Artist:Nekomata Master
Creator:Muya
Version:Normal
Source:pop'n music 10
Tags:beatmania IIDX 9th style IIDX9 BeatofIke ignorethis world/electronica

[Difficulty]
HPDrainRate:3
CircleSize:3
OverallDifficulty:4
ApproachRate:4
SliderMultiplier:1.1
SliderTickRate:1

[Events]
//Background and Video events
0,0,"haikei.jpg"
//Break Periods
2,84375,96375
//Storyboard Layer 0 (Background)
//Storyboard Layer 1 (Fail)
//Storyboard Layer 2 (Pass)
//Storyboard Layer 3 (Foreground)
//Storyboard Sound Samples
//Background Colour Transformations
3,100,0,255,0

[TimingPoints]
375,428.571428571429,4,2,1,60,1,0
70660,-100,4,2,2,100,0,0
71303,-100,4,1,2,100,0,0
71517,-100,4,2,2,100,0,0
72160,-100,4,1,2,100,0,0
72375,-100,4,2,2,100,0,0
73017,-100,4,1,2,100,0,0
73232,-100,4,2,2,100,0,0
74732,-100,4,1,2,100,0,0
74946,-100,4,2,2,100,0,0
75589,-100,4,1,2,100,0,0
75803,-100,4,2,2,100,0,0
76446,-100,4,1,2,100,0,0
76660,-100,4,2,2,100,0,0
77517,-100,4,1,2,100,0,0
78375,-100,4,2,2,100,0,0
79232,-100,4,1,2,100,0,0
80089,-100,4,2,2,100,0,0
80946,-100,4,1,2,100,0,0
83089,-100,4,2,2,100,0,0
83946,-100,4,1,2,100,0,0
84375,-100,4,2,1,60,0,0
125517,-100,4,2,2,100,0,0
126160,-100,4,1,2,100,0,0
126375,-100,4,2,2,100,0,0
127875,-100,4,1,2,100,0,0
128089,-100,4,2,2,100,0,0
132375,-100,4,2,0,5,0,0

[Colours]
Combo1 : 255,253,170
Combo2 : 255,170,255
Combo3 : 170,255,255
Combo4 : 185,255,170

[HitObjects]
0,84,2089,2,0,B|48:120|104:92,1,110,6|2
140,68,2732,2,0,B|192:84,1,55,0|10
276,108,3375,1,0
360,84,3803,1,2
380,124,4017,2,0,B|380:152|360:176,1,55,0|2
304,240,4660,2,0,B|276:292|304:348,1,110,0|2
388,368,5517,6,0,B|476:340|500:256|452:180,2,220,2|10|2
312,324,7660,1,0
232,288,8089,2,0,B|176:272|124:288,1,110,2|0
36,292,8946,6,0,B|4:240|36:188,1,110,6|0
12,148,9589,2,0,B|32:128|32:88,1,55,0|8
100,40,10232,1,0
156,108,10660,1,2
196,88,10874,2,0,B|228:80|260:88,1,55,0|2
292,164,11517,2,0,B|264:216|292:272,1,110,0|2
348,336,12374,6,0,B|428:324|472:240|428:156,1,220,2|10
364,112,13660,1,0
300,52,14089,2,0,B|328:20|384:28,2,82.5,2|2|2
264,80,14946,2,0,B|212:112|160:88,1,110
76,60,15803,6,0,B|52:80|48:112,1,55,6|0
60,148,16232,2,0,B|116:188|100:252,2,110,0|10|0
16,224,17517,1,0
40,308,17946,1,2
112,356,18375,2,0,B|168:380|224:356,1,110,0|2
296,320,19232,6,0,B|376:268|464:300|492:372,2,220,2|10|2
220,276,21375,2,0,B|180:228|208:168,2,110,0|2|0
284,216,22660,6,0,B|312:204|348:208,1,55,6|0
380,224,23089,2,0,B|436:248|484:212,2,110,2|10|0
424,148,24375,1,0
364,84,24803,1,2
284,48,25232,2,0,B|232:24|176:48,1,110,0|2
104,96,26089,6,0,B|56:136|32:216|88:296,1,220,2|10
156,352,27375,1,0
232,308,27803,2,0,B|272:288|316:304,2,82.5,2|2|2
68,164,29517,6,0,B|60:136|68:108,1,55,6|0
100,80,29946,2,0,B|60:36|0:48,2,110,8|0|8
164,140,31232,2,0,B|220:160|272:140,1,110,0|8
308,116,31875,1,0
344,92,32089,2,0,B|400:72|452:92,1,110,0|8
424,176,32946,6,0,B|416:204|424:232,1,55
408,272,33375,2,0,B|456:304|512:288,2,110,8|0|8
356,344,34660,2,0,B|304:368|248:344,1,110,0|8
212,320,35303,1,0
176,296,35517,2,0,B|124:272|68:296,1,110,0|8
16,224,36375,6,0,B|-8:172|16:116,1,110,4|12
48,88,37017,1,0
124,132,37446,2,0,B|148:144|176:140,1,55,0|8
164,52,38089,2,0,B|216:28|272:52,1,110,0|8
312,68,38732,2,0,B|364:92|420:68,1,110
452,40,39375,1,8
508,108,39803,6,0,B|528:164|492:212,1,110,0|8
452,232,40446,1,0
476,316,40875,2,0,B|448:324|420:316,1,55,0|8
340,284,41517,2,0,B|288:260|232:284,1,110,0|8
196,308,42160,2,0,B|144:340|88:316,1,110
52,296,42803,1,8
116,236,43232,6,0,B|136:188|116:132|116:132|96:84|116:20,2,220,6|2|2
156,316,45375,1,8
228,364,45803,2,0,B|256:368|284:360,1,55,0|2
324,344,46232,1,10
288,264,46660,6,0,B|328:200|432:192|480:248,2,220,2|2|2
244,340,48803,1,8
160,368,49232,1,0
76,340,49660,1,8
24,268,50089,6,0,B|-40:164|24:60,1,220,6|2
108,36,51375,1,8
192,60,51803,2,0,B|256:164|192:268,1,220,2|2
108,292,53089,1,8
172,356,53517,6,0,B|228:380|280:356|280:356|332:332|388:356,1,220,2|0
472,372,54803,1,8
508,292,55232,2,0,B|532:240|508:184,1,110,2|8
436,236,56089,2,0,B|412:184|436:128,1,110,0|8
380,60,56946,6,0,B|328:48,1,55,6|2
292,76,57375,2,0,B|236:100|180:76,1,110,8|2
112,28,58232,1,10
60,100,58660,2,0,B|52:128|60:156,1,55,2|0
88,188,59089,1,10
28,252,59517,2,0,B|84:292|140:256,1,110,0|10
216,284,60375,6,0,B|224:316|216:344,2,55,2|0|10
192,200,61232,2,0,B|184:168|192:140,2,55,2|0|10
276,224,62089,2,0,B|324:284|420:288|472:228,1,220,2|2
384,76,63803,6,0,B|368:128,1,55,6|0
328,148,64232,2,0,B|296:196|320:252,1,110,10|0
392,304,65089,1,10
312,340,65517,2,0,B|284:348|256:340,1,55,2|0
216,324,65946,1,10
132,348,66375,2,0,B|76:372|24:348,1,110,0|10
76,276,67232,6,0,B|108:220|76:172|76:172|44:124|76:68,1,220,2|2
156,32,68517,1,8
236,68,68946,2,0,B|280:84|316:68,2,82.5,2|2|2
452,36,70660,5,0
436,124,71089,1,0
396,144,71303,2,0,B|388:200,1,55
304,172,71946,1,0
264,192,72160,2,0,B|256:248,1,55
168,232,72803,1,0
128,252,73017,1,0
88,272,73232,2,0,B|56:220|88:168,1,110
64,84,74089,5,0
152,100,74517,1,0
192,80,74732,2,0,B|248:96,1,55
220,180,75375,1,0
260,200,75590,2,0,B|316:184,1,55
336,100,76232,1,0
376,80,76446,1,0
416,60,76660,2,0,B|448:112|416:164,1,110
372,240,77517,6,0,B|356:280|372:320,1,82.5,4|4
268,360,78375,2,0,B|252:320|268:280,1,82.5
164,240,79232,2,0,B|180:280|164:320,1,82.5,4|4
60,360,80089,2,0,B|76:320|60:280,1,82.5
4,184,80946,5,4
144,76,81803,1,4
176,248,82660,1,0
228,320,83089,1,0
308,356,83517,2,0,B|360:380|420:356,1,110,0|4
460,92,98089,6,0,B|412:124|356:100,1,110,6|8
316,80,98732,1,0
280,56,98946,2,0,B|212:16|120:28|76:96,1,220,2|2
44,168,100232,1,8
20,252,100660,2,0,B|49:260|76:248,1,55,2|2
112,228,101089,1,10
156,152,101517,6,0,B|208:120|264:144,1,110,2|8
300,164,102160,1,2
280,204,102375,2,0,B|252:260|284:312,1,110,2|8
360,352,103232,2,0,B|440:336|476:256|432:180,1,220,2|0
372,116,104517,1,12
332,136,104732,1,2
288,144,104946,6,0,B|228:152|184:108,1,110,2|12
116,60,105803,2,0,B|40:76|0:172|52:244,1,220,2|2
116,288,107089,1,8
200,260,107517,2,0,B|228:252|260:264,1,55,0|2
296,280,107946,1,10
344,352,108375,6,0,B|428:372|484:276|424:208,1,220,2|0
340,200,109660,1,8
252,184,110089,2,0,B|193:118|249:22|333:42,1,220,2|0
480,136,111803,6,0,B|508:192|480:244,1,110,6|8
460,280,112446,1,2
420,300,112660,2,0,B|372:264|312:280,1,110,2|8
236,316,113517,2,0,B|168:372|68:348|44:276,1,220,2|0
32,244,114589,1,2
32,200,114803,1,10
60,116,115232,6,0,B|108:84|168:104,1,110,2|8
236,48,116089,2,0,B|284:80|344:60,1,110,2|8
384,48,116732,1,0
428,56,116946,2,0,B|500:100|496:208|428:240,1,220,2|0
420,328,118232,2,0,B|392:320|364:324,1,55,12|0
324,336,118660,6,0,B|276:364|216:340,1,110,2|12
180,320,119303,1,2
144,296,119517,2,0,B|86:272|38:300,1,110,2|8
0,220,120375,2,0,B|-16:128|60:64|152:88,1,220,2|0
172,92,121446,1,2
216,92,121660,1,10
284,36,122089,6,0,B|332:108|284:192|284:192|236:276|284:348,1,330,2|8
324,368,123589,1,2
368,372,123803,1,2
448,336,124232,1,8
484,256,124660,1,0
448,176,125089,1,8
408,96,125517,6,0,B|448:80|488:96,2,82.5
368,116,126375,2,0,B|328:132|288:116,1,82.5
248,220,127232,2,0,B|288:236|328:220,2,82.5
208,200,128090,2,0,B|168:184|128:200,1,82.5
172,300,128946,5,4
32,192,129803,1,4
172,84,130660,1,4
312,192,131517,1,4
256,260,131946,2,0,B|308:296|360:264,1,110,4|0
