osu file format v9

[General]
AudioFilename: Beyond the Earth.mp3
AudioLeadIn: 2000
PreviewTime: 97668
Countdown: 0
SampleSet: Soft
StackLeniency: 0.7
Mode: 0
LetterboxInBreaks: 1

[Editor]
DistanceSpacing: 1.2
BeatDivisor: 4
GridSize: 4

[Metadata]
Title:Beyond the Earth
Artist:Nekomata Master
Creator:Muya
Version:Hyper
Source:pop'n music 10
Tags:beatmania IIDX 9th style IIDX9 BeatofIke ignorethis world/electronica

[Difficulty]
HPDrainRate:5
CircleSize:4
OverallDifficulty:6
ApproachRate:7
SliderMultiplier:1.4
SliderTickRate:1

[Events]
//Background and Video events
0,0,"haikei.jpg"
//Break Periods
2,84375,96375
//Storyboard Layer 0 (Background)
//Storyboard Layer 1 (Fail)
//Storyboard Layer 2 (Pass)
//Storyboard Layer 3 (Foreground)
//Storyboard Sound Samples
//Background Colour Transformations
3,100,0,255,0

[TimingPoints]
375,428.571428571429,4,2,1,60,1,0
28875,-100,4,1,2,100,0,0
29089,-100,4,2,2,100,0,0
29517,-100,4,2,1,60,0,0
70660,-100,4,1,2,100,0,0
71089,-100,4,2,2,100,0,0
71303,-100,4,1,2,100,0,0
71517,-100,4,2,2,100,0,0
72160,-100,4,1,2,100,0,0
72375,-100,4,2,2,100,0,0
73017,-100,4,1,2,100,0,0
74517,-100,4,2,2,100,0,0
74732,-100,4,1,2,100,0,0
74946,-100,4,2,2,100,0,0
75589,-100,4,1,2,100,0,0
75803,-100,4,2,2,100,0,0
76446,-100,4,1,2,100,0,0
81589,-100,4,2,2,100,0,0
81803,-100,4,1,2,100,0,0
82446,-100,4,2,2,100,0,0
82660,-100,4,1,2,100,0,0
83089,-100,4,2,2,100,0,0
83946,-100,4,1,2,100,0,0
84375,-100,4,2,1,60,0,0
125517,-100,4,2,2,100,0,0
126160,-100,4,1,2,100,0,0
126375,-100,4,2,2,100,0,0
127875,-100,4,1,2,100,0,0
128089,-100,4,2,2,100,0,0
129589,-100,4,1,2,100,0,0
129803,-100,4,2,2,100,0,0
130446,-100,4,1,2,100,0,0
130660,-100,4,2,2,100,0,0
131303,-100,4,1,2,100,0,0
131517,-100,4,2,2,100,0,0
132375,-100,4,2,1,5,0,0

[Colours]
Combo1 : 255,253,170
Combo2 : 255,170,255
Combo3 : 170,255,255
Combo4 : 185,255,170

[HitObjects]
0,80,375,1,2
0,80,1660,1,0
76,44,1875,1,2
152,80,2089,2,0,B|164:112|152:148,1,70,4|2
136,232,2517,2,0,B|68:272|0:232,2,140,0|10|0
304,236,3803,2,0,B|296:272|304:304,1,70,0|2
364,364,4232,2,0,B|400:372|432:364,1,70,0|2
492,304,4660,2,0,B|532:240|492:172,1,140,0|2
404,28,5517,6,0,B|352:92|280:64,1,140,0|2
200,28,6160,1,2
132,80,6375,2,0,B|88:144|132:216,1,140,8|2
288,156,7232,2,0,B|312:208|288:260,2,105,2|2|2
212,120,8089,1,2
436,44,8732,5,2
360,80,8946,2,0,B|348:112|360:148,1,70,4|2
376,232,9374,2,0,B|444:272|512:232,2,140,0|10|0
208,236,10660,2,0,B|216:272|208:304,1,70,0|2
148,364,11089,2,0,B|112:372|80:364,1,70,0|2
20,304,11517,2,0,B|-20:240|20:172,1,140,0|2
108,28,12374,6,0,B|160:92|232:64,1,140,2|0
312,28,13017,1,0
380,80,13232,2,0,B|424:144|380:216,1,140,10|2
224,156,14089,2,0,B|200:208|224:260,2,105,2|2|2
20,352,15589,5,2
80,292,15803,2,0,B|96:260|80:224,1,70,4|2
24,160,16232,2,0,B|96:120|152:176,1,140,2|10
260,44,17089,1,0
288,124,17303,1,2
232,188,17517,1,2
196,352,17946,1,2
356,304,18375,2,0,B|436:280|480:344,1,140,2|2
464,176,19232,6,0,B|396:208|328:176,1,140,2|2
256,132,19875,1,0
184,88,20089,2,0,B|116:56|48:88,1,140,2|2
64,256,20946,2,0,B|115:279|166:256,2,105,2|2|2
116,188,21803,1,2
372,352,22446,5,2
432,292,22660,2,0,B|448:260|432:224,1,70,4|2
488,160,23089,2,0,B|416:120|360:176,1,140,2|10
252,44,23946,1,0
224,124,24160,1,2
280,188,24375,1,2
316,352,24803,1,2
156,304,25232,2,0,B|76:280|32:344,1,140,2|2
48,176,26089,6,0,B|116:208|184:176,1,140,2|0
256,132,26732,1,0
328,88,26946,2,0,B|396:56|464:88,1,140,2|2
448,256,27803,2,0,B|397:279|346:256,2,105,2|2|2
292,192,28875,2,0,B|268:192,3,23.3333333333333,0|0|0|4
60,24,29517,5,4
144,168,29946,1,8
180,92,30160,2,0,B|240:32|312:76,1,140
372,128,30803,1,8
460,272,31232,2,0,B|392:304|324:272,1,140,0|8
256,224,31875,2,0,B|188:192|120:224,1,140
52,272,32517,1,8
196,360,32946,6,0,B|212:328|196:292,1,70
140,228,33375,1,8
168,64,33803,2,0,B|152:96|168:132,1,70
224,196,34232,1,8
376,124,34660,2,0,B|436:76|508:108,2,140,0|8|0
244,20,35946,1,8
452,24,36375,5,4
368,168,36804,1,12
332,92,37018,2,0,B|272:32|200:76,1,140
140,128,37661,1,8
52,272,38090,2,0,B|120:304|188:272,1,140,0|8
256,224,38733,2,0,B|324:192|392:224,1,140
460,272,39375,1,8
316,360,39804,6,0,B|300:328|316:292,1,70
372,228,40233,1,8
344,64,40661,2,0,B|360:96|344:132,1,70
288,196,41090,1,8
136,124,41518,2,0,B|76:76|4:108,2,140,0|8|0
16,244,42803,1,8
8,328,43017,1,2
80,372,43232,6,0,B|220:372,1,140,6|8
132,228,44089,2,0,B|272:228,1,140,2|8
480,144,44946,2,0,B|416:176|344:144,1,140,2|8
180,108,45803,2,0,B|172:144|180:176,1,70,2|2
208,252,46232,1,10
432,372,46660,6,0,B|292:372,1,140,2|8
380,228,47517,2,0,B|240:228,1,140,2|8
32,144,48374,2,0,B|96:176|168:144,1,140,2|8
332,108,49232,2,0,B|340:144|332:176,1,70,2|2
304,252,49661,1,14
468,212,50089,6,0,B|384:212|372:304,1,140,6|8
328,368,50732,1,2
256,328,50946,2,0,B|116:328,1,140,2|8
16,192,51803,2,0,B|156:192,1,140,2|8
316,248,52660,1,0
392,212,52875,1,2
468,248,53089,1,10
512,88,53517,6,0,B|452:140|380:104,1,140,2|8
316,52,54160,1,0
256,112,54375,1,0
364,240,54803,1,8
256,368,55232,2,0,B|116:368,1,140,2|8
4,240,56089,1,0
64,180,56303,1,0
20,108,56517,2,0,B|4:72|20:40,1,70,8|0
96,76,56946,5,4
176,48,57160,1,2
244,96,57375,2,0,B|276:116|312:108,1,70,8|2
360,40,57803,2,0,B|328:20|292:28,2,70,0|2|10
512,112,58660,2,0,B|512:180,1,70,0|2
432,156,59089,2,0,B|432:224,1,70,8|2
352,200,59517,2,0,B|352:338,1,140,0|10
184,340,60375,6,0,B|112:376|52:324,1,140,2|10
76,160,61232,2,0,B|148:124|208:176,1,140,2|10
364,236,62089,2,0,B|472:236,2,105,2|2|2
284,208,62946,1,2
492,40,63589,5,0
416,76,63803,1,4
336,48,64017,1,2
268,96,64232,2,0,B|236:116|200:108,1,70,8|2
152,40,64660,2,0,B|184:20|220:28,2,70,0|2|10
0,112,65517,2,0,B|0:180,1,70,0|2
80,156,65946,2,0,B|80:224,1,70,8|2
160,200,66374,2,0,B|160:338,1,140,0|10
328,340,67232,6,0,B|400:376|460:324,1,140,2|8
436,160,68089,2,0,B|364:124|304:176,1,140,2|10
148,236,68946,2,0,B|40:236,2,105,2|2|2
464,44,70660,5,4
384,224,71089,1,0
348,148,71303,1,0
384,72,71517,1,0
312,224,71946,1,0
348,300,72160,1,0
312,376,72374,1,0
232,196,72803,1,0
196,272,73017,1,0
160,348,73232,2,0,B|92:388|28:348,1,140
48,44,74089,5,0
128,224,74518,1,0
164,148,74732,1,0
128,72,74946,1,0
200,224,75375,1,0
164,300,75589,1,0
200,376,75803,1,0
280,196,76232,1,0
316,272,76446,1,0
352,348,76661,2,0,B|420:388|484:348,1,140
512,192,77517,5,4
256,32,78375,1,0
0,192,79232,1,4
256,352,80090,1,0
214,19,80946,6,0,B|110:19,2,105,4|4|0
298,19,81803,2,0,B|402:19,2,105,4|4|0
256,92,82660,1,0
172,236,83089,1,0
340,236,83517,1,0
256,380,83946,1,4
56,32,98089,6,0,B|120:-4|192:32,1,140,6|8
256,80,98732,1,2
324,128,98946,2,0,B|388:164|460:128,1,140,2|8
512,288,99803,1,2
364,368,100232,1,8
256,240,100660,2,0,B|244:204|256:168,1,70,2|2
300,100,101089,1,10
148,28,101517,6,0,B|184:92|148:164,1,140,2|8
92,224,102160,1,2
116,304,102375,2,0,B|168:372|244:344,1,140,2|8
392,280,103232,2,0,B|472:268|512:336,2,140,2|8|0
320,128,104517,1,12
456,32,104946,6,0,B|392:-4|320:32,1,140,6|12
256,80,105589,1,2
188,128,105803,2,0,B|124:164|52:128,1,140,2|8
0,288,106660,1,2
148,368,107089,1,8
256,240,107517,2,0,B|268:204|256:168,1,70,2|2
212,100,107946,1,10
364,28,108374,6,0,B|328:92|364:164,1,140,2|8
420,224,109017,1,0
396,304,109232,2,0,B|344:372|268:344,1,140,2|8
120,280,110089,2,0,B|40:268|0:336,2,140,2|8|0
192,128,111374,1,12
336,40,111803,6,0,B|404:12|472:40,1,140,6|8
508,116,112446,1,2
472,192,112660,2,0,B|404:220|336:192,1,140,2|8
184,116,113517,1,2
260,268,113946,1,8
108,340,114375,1,2
64,268,114589,1,2
108,196,114803,1,10
4,64,115232,6,0,B|72:92|140:64,1,140,2|8
212,20,115875,1,2
292,48,116089,2,0,B|340:112|300:184,1,140,2|8
164,276,116946,1,2
304,368,117375,1,8
408,236,117803,1,2
340,80,118232,1,12
176,40,118660,6,0,B|108:12|40:40,1,140,6|12
4,116,119303,1,2
40,192,119517,2,0,B|108:220|176:192,1,140,2|8
328,116,120374,1,2
252,268,120803,1,8
404,340,121232,1,2
448,268,121446,1,2
404,196,121660,1,10
508,64,122089,6,0,B|440:92|372:64,1,140,2|8
300,20,122732,1,2
220,48,122946,2,0,B|172:112|212:184,1,140,2|8
348,276,123803,1,2
208,368,124232,1,8
104,236,124660,5,2
172,80,125089,1,12
368,112,125517,6,0,B|428:124|464:80,2,105,4|0|0
288,88,126375,1,0
144,172,126803,1,0
144,172,127232,2,0,B|84:184|48:140,2,105
224,148,128090,1,0
368,232,128517,1,0
368,232,128946,6,0,B|428:244|464:200,2,105,4|4|0
304,288,129803,2,0,B|346:332|400:316,2,105,4|4|0
220,296,130660,2,0,B|229:356|282:375,2,105,4|4|0
256,220,131517,1,4
256,220,131946,2,0,B|264:180|256:148|256:148|248:116|256:80,1,140,4|0
