osu file format v9

[General]
AudioFilename: Beyond the Earth.mp3
AudioLeadIn: 2000
PreviewTime: 97668
Countdown: 0
SampleSet: Soft
StackLeniency: 0.7
Mode: 0
LetterboxInBreaks: 1

[Editor]
DistanceSpacing: 1.4
BeatDivisor: 4
GridSize: 4

[Metadata]
Title:Beyond the Earth
Artist:Nekomata Master
Creator:Muya
Version:Another
Source:pop'n music 10
Tags:beatmania IIDX 9th style IIDX9 BeatofIke ignorethis world/electronica

[Difficulty]
HPDrainRate:8
CircleSize:5
OverallDifficulty:8
ApproachRate:9
SliderMultiplier:1.8
SliderTickRate:1

[Events]
//Background and Video events
0,0,"haikei.jpg"
//Break Periods
//Storyboard Layer 0 (Background)
//Storyboard Layer 1 (Fail)
//Storyboard Layer 2 (Pass)
//Storyboard Layer 3 (Foreground)
//Storyboard Sound Samples
//Background Colour Transformations
3,100,0,255,0

[TimingPoints]
375,428.571428571429,4,2,1,40,1,0
1660,-100,4,2,1,60,0,0
28875,-100,4,1,2,100,0,0
29089,-100,4,2,2,100,0,0
29517,-100,4,2,1,60,0,0
70660,-100,4,1,2,100,0,0
70982,-100,4,2,2,100,0,0
71089,-100,4,1,2,100,0,0
71303,-100,4,2,2,100,0,0
71517,-100,4,1,2,100,0,0
71839,-100,4,2,2,100,0,0
71946,-100,4,1,2,100,0,0
72160,-100,4,2,2,100,0,0
72375,-100,4,1,2,100,0,0
72589,-100,4,2,2,100,0,0
72803,-100,4,1,2,100,0,0
73017,-100,4,2,2,100,0,0
73232,-100,4,1,2,100,0,0
73446,-100,4,2,2,100,0,0
73553,-100,4,1,2,100,0,0
73875,-100,4,2,2,100,0,0
74089,-100,4,1,2,100,0,0
74410,-100,4,2,2,100,0,0
74517,-100,4,1,2,100,0,0
74732,-100,4,2,2,100,0,0
74946,-100,4,1,2,100,0,0
75160,-100,4,2,2,100,0,0
75267,-100,4,1,2,100,0,0
75482,-100,4,2,2,100,0,0
75589,-100,4,1,2,100,0,0
75696,-100,4,2,2,100,0,0
75803,-100,4,1,2,100,0,0
76125,-100,4,2,2,100,0,0
76232,-100,4,1,2,100,0,0
76446,-100,4,2,2,100,0,0
76660,-100,4,1,2,100,0,0
76767,-100,4,2,2,100,0,0
77089,-100,4,1,2,100,0,0
77303,-100,4,2,2,100,0,0
77517,-100,4,1,2,100,0,0
77732,-100,4,2,2,100,0,0
77839,-100,4,1,2,100,0,0
78053,-100,4,2,2,100,0,0
78160,-100,4,1,2,100,0,0
78267,-100,4,2,2,100,0,0
78375,-100,4,1,2,100,0,0
78696,-100,4,2,2,100,0,0
78803,-100,4,1,2,100,0,0
79017,-100,4,2,2,100,0,0
79232,-100,4,1,2,100,0,0
79446,-100,4,2,2,100,0,0
79553,-100,4,1,2,100,0,0
79767,-100,4,2,2,100,0,0
79875,-100,4,1,2,100,0,0
79982,-100,4,2,2,100,0,0
80089,-100,4,1,2,100,0,0
80196,-100,4,2,2,100,0,0
80517,-100,4,1,2,100,0,0
80839,-100,4,2,2,100,0,0
80946,-100,4,1,2,100,0,0
81160,-100,4,2,2,100,0,0
81267,-100,4,1,2,100,0,0
81696,-100,4,2,2,100,0,0
81803,-100,4,1,2,100,0,0
82017,-100,4,2,2,100,0,0
82125,-100,4,1,2,100,0,0
82446,-100,4,2,2,100,0,0
82660,-100,4,1,2,100,0,0
82803,-100,4,2,2,100,0,0
83089,-100,4,1,2,100,0,0
83303,-100,4,2,2,100,0,0
83517,-100,4,1,2,100,0,0
83732,-100,4,2,1,5,0,0
83803,-100,4,1,2,100,0,0
84375,-100,4,2,1,60,0,0
97232,-100,4,1,1,60,0,0
97875,-100,4,2,1,60,0,0
111803,-83.3333333333333,4,2,1,60,0,0
125517,-100,4,2,2,100,0,0
125732,-100,4,1,2,100,0,0
125839,-100,4,2,2,100,0,0
126160,-100,4,1,2,100,0,0
126375,-100,4,2,2,100,0,0
126589,-100,4,1,2,100,0,0
126696,-100,4,2,2,100,0,0
127017,-100,4,1,2,100,0,0
127232,-100,4,2,2,100,0,0
127446,-100,4,1,2,100,0,0
127553,-100,4,2,2,100,0,0
127875,-100,4,1,2,100,0,0
128089,-100,4,2,2,100,0,0
128303,-100,4,1,2,100,0,0
128410,-100,4,2,2,100,0,0
128732,-100,4,1,2,100,0,0
128946,-100,4,2,2,100,0,0
129160,-100,4,1,2,100,0,0
129267,-100,4,2,2,100,0,0
129589,-100,4,1,2,100,0,0
129803,-100,4,2,2,100,0,0
130017,-100,4,1,2,100,0,0
130125,-100,4,2,2,100,0,0
130446,-100,4,1,2,100,0,0
130660,-100,4,2,2,100,0,0
130875,-100,4,1,2,100,0,0
130982,-100,4,2,2,100,0,0
131303,-100,4,1,2,100,0,0
131625,-100,4,2,2,100,0,0
131839,-100,4,1,2,100,0,0
131946,-100,4,2,2,100,0,0
132375,-100,4,2,1,5,0,0

[Colours]
Combo1 : 255,253,170
Combo2 : 255,170,255
Combo3 : 170,255,255
Combo4 : 185,255,170

[HitObjects]
256,192,375,1,2
140,36,1446,2,0,B|120:76,3,30
96,128,1875,1,2
36,88,2089,6,0,B|16:128|16:128|36:168,1,90,4|2
68,232,2517,1,2
62,249,2589,1,0
56,266,2660,1,0
50,283,2732,1,2
28,352,2946,2,0,B|84:352|84:352|108:376,1,90,8|2
228,336,3375,2,0,B|172:336|172:336|148:312,1,90,0|2
92,200,3803,5,2
216,208,4017,1,0
156,168,4232,1,2
152,240,4446,1,2
212,284,4660,2,0,B|236:304|236:304|296:304,1,90,2|10
312,296,4946,1,0
328,288,5017,1,0
344,280,5089,2,0,B|420:328,1,90,2|2
476,372,5517,6,0,B|496:332|496:332|476:292,1,90,2|2
487,301,5803,1,0
487,301,5875,1,0
487,301,5946,2,0,B|467:261|467:261|487:221,1,90,2|2
399,59,6375,2,0,B|379:99|379:99|399:139,1,90,10|2
409,149,6660,1,0
409,149,6732,1,0
409,149,6803,2,0,B|429:189|429:189|409:229,1,90,2|2
348,320,7232,6,0,B|330:231|330:231|350:191,2,135,2|2|2
416,344,8089,1,2
280,296,8303,1,0
280,296,8517,1,0
268,368,8732,1,2
196,360,8946,6,0,B|152:372|152:372|112:351,1,90,4|2
40,352,9374,1,2
46,335,9446,1,0
52,318,9517,1,0
58,301,9589,1,2
120,264,9803,2,0,B|120:204|120:204|100:184,1,90,8|2
144,64,10232,2,0,B|144:124|144:124|164:144,1,90,0|2
224,188,10660,5,2
232,116,10874,1,0
282,230,11089,1,2
298,86,11303,1,2
290,158,11517,2,0,B|322:178|322:178|374:166,1,90,2|10
386,154,11803,1,0
400,142,11874,1,0
413,130,11946,2,0,B|421:222,1,90,2|2
356,348,12374,6,0,B|340:164,1,180,2|0
276,136,13017,1,2
260,144,13089,1,0
244,152,13160,1,0
228,160,13232,2,0,B|187:180|187:180|244:204,1,90,10|2
244,204,13517,1,0
260,212,13589,1,0
276,220,13660,2,0,B|317:240|317:240|260:264,1,90,2|2
224,284,14017,1,0
224,284,14089,6,0,B|180:276|180:276|108:332,2,135,2|2|2
200,352,14946,1,0
104,244,15160,1,0
104,244,15374,1,0
160,200,15589,1,2
92,176,15803,6,0,B|72:136|72:136|92:96,1,90,4|2
44,40,16232,1,2
60,32,16303,1,0
76,24,16374,1,0
92,16,16446,1,2
160,40,16660,2,0,B|216:40|216:40|240:16,1,90,8|2
360,51,17089,2,0,B|304:51|304:51|280:76,1,90,0|2
228,124,17517,5,2
200,243,17732,1,0
252,192,17946,1,2
224,311,18160,1,2
298,305,18375,2,0,B|342:305|342:305|374:337,1,90,2|10
384,348,18660,1,0
384,348,18732,1,0
384,348,18803,2,0,B|408:260,1,90,2|2
444,120,19232,6,0,B|404:140|404:140|360:128,1,90,2|2
370,138,19517,1,0
370,138,19589,1,0
370,138,19660,2,0,B|350:226,1,90,2|2
324,356,20089,2,0,B|284:336|284:336|240:348,1,90,10|2
250,358,20374,1,0
250,358,20446,1,0
250,358,20517,2,0,B|229:270,1,90,2|2
116,152,20946,6,0,B|136:240|136:240|116:280,2,135,2|2|2
25,78,21803,1,2
59,189,22017,1,0
97,81,22232,1,0
0,146,22446,1,2
116,152,22660,6,0,B|148:184|148:184|192:184,1,90,4|2
256,152,23089,1,2
272,160,23160,1,0
288,168,23232,1,0
304,176,23303,1,2
364,216,23517,2,0,B|384:176|384:176|364:136,1,90,8|2
432,28,23946,2,0,B|412:68|412:68|432:108,1,90,0|2
420,180,24375,5,2
464,296,24589,1,0
476,224,24803,1,2
396,324,25017,1,2
408,252,25232,2,0,B|372:280|372:280|328:280,1,90,2|10
338,290,25517,1,0
338,290,25589,1,0
338,290,25660,2,0,B|279:358,1,90,2|2
236,300,26089,6,0,B|177:368|177:368|168:280,1,180,2|0
220,228,26732,1,2
204,220,26803,1,0
188,212,26875,1,0
172,204,26946,2,0,B|140:188|140:188|200:148,1,90,10|2
200,148,27232,1,0
214,138,27304,1,0
228,128,27375,2,0,B|273:97|273:97|241:81,1,90,2|2
208,16,27803,5,2
132,325,28125,1,2
435,226,28446,1,2
256,192,28875,5,0
256,192,28946,1,0
256,192,29017,1,0
256,192,29089,1,4
472,28,29517,6,0,B|432:48|432:48|392:28,1,90,4|2
368,16,29839,1,2
344,28,29946,2,0,B|304:48|304:48|264:28,1,90,8|2
240,16,30268,1,2
216,28,30375,1,0
151,60,30589,1,2
86,28,30803,1,10
21,60,31017,1,2
0,128,31232,5,0
24,140,31339,2,0,B|64:160|64:160|104:140,1,90,2|0
128,128,31660,2,0,B|168:108|168:108|208:128,1,90,10|2
232,140,31982,1,2
256,152,32089,1,0
328,140,32303,1,2
400,152,32517,1,8
472,140,32732,1,2
492,208,32946,5,0
468,220,33053,1,2
444,232,33160,1,2
420,244,33267,1,0
396,256,33375,2,0,B|356:275|356:275|316:256,1,90,10|2
292,244,33696,1,2
268,232,33804,1,0
244,244,33911,1,2
220,256,34018,1,2
156,224,34232,1,10
92,256,34446,1,2
60,320,34660,5,0
84,332,34767,1,2
108,344,34875,1,2
132,356,34982,1,0
156,368,35089,2,0,B|196:386|196:386|237:368,1,90,10|2
264,356,35410,1,0
288,344,35517,1,2
352,312,35732,1,2
416,344,35946,1,10
440,356,36053,1,0
464,368,36161,1,2
504,308,36375,5,6
444,269,36589,1,0
432,245,36696,1,0
420,221,36803,1,12
484,189,37017,1,0
496,165,37124,1,2
508,141,37231,1,0
440,117,37446,1,2
416,49,37660,1,10
256,368,38089,5,0
244,344,38196,1,2
256,320,38303,1,0
268,296,38410,1,2
256,272,38517,1,8
220,208,38732,1,2
232,184,38839,1,0
244,160,38946,1,0
276,96,39160,1,2
244,32,39375,1,10
16,364,39803,5,0
28,340,39911,1,2
40,316,40018,1,0
52,292,40125,1,2
64,268,40232,1,10
24,208,40446,1,2
36,184,40554,1,2
48,160,40661,1,0
116,136,40875,1,2
60,92,41089,1,10
72,24,41303,1,2
128,68,41517,5,0
152,80,41625,1,2
176,92,41732,1,2
200,80,41839,1,0
224,68,41946,1,10
280,24,42160,1,0
292,96,42375,1,2
348,52,42589,1,6
372,40,42696,1,0
396,28,42803,1,10
408,52,42910,1,0
420,76,43017,1,2
444,64,43125,1,0
468,52,43232,6,0,B|500:112|500:112|468:172,1,135,6|0
488,192,43660,2,0,B|400:192,1,90,8|2
373,179,43982,1,0
349,167,44089,2,0,B|317:227|317:227|349:287,1,135,2|0
329,307,44517,2,0,B|421:307,1,90,8|2
440,324,44839,1,0
461,341,44946,6,0,B|433:377|433:377|345:377,1,135,2|0
316,377,45375,2,0,B|284:345|284:345|240:345,1,90,8|2
218,362,45696,1,0
197,379,45803,2,0,B|153:379|153:379|121:347,1,90,2|2
24,240,46232,2,0,B|112:240|112:240|144:272,1,135,10|2
164,292,46660,6,0,B|196:232|196:232|164:172,1,135,2|0
184,152,47089,2,0,B|96:152,1,90,8|2
69,165,47410,1,0
45,177,47517,2,0,B|13:117|13:117|45:57,1,135,2|0
25,37,47946,2,0,B|117:37,1,90,8|2
128,62,48267,1,0
140,86,48375,5,2
173,150,48589,1,0
140,214,48803,1,10
107,278,49017,1,2
120,303,49124,1,0
132,327,49231,1,2
200,351,49446,1,2
268,327,49660,1,14
336,351,49875,1,2
361,360,49982,1,0
386,369,50089,6,0,B|418:309|418:309|386:249,1,135,6|0
360,244,50517,2,0,B|340:204|340:204|360:164,1,90,8|2
393,110,50839,1,0
393,110,50946,2,0,B|361:142|361:142|257:142,1,135,2|0
250,124,51375,2,0,B|218:92|218:92|173:92,1,90,8|2
131,46,51696,1,0
131,46,51803,6,0,B|163:106|163:106|131:166,1,135,2|0
104,168,52232,2,0,B|82:207|82:207|104:247,1,90,8|2
170,262,52553,1,0
170,262,52660,2,0,B|192:301|192:301|170:341,1,90,2|2
26,358,53089,2,0,B|-7:299|-7:299|26:239,1,135,10|2
10,218,53518,5,0
34,230,53625,1,2
58,242,53732,1,2
82,230,53839,1,0
106,218,53946,1,10
58,164,54160,1,2
82,152,54267,1,2
106,140,54374,1,0
130,152,54482,1,2
154,164,54589,1,2
178,152,54696,1,0
202,140,54803,1,10
190,115,54910,1,0
178,90,55017,1,2
190,65,55125,1,2
202,40,55232,5,0
226,52,55339,1,2
250,64,55446,1,2
274,52,55553,1,0
298,40,55660,1,10
364,68,55875,1,2
388,56,55982,1,0
412,44,56089,1,2
424,68,56196,1,0
436,92,56303,1,2
424,116,56410,1,0
412,140,56517,1,10
424,164,56624,1,2
436,188,56732,1,2
448,212,56838,1,2
460,236,56946,5,6
436,304,57160,1,2
364,296,57375,1,10
348,304,57446,1,0
332,312,57517,1,0
316,320,57589,1,2
244,312,57803,2,0,B|200:328|200:328|160:312,1,90,0|2
52,376,58232,2,0,B|96:360|96:360|136:376,1,90,8|2
92,284,58660,5,2
80,160,58875,1,0
48,224,59089,1,10
36,100,59304,1,2
78,46,59517,2,0,B|110:78|110:78|154:78,1,90,2|2
170,68,59803,1,0
185,58,59875,1,0
200,49,59946,2,0,B|216:136,1,90,10|2
172,196,60375,6,0,B|212:220|212:220|252:204,1,90,2|2
262,214,60660,1,0
262,214,60732,1,0
262,214,60803,2,0,B|346:246,1,90,10|2
488,308,61232,2,0,B|448:332|448:332|408:316,1,90,2|2
418,326,61517,1,0
418,326,61589,1,0
418,326,61660,2,0,B|334:358,1,90,10|2
180,336,62089,6,0,B|264:304|264:304|228:280,2,135,2|2|2
62,339,62946,1,2
84,270,63160,1,0
180,336,63375,1,8
122,380,63589,1,0
157,270,63803,5,6
225,246,64017,1,2
293,222,64232,1,10
309,230,64303,1,0
325,238,64375,1,0
341,246,64446,1,2
400,288,64660,2,0,B|420:248|420:248|400:208,1,90,0|2
468,100,65089,2,0,B|448:140|448:140|468:180,1,90,8|2
376,136,65517,5,2
368,64,65732,1,0
320,180,65946,1,10
304,36,66161,1,2
312,108,66375,2,0,B|272:132|272:132|228:124,1,90,2|2
239,135,66660,1,0
239,135,66732,1,0
239,135,66803,2,0,B|226:223,1,90,10|2
132,332,67232,6,0,B|158:155,1,180,2|8
128,88,67875,1,2
120,72,67946,1,0
112,56,68017,1,0
104,40,68089,2,0,B|80:128,1,90,2|2
72,110,68374,1,0
64,94,68445,1,0
56,78,68517,2,0,B|32:166,1,90,10|0
80,212,68875,1,0
80,212,68946,5,2
366,330,69267,1,2
315,25,69589,1,2
452,24,70660,5,4
428,36,70767,1,0
388,96,70982,1,0
364,84,71089,1,0
344,16,71303,1,0
320,28,71410,1,0
296,40,71517,1,0
272,52,71624,1,0
232,112,71839,1,0
208,100,71946,1,0
144,68,72160,1,0
132,92,72267,1,0
120,116,72375,5,0
28,140,72589,1,0
40,116,72696,1,0
52,92,72804,1,0
88,180,73017,1,0
28,220,73232,1,0
16,244,73339,1,0
4,268,73446,1,0
16,292,73553,1,0
28,316,73660,1,0
88,360,73875,1,0
100,336,73982,1,0
112,312,74089,5,0
124,288,74196,1,0
172,224,74410,1,0
184,248,74517,1,0
220,336,74732,1,0
232,312,74839,1,0
244,288,74946,1,0
292,224,75160,1,0
304,248,75267,1,0
328,360,75482,1,0
340,336,75589,1,0
352,312,75696,1,0
364,288,75803,5,0
404,200,76018,1,0
416,224,76125,1,0
428,248,76232,1,0
488,288,76446,1,0
424,320,76660,1,0
400,308,76767,1,0
356,252,76982,1,0
380,240,77089,1,0
420,180,77303,1,0
396,168,77410,1,0
372,156,77517,5,4
324,76,77732,1,0
348,88,77839,1,4
328,212,78053,1,0
304,224,78160,1,0
280,236,78267,1,0
256,224,78375,1,0
232,212,78482,1,0
176,288,78696,1,0
200,276,78803,1,0
188,152,79017,1,0
164,164,79124,1,0
140,176,79232,5,4
92,96,79445,1,0
116,108,79553,1,4
72,200,79767,1,0
60,224,79874,1,0
48,248,79982,1,0
60,272,80089,1,0
72,296,80196,1,0
92,384,80410,1,0
104,360,80517,1,0
144,300,80732,1,0
168,312,80839,1,0
192,324,80946,5,4
256,356,81160,1,0
268,332,81267,1,4
368,172,81589,1,0
344,184,81696,1,0
320,196,81803,1,4
256,228,82017,1,0
244,204,82124,1,4
144,44,82446,1,0
168,56,82553,1,0
192,68,82660,5,0
228,36,82803,1,0
276,24,82946,1,0
324,32,83089,1,0
388,64,83303,1,0
412,52,83410,1,0
436,40,83517,2,0,B|412:128,1,90
422,136,83803,1,0
422,136,83875,1,0
422,136,83946,1,4
492,352,84375,6,0,B|476:368|476:368|408:368,1,90,6|0
388,352,84696,2,0,B|372:336|372:336|304:336,1,90,2|0
280,348,85017,1,2
256,360,85125,2,0,B|216:376|216:376|172:360,1,90,2|0
148,348,85446,1,2
124,360,85553,1,0
100,372,85660,1,2
28,364,85875,1,2
4,296,86089,5,0
16,272,86196,1,2
28,248,86303,1,2
4,180,86517,2,0,B|44:164|44:164|88:180,1,90,2|0
100,204,86839,2,0,B|140:220|140:220|184:204,1,90,2|0
196,180,87160,1,2
220,192,87267,1,0
244,204,87375,1,2
312,180,87589,1,2
380,204,87803,5,0
392,180,87910,1,2
404,156,88017,1,2
380,88,88232,2,0,B|340:72|340:72|296:88,1,90,2|0
284,112,88553,2,0,B|244:128|244:128|200:112,1,90,2|0
184,88,88875,1,2
160,100,88982,1,0
136,112,89089,1,2
68,88,89303,1,2
36,152,89517,5,0
24,176,89624,1,2
12,200,89731,1,2
36,268,89946,1,2
104,244,90160,1,2
116,268,90267,1,0
128,292,90374,1,2
88,352,90589,1,2
156,376,90803,1,2
180,364,90910,1,0
204,352,91017,1,2
240,288,91232,5,6
264,300,91339,1,0
288,312,91446,1,2
352,344,91660,2,0,B|368:328|368:328|368:260,1,90,2|0
344,248,91981,2,0,B|344:180|344:180|360:164,1,90,2|0
384,152,92303,1,2
408,140,92410,1,0
432,128,92517,2,0,B|448:88|448:88|432:44,1,90,2|2
364,20,92946,5,0
340,32,93053,1,2
316,44,93160,1,2
276,104,93375,2,0,B|260:144|260:144|276:188,1,90,2|0
300,200,93696,2,0,B|316:240|316:240|300:284,1,90,2|0
276,296,94017,1,2
208,272,94232,1,2
168,332,94446,1,2
100,308,94660,5,0
88,284,94767,1,2
76,260,94875,1,2
88,236,94982,1,0
100,212,95089,1,2
88,188,95196,1,0
76,164,95303,1,2
100,152,95410,1,2
124,140,95517,1,0
148,152,95625,1,2
172,164,95732,1,2
184,140,95839,1,0
196,116,95946,1,2
184,92,96053,1,0
172,68,96160,1,2
184,44,96267,1,0
196,20,96375,1,6
432,24,97232,5,0
256,92,97553,1,0
80,24,97875,1,2
56,36,97982,1,0
32,48,98089,6,0,B|12:88|12:88|32:128,1,90,6|0
56,140,98410,1,0
80,152,98517,2,0,B|100:192|100:192|80:232,1,90,8|2
52,292,98839,1,0
52,292,98946,2,0,B|84:324|84:324|176:324,1,135,2|0
196,308,99375,2,0,B|212:292|212:292|280:292,1,90,8|2
332,336,99696,1,0
332,336,99803,6,0,B|368:280|368:280|332:224,1,135,2|0
304,220,100232,2,0,B|284:180|284:180|304:140,1,90,8|2
328,128,100553,1,0
352,116,100660,1,2
424,124,100875,1,2
464,64,101089,2,0,B|432:32|432:32|336:32,1,135,10|2
320,16,101517,6,0,B|300:56|300:56|320:96,1,90,2|0
344,112,101839,1,0
368,124,101946,2,0,B|388:164|388:164|368:204,1,90,8|2
408,260,102267,1,0
408,260,102375,2,0,B|316:260|316:260|284:292,1,135,2|0
296,316,102803,2,0,B|264:348|264:348|220:348,1,90,8|2
196,336,103125,1,0
172,324,103232,5,2
104,348,103446,1,0
36,324,103660,1,10
12,256,103875,1,2
24,232,103982,1,0
36,208,104089,1,2
12,140,104303,1,2
36,72,104517,1,14
104,48,104732,1,2
128,60,104839,1,0
152,72,104946,6,0,B|192:92|192:92|232:72,1,90,6|0
256,60,105267,1,0
280,48,105374,2,0,B|320:27|320:27|360:48,1,90,12|2
424,28,105696,1,0
424,28,105803,2,0,B|392:88|392:88|424:148,1,135,2|0
449,157,106232,2,0,B|469:196|469:196|449:235,1,90,8|2
488,292,106553,1,0
488,292,106660,6,0,B|456:260|456:260|364:260,1,135,2|0
344,276,107089,2,0,B|328:292|328:292|260:292,1,90,8|2
248,316,107410,1,0
236,340,107517,1,2
172,372,107732,1,2
108,340,107946,2,0,B|76:280|76:280|108:220,1,135,10|2
96,196,108375,5,0
120,208,108482,1,2
144,220,108589,1,2
156,196,108696,1,0
168,172,108803,1,10
192,184,108911,1,0
216,196,109018,1,2
228,172,109125,1,2
240,148,109232,1,0
264,160,109339,1,2
288,172,109446,1,2
312,184,109553,1,0
336,196,109660,1,10
324,172,109767,1,0
312,148,109875,1,2
300,124,109982,1,2
288,100,110089,5,0
312,112,110197,1,2
336,124,110304,1,2
360,112,110410,1,0
384,100,110518,1,10
396,124,110625,1,0
408,148,110732,1,2
396,172,110839,1,2
384,196,110946,1,2
408,208,111053,1,0
432,220,111160,1,2
456,232,111267,1,0
480,244,111375,1,10
504,312,111589,1,2
480,324,111696,1,0
456,336,111803,6,0,B|408:360|408:360|360:336,1,108.000002574921,6|0
330,320,112125,1,0
300,304,112232,2,0,B|252:280|252:280|204:304,1,108.000002574921,8|2
176,320,112553,1,0
148,336,112660,2,0,B|112:264|112:264|148:192,1,162.000003862381,2|0
132,164,113089,2,0,B|240:164,1,108.000002574921,8|2
256,192,113410,1,0
272,220,113517,6,0,B|343:256|343:256|415:220,1,162.000003862381,2|0
448,228,113946,2,0,B|472:180|472:180|448:132,1,108.000002574921,8|2
416,140,114267,1,0
384,148,114375,2,0,B|360:100|360:100|384:52,1,108.000002574921,2|2
460,8,114803,2,0,B|384:36|384:36|308:8,1,162.000003862381,10|2
284,32,115232,6,0,B|284:140,1,108.000002574921,2|0
256,156,115553,1,0
228,172,115660,2,0,B|228:280,1,108.000002574921,8|2
256,296,115982,1,0
284,312,116089,2,0,B|248:348|248:348|136:348,1,162.000003862381,2|0
108,364,116517,2,0,B|84:316|84:316|108:268,1,108.000002574921,8|2
136,284,116839,1,0
164,300,116946,6,0,B|200:228|200:228|164:156,1,162.000003862381,2|0
108,188,117375,2,0,B|72:116|72:116|108:44,1,162.000003862381,2|2
164,76,117803,2,0,B|272:76,1,108.000002574921,2|2
296,52,118125,1,0
320,28,118232,2,0,B|428:28,1,108.000002574921,6|2
448,52,118553,1,0
468,76,118660,6,0,B|504:148|504:148|468:220,1,162.000003862381,6|0
488,248,119089,2,0,B|380:248,1,108.000002574921,12|2
408,312,119410,1,0
408,312,119517,2,0,B|300:312|300:312|260:352,1,162.000003862381,2|0
236,372,119946,2,0,B|124:372,1,108.000002574921,8|2
88,328,120267,5,0
88,328,120375,2,0,B|88:220|88:220|128:180,1,162.000003862381,2|0
108,156,120803,2,0,B|216:156,1,108.000002574921,8|2
244,172,121125,1,0
272,188,121232,2,0,B|380:188,1,108.000002574921,2|2
456,228,121660,2,0,B|492:156|492:156|456:84,1,162.000003862381,10|2
464,52,122089,5,0
436,68,122196,1,2
408,84,122303,1,2
380,68,122410,1,0
352,52,122517,1,10
324,68,122625,1,0
296,84,122732,1,2
268,68,122839,1,2
240,52,122946,1,0
224,80,123053,1,2
208,108,123160,1,2
192,136,123267,1,0
176,164,123375,1,10
192,192,123482,1,0
208,220,123589,1,2
224,248,123696,1,2
240,276,123803,5,0
212,292,123910,1,2
184,308,124017,1,2
156,324,124125,1,0
128,340,124232,1,10
100,324,124338,1,0
72,308,124446,1,2
44,292,124553,1,2
16,276,124660,1,2
32,248,124767,1,0
48,220,124875,1,2
32,192,124982,1,0
16,164,125089,1,10
32,136,125196,1,2
48,108,125303,1,2
32,80,125410,1,2
16,52,125517,5,4
80,16,125732,1,0
104,28,125839,1,0
128,96,126053,1,0
152,84,126160,1,0
176,72,126267,1,0
200,60,126374,1,0
264,24,126589,1,0
288,36,126696,1,0
312,104,126910,1,0
336,92,127017,1,0
360,80,127124,1,0
384,68,127231,5,0
452,92,127446,1,0
440,116,127553,1,0
428,140,127660,1,0
496,164,127875,1,0
444,212,128089,1,0
432,236,128196,1,0
420,260,128303,1,0
432,284,128410,1,0
444,308,128517,1,0
380,340,128732,5,0
356,352,128839,1,0
332,364,128946,1,4
268,332,129160,1,0
256,356,129267,1,4
132,212,129589,1,0
156,224,129696,1,0
180,236,129803,1,4
244,204,130017,1,0
256,228,130124,1,4
380,84,130446,5,0
356,96,130553,1,0
332,108,130660,1,4
268,76,130874,1,0
256,100,130981,1,4
192,68,131196,1,0
168,80,131303,1,0
144,92,131410,1,0
120,80,131517,1,0
96,68,131624,1,4
48,148,131839,1,0
72,136,131946,2,0,B|40:312,1,180,4|0
