osu file format v12

[General]
AudioFilename: Avalon Hill.mp3
AudioLeadIn: 0
PreviewTime: 72739
Countdown: 0
SampleSet: None
StackLeniency: 0.7
Mode: 1
LetterboxInBreaks: 0
WidescreenStoryboard: 0

[Editor]
DistanceSpacing: 1
BeatDivisor: 3
GridSize: 4
TimelineZoom: 1

[Metadata]
Title:Avalon no Oka
TitleUnicode:アヴァロンの丘
Artist:Nekomata Master
ArtistUnicode:猫叉Master
Creator:TaMul
Version:Oni
Source:Reflec Beat Groovin
Tags:
BeatmapID:436306
BeatmapSetID:181798

[Difficulty]
HPDrainRate:6
CircleSize:4
OverallDifficulty:6
ApproachRate:6
SliderMultiplier:1.4
SliderTickRate:1

[Events]
//Background and Video events
0,0,"343680-1366x768.jpg",0,90
//Break Periods
//Storyboard Layer 0 (Background)
//Storyboard Layer 1 (Fail)
//Storyboard Layer 2 (Pass)
//Storyboard Layer 3 (Foreground)
//Storyboard Sound Samples
//Background Colour Transformations
3,100,163,162,255

[TimingPoints]
2878,379.746835443038,4,2,1,100,1,0
72751,-100,4,2,1,100,0,1
84143,-100,4,2,1,100,0,0
84903,-100,4,2,1,100,0,1
97055,-100,4,2,1,100,0,0

[HitObjects]
172,172,5915,5,0,0:0:0:0:
172,172,6295,1,0,0:0:0:0:
172,172,6675,1,0,0:0:0:0:
172,172,7055,1,0,0:0:0:0:
172,172,7434,1,0,0:0:0:0:
172,172,7814,1,0,0:0:0:0:
172,172,8194,1,0,0:0:0:0:
172,172,8574,1,0,0:0:0:0:
172,172,8953,1,0,0:0:0:0:
172,172,9333,1,0,0:0:0:0:
172,172,9713,1,0,0:0:0:0:
172,172,10093,1,0,0:0:0:0:
172,172,10472,1,0,0:0:0:0:
172,172,10852,1,0,0:0:0:0:
172,172,11232,1,0,0:0:0:0:
172,172,11612,1,0,0:0:0:0:
172,172,11991,1,0,0:0:0:0:
172,172,12245,1,0,0:0:0:0:
172,172,12371,1,8,0:0:0:0:
172,172,12624,1,0,0:0:0:0:
172,172,12751,1,0,0:0:0:0:
172,172,13004,1,0,0:0:0:0:
172,172,13131,1,8,0:0:0:0:
172,172,13510,1,0,0:0:0:0:
172,172,13764,1,0,0:0:0:0:
172,172,13890,1,8,0:0:0:0:
172,172,14143,1,8,0:0:0:0:
172,172,14270,1,0,0:0:0:0:
172,172,14523,1,0,0:0:0:0:
172,172,14650,1,8,0:0:0:0:
172,172,15029,1,0,0:0:0:0:
172,172,15283,1,0,0:0:0:0:
172,172,15409,1,8,0:0:0:0:
172,172,15662,1,8,0:0:0:0:
172,172,15789,1,0,0:0:0:0:
172,172,16042,1,0,0:0:0:0:
172,172,16169,1,8,0:0:0:0:
172,172,16548,1,0,0:0:0:0:
172,172,16675,1,8,0:0:0:0:
172,172,16802,1,8,0:0:0:0:
172,172,16928,1,8,0:0:0:0:
172,172,17055,1,0,0:0:0:0:
172,172,17181,1,8,0:0:0:0:
172,172,17308,1,8,0:0:0:0:
172,172,17434,1,0,0:0:0:0:
172,172,17561,1,0,0:0:0:0:
172,172,17688,1,8,0:0:0:0:
172,172,18067,1,4,0:0:0:0:
172,172,18700,1,0,0:0:0:0:
172,172,18827,1,4,0:0:0:0:
172,172,19207,1,4,0:0:0:0:
172,172,19586,1,8,0:0:0:0:
172,172,19713,1,0,0:0:0:0:
172,172,19840,1,0,0:0:0:0:
172,172,19966,1,8,0:0:0:0:
172,172,20093,1,0,0:0:0:0:
172,172,20219,1,0,0:0:0:0:
172,172,20346,1,0,0:0:0:0:
172,172,20726,1,4,0:0:0:0:
172,172,21105,1,4,0:0:0:0:
172,172,21359,1,0,0:0:0:0:
172,172,21485,1,8,0:0:0:0:
172,172,21738,1,0,0:0:0:0:
172,172,21865,1,0,0:0:0:0:
172,172,22118,1,0,0:0:0:0:
172,172,22245,1,0,0:0:0:0:
172,172,22371,1,8,0:0:0:0:
172,172,22498,1,0,0:0:0:0:
172,172,22624,1,8,0:0:0:0:
172,172,22878,1,0,0:0:0:0:
172,172,23004,1,8,0:0:0:0:
172,172,23257,1,0,0:0:0:0:
172,172,23384,1,8,0:0:0:0:
172,172,23510,1,0,0:0:0:0:
172,172,23637,1,0,0:0:0:0:
172,172,23764,1,8,0:0:0:0:
172,172,23890,1,0,0:0:0:0:
172,172,24017,1,0,0:0:0:0:
172,172,24143,1,0,0:0:0:0:
172,172,24270,1,8,0:0:0:0:
172,172,24396,1,8,0:0:0:0:
172,172,24523,1,8,0:0:0:0:
172,172,24903,1,8,0:0:0:0:
172,172,25029,1,0,0:0:0:0:
172,172,25156,1,0,0:0:0:0:
172,172,25283,1,8,0:0:0:0:
172,172,25536,1,8,0:0:0:0:
172,172,25662,1,0,0:0:0:0:
172,172,25789,1,0,0:0:0:0:
172,172,25915,1,0,0:0:0:0:
172,172,26042,1,8,0:0:0:0:
172,172,26169,1,0,0:0:0:0:
172,172,26295,1,0,0:0:0:0:
172,172,26422,1,0,0:0:0:0:
172,172,26548,1,8,0:0:0:0:
172,172,26675,1,0,0:0:0:0:
172,172,26802,1,8,0:0:0:0:
172,172,27181,1,0,0:0:0:0:
172,172,27308,1,8,0:0:0:0:
172,172,27434,1,8,0:0:0:0:
172,172,27561,1,8,0:0:0:0:
172,172,27814,1,0,0:0:0:0:
172,172,27941,1,8,0:0:0:0:
172,172,28321,1,8,0:0:0:0:
172,172,28447,1,0,0:0:0:0:
172,172,28574,1,0,0:0:0:0:
172,172,28700,1,8,0:0:0:0:
172,172,28953,1,0,0:0:0:0:
172,172,29080,1,8,0:0:0:0:
172,172,29207,1,0,0:0:0:0:
172,172,29333,1,0,0:0:0:0:
172,172,29460,1,8,0:0:0:0:
172,172,29586,1,0,0:0:0:0:
172,172,29713,1,0,0:0:0:0:
172,172,29840,1,8,0:0:0:0:
172,172,29966,1,0,0:0:0:0:
172,172,30093,1,8,0:0:0:0:
172,172,30219,1,0,0:0:0:0:
172,172,30346,1,8,0:0:0:0:
172,172,30472,1,8,0:0:0:0:
172,172,30599,1,8,0:0:0:0:
172,172,30979,1,0,0:0:0:0:
172,172,31105,1,0,0:0:0:0:
172,172,31232,1,0,0:0:0:0:
172,172,31359,1,8,0:0:0:0:
172,172,31485,1,8,0:0:0:0:
172,172,31612,1,8,0:0:0:0:
172,172,31738,1,0,0:0:0:0:
172,172,31865,1,0,0:0:0:0:
172,172,31991,1,0,0:0:0:0:
172,172,32118,1,8,0:0:0:0:
172,172,32245,1,8,0:0:0:0:
172,172,32371,1,8,0:0:0:0:
172,172,32498,1,0,0:0:0:0:
172,172,32624,1,8,0:0:0:0:
172,172,32751,1,0,0:0:0:0:
172,172,32878,1,8,0:0:0:0:
172,172,33004,1,0,0:0:0:0:
172,172,33131,1,8,0:0:0:0:
172,172,33257,1,0,0:0:0:0:
172,172,33637,1,0,0:0:0:0:
172,172,34017,1,0,0:0:0:0:
172,172,34650,1,0,0:0:0:0:
172,172,34776,1,8,0:0:0:0:
172,172,35156,1,8,0:0:0:0:
172,172,35283,1,0,0:0:0:0:
172,172,35409,1,8,0:0:0:0:
172,172,35536,1,0,0:0:0:0:
172,172,35915,1,0,0:0:0:0:
172,172,36169,1,0,0:0:0:0:
172,172,36295,1,8,0:0:0:0:
172,172,36675,1,8,0:0:0:0:
172,172,36802,1,0,0:0:0:0:
172,172,36928,1,8,0:0:0:0:
172,172,37055,1,0,0:0:0:0:
172,172,37434,1,0,0:0:0:0:
172,172,37688,1,0,0:0:0:0:
172,172,37814,1,8,0:0:0:0:
172,172,38194,1,8,0:0:0:0:
172,172,38321,1,0,0:0:0:0:
172,172,38447,1,8,0:0:0:0:
172,172,38574,1,0,0:0:0:0:
172,172,38827,1,0,0:0:0:0:
172,172,38953,1,0,0:0:0:0:
172,172,39333,1,4,0:0:0:0:
172,172,39713,1,0,0:0:0:0:
172,172,40093,1,0,0:0:0:0:
172,172,40219,1,8,0:0:0:0:
172,172,40346,1,0,0:0:0:0:
172,172,40472,1,8,0:0:0:0:
172,172,40852,1,0,0:0:0:0:
172,172,40979,1,8,0:0:0:0:
172,172,41105,1,8,0:0:0:0:
172,172,41232,1,8,0:0:0:0:
172,172,41359,1,0,0:0:0:0:
172,172,41485,1,8,0:0:0:0:
172,172,41612,1,8,0:0:0:0:
172,172,41865,1,0,0:0:0:0:
172,172,41991,1,8,0:0:0:0:
172,172,42245,1,0,0:0:0:0:
172,172,42371,1,8,0:0:0:0:
172,172,42624,1,8,0:0:0:0:
172,172,42751,1,0,0:0:0:0:
172,172,43131,1,0,0:0:0:0:
172,172,43257,1,0,0:0:0:0:
172,172,43384,1,0,0:0:0:0:
172,172,43510,1,8,0:0:0:0:
172,172,43764,1,0,0:0:0:0:
172,172,43890,1,0,0:0:0:0:
172,172,44017,1,8,0:0:0:0:
172,172,44143,1,0,0:0:0:0:
172,172,44270,1,8,0:0:0:0:
172,172,44650,1,8,0:0:0:0:
172,172,45029,1,0,0:0:0:0:
172,172,45283,1,0,0:0:0:0:
172,172,45409,1,8,0:0:0:0:
172,172,45662,1,8,0:0:0:0:
172,172,45789,1,8,0:0:0:0:
172,172,45915,1,0,0:0:0:0:
172,172,46042,1,8,0:0:0:0:
172,172,46169,1,0,0:0:0:0:
172,172,46422,1,0,0:0:0:0:
172,172,46548,1,0,0:0:0:0:
172,172,46802,1,0,0:0:0:0:
172,172,46928,1,8,0:0:0:0:
172,172,47308,1,0,0:0:0:0:
172,172,47434,1,0,0:0:0:0:
172,172,47561,1,0,0:0:0:0:
172,172,47688,1,8,0:0:0:0:
172,172,48067,1,8,0:0:0:0:
172,172,48321,1,0,0:0:0:0:
172,172,48447,1,8,0:0:0:0:
172,172,48827,1,8,0:0:0:0:
172,172,48953,1,0,0:0:0:0:
172,172,49080,1,8,0:0:0:0:
172,172,49207,1,0,0:0:0:0:
172,172,49586,1,0,0:0:0:0:
172,172,49840,1,0,0:0:0:0:
172,172,49966,1,8,0:0:0:0:
172,172,50219,1,0,0:0:0:0:
172,172,50346,1,0,0:0:0:0:
172,172,50472,1,8,0:0:0:0:
172,172,50599,1,0,0:0:0:0:
172,172,50726,1,8,0:0:0:0:
172,172,51105,1,8,0:0:0:0:
172,172,51485,1,4,0:0:0:0:
172,172,51738,1,0,0:0:0:0:
172,172,51865,1,8,0:0:0:0:
172,172,52118,1,0,0:0:0:0:
172,172,52245,1,0,0:0:0:0:
172,172,52498,1,0,0:0:0:0:
172,172,52624,1,8,0:0:0:0:
172,172,52878,1,8,0:0:0:0:
172,172,53004,1,0,0:0:0:0:
172,172,53131,1,8,0:0:0:0:
172,172,53257,1,8,0:0:0:0:
172,172,53384,1,0,0:0:0:0:
172,172,53637,1,0,0:0:0:0:
172,172,53764,1,8,0:0:0:0:
172,172,53890,1,8,0:0:0:0:
172,172,54017,1,0,0:0:0:0:
172,172,54143,1,8,0:0:0:0:
172,172,54396,1,0,0:0:0:0:
172,172,54523,1,8,0:0:0:0:
172,172,54776,1,8,0:0:0:0:
172,172,54903,1,0,0:0:0:0:
172,172,55156,1,0,0:0:0:0:
172,172,55283,1,0,0:0:0:0:
172,172,55536,1,0,0:0:0:0:
172,172,55662,1,0,0:0:0:0:
172,172,55915,1,0,0:0:0:0:
172,172,56042,1,8,0:0:0:0:
172,172,56169,1,0,0:0:0:0:
172,172,56295,1,0,0:0:0:0:
172,172,56422,1,8,0:0:0:0:
172,172,56802,1,8,0:0:0:0:
172,172,56928,1,0,0:0:0:0:
172,172,57055,1,0,0:0:0:0:
172,172,57181,1,8,0:0:0:0:
172,172,57561,1,4,0:0:0:0:
172,172,58321,1,0,0:0:0:0:
172,172,58700,1,8,0:0:0:0:
172,172,58953,1,0,0:0:0:0:
172,172,59080,1,8,0:0:0:0:
172,172,59333,1,8,0:0:0:0:
172,172,59460,1,0,0:0:0:0:
172,172,59713,1,0,0:0:0:0:
172,172,59840,1,8,0:0:0:0:
172,172,59966,1,8,0:0:0:0:
172,172,60093,1,0,0:0:0:0:
172,172,60219,1,8,0:0:0:0:
172,172,60599,1,4,0:0:0:0:
172,172,61359,1,0,0:0:0:0:
172,172,61738,1,8,0:0:0:0:
172,172,61991,1,0,0:0:0:0:
172,172,62118,1,8,0:0:0:0:
172,172,62371,1,8,0:0:0:0:
172,172,62498,1,0,0:0:0:0:
172,172,62751,1,0,0:0:0:0:
172,172,62878,1,8,0:0:0:0:
172,172,63004,1,8,0:0:0:0:
172,172,63131,1,0,0:0:0:0:
172,172,63257,1,8,0:0:0:0:
172,172,63510,1,0,0:0:0:0:
172,172,63637,1,0,0:0:0:0:
172,172,63890,1,0,0:0:0:0:
172,172,64017,1,8,0:0:0:0:
172,172,64270,1,0,0:0:0:0:
172,172,64396,1,8,0:0:0:0:
172,172,64776,1,8,0:0:0:0:
172,172,64903,1,0,0:0:0:0:
172,172,65029,1,0,0:0:0:0:
172,172,65156,1,8,0:0:0:0:
172,172,65536,1,8,0:0:0:0:
172,172,65915,1,8,0:0:0:0:
172,172,66042,1,0,0:0:0:0:
172,172,66169,1,0,0:0:0:0:
172,172,66295,1,8,0:0:0:0:
172,172,66548,1,0,0:0:0:0:
172,172,66675,1,8,0:0:0:0:
172,172,66928,1,8,0:0:0:0:
172,172,67055,1,0,0:0:0:0:
172,172,67308,1,0,0:0:0:0:
172,172,67434,1,8,0:0:0:0:
172,172,67561,1,0,0:0:0:0:
172,172,67688,1,0,0:0:0:0:
172,172,67814,1,8,0:0:0:0:
256,192,68194,12,8,69333,0:0:0:0:
176,148,69713,5,0,0:0:0:0:
176,148,70093,1,0,0:0:0:0:
176,148,70472,1,0,0:0:0:0:
176,148,70852,1,0,0:0:0:0:
176,148,71232,1,0,0:0:0:0:
176,148,71359,1,0,0:0:0:0:
176,148,71485,1,0,0:0:0:0:
176,148,71612,1,8,0:0:0:0:
176,148,71865,1,0,0:0:0:0:
176,148,71991,1,8,0:0:0:0:
176,148,72118,1,0,0:0:0:0:
176,148,72245,1,0,0:0:0:0:
176,148,72371,1,8,0:0:0:0:
176,148,72751,1,0,0:0:0:0:
176,148,72878,1,8,0:0:0:0:
176,148,73004,1,8,0:0:0:0:
176,148,73131,1,8,0:0:0:0:
176,148,73384,1,0,0:0:0:0:
176,148,73510,1,8,0:0:0:0:
176,148,73764,1,0,0:0:0:0:
176,148,73890,1,8,0:0:0:0:
176,148,74270,1,0,0:0:0:0:
176,148,74396,1,0,0:0:0:0:
176,148,74523,1,8,0:0:0:0:
176,148,74650,1,8,0:0:0:0:
176,148,74903,1,0,0:0:0:0:
176,148,75029,1,8,0:0:0:0:
176,148,75283,1,0,0:0:0:0:
176,148,75409,1,8,0:0:0:0:
176,148,75789,1,0,0:0:0:0:
176,148,75915,1,0,0:0:0:0:
176,148,76042,1,0,0:0:0:0:
176,148,76169,1,8,0:0:0:0:
176,148,76422,1,0,0:0:0:0:
176,148,76548,1,8,0:0:0:0:
176,148,76928,1,8,0:0:0:0:
176,148,77308,1,0,0:0:0:0:
176,148,77561,1,0,0:0:0:0:
176,148,77688,1,8,0:0:0:0:
176,148,77814,1,0,0:0:0:0:
176,148,77941,1,0,0:0:0:0:
176,148,78067,1,8,0:0:0:0:
176,148,78321,1,0,0:0:0:0:
176,148,78447,1,8,0:0:0:0:
176,148,78827,1,0,0:0:0:0:
176,148,79207,1,8,0:0:0:0:
176,148,79333,1,0,0:0:0:0:
176,148,79460,1,0,0:0:0:0:
176,148,79586,1,8,0:0:0:0:
176,148,79840,1,0,0:0:0:0:
176,148,79966,1,8,0:0:0:0:
176,148,80093,1,0,0:0:0:0:
176,148,80219,1,0,0:0:0:0:
176,148,80346,1,8,0:0:0:0:
176,148,80472,1,8,0:0:0:0:
176,148,80599,1,8,0:0:0:0:
176,148,80726,1,0,0:0:0:0:
176,148,80979,1,0,0:0:0:0:
176,148,81105,1,8,0:0:0:0:
176,148,81359,1,8,0:0:0:0:
176,148,81485,1,0,0:0:0:0:
176,148,81738,1,0,0:0:0:0:
176,148,81865,1,4,0:0:0:0:
176,148,82498,1,0,0:0:0:0:
176,148,82624,1,4,0:0:0:0:
176,148,83004,1,0,0:0:0:0:
176,148,83131,1,0,0:0:0:0:
176,148,83257,1,0,0:0:0:0:
176,148,83384,1,8,0:0:0:0:
176,148,83764,1,8,0:0:0:0:
176,148,83890,1,0,0:0:0:0:
176,148,84017,1,0,0:0:0:0:
176,148,84143,1,8,0:0:0:0:
176,148,84396,1,8,0:0:0:0:
176,148,84523,1,0,0:0:0:0:
176,148,84776,1,0,0:0:0:0:
176,148,84903,1,0,0:0:0:0:
176,148,85029,1,8,0:0:0:0:
176,148,85030,1,8,0:0:0:0:
176,148,85156,1,8,0:0:0:0:
176,148,85283,1,8,0:0:0:0:
176,148,85536,1,0,0:0:0:0:
176,148,85662,1,8,0:0:0:0:
176,148,85916,1,0,0:0:0:0:
176,148,86042,1,8,0:0:0:0:
176,148,86422,1,0,0:0:0:0:
176,148,86548,1,0,0:0:0:0:
176,148,86675,1,8,0:0:0:0:
176,148,86802,1,8,0:0:0:0:
176,148,87055,1,0,0:0:0:0:
176,148,87181,1,8,0:0:0:0:
176,148,87435,1,0,0:0:0:0:
176,148,87561,1,8,0:0:0:0:
176,148,87941,1,0,0:0:0:0:
176,148,88067,1,0,0:0:0:0:
176,148,88194,1,0,0:0:0:0:
176,148,88321,1,8,0:0:0:0:
176,148,88574,1,0,0:0:0:0:
176,148,88700,1,8,0:0:0:0:
176,148,89080,1,8,0:0:0:0:
176,148,89460,1,0,0:0:0:0:
176,148,89713,1,0,0:0:0:0:
176,148,89840,1,8,0:0:0:0:
176,148,89966,1,0,0:0:0:0:
176,148,90093,1,0,0:0:0:0:
176,148,90219,1,8,0:0:0:0:
176,148,90473,1,0,0:0:0:0:
176,148,90599,1,8,0:0:0:0:
176,148,90979,1,0,0:0:0:0:
176,148,91359,1,8,0:0:0:0:
176,148,91485,1,0,0:0:0:0:
176,148,91612,1,0,0:0:0:0:
176,148,91738,1,8,0:0:0:0:
176,148,91992,1,0,0:0:0:0:
176,148,92118,1,8,0:0:0:0:
176,148,92245,1,0,0:0:0:0:
176,148,92371,1,0,0:0:0:0:
176,148,92498,1,8,0:0:0:0:
176,148,92624,1,8,0:0:0:0:
176,148,92751,1,8,0:0:0:0:
176,148,92878,1,0,0:0:0:0:
176,148,93131,1,0,0:0:0:0:
176,148,93257,1,8,0:0:0:0:
176,148,93511,1,8,0:0:0:0:
176,148,93637,1,0,0:0:0:0:
176,148,93890,1,0,0:0:0:0:
176,148,94017,1,4,0:0:0:0:
176,148,94650,1,0,0:0:0:0:
176,148,94776,1,4,0:0:0:0:
176,148,95156,1,0,0:0:0:0:
176,148,95283,1,0,0:0:0:0:
176,148,95409,1,0,0:0:0:0:
176,148,95536,1,8,0:0:0:0:
176,148,95916,1,8,0:0:0:0:
176,148,96042,1,0,0:0:0:0:
176,148,96169,1,0,0:0:0:0:
176,148,96295,1,8,0:0:0:0:
176,148,96548,1,8,0:0:0:0:
176,148,96675,1,0,0:0:0:0:
176,148,96928,1,0,0:0:0:0:
256,192,97055,12,0,98194,0:0:0:0:
172,204,98574,5,0,0:0:0:0:
172,204,98827,1,0,0:0:0:0:
172,204,98953,1,0,0:0:0:0:
172,204,99080,1,8,0:0:0:0:
172,204,99207,1,0,0:0:0:0:
172,204,99333,1,0,0:0:0:0:
172,204,99460,1,8,0:0:0:0:
172,204,99586,1,0,0:0:0:0:
172,204,99713,1,8,0:0:0:0:
172,204,99966,1,0,0:0:0:0:
172,204,100093,1,8,0:0:0:0:
172,204,100346,1,0,0:0:0:0:
172,204,100472,1,0,0:0:0:0:
172,204,100599,1,0,0:0:0:0:
172,204,100726,1,0,0:0:0:0:
172,204,100852,1,8,0:0:0:0:
172,204,101105,1,0,0:0:0:0:
172,204,101232,1,8,0:0:0:0:
172,204,101612,1,0,0:0:0:0:
172,204,101738,1,8,0:0:0:0:
172,204,101865,1,8,0:0:0:0:
172,204,101991,1,8,0:0:0:0:
172,204,102118,1,0,0:0:0:0:
172,204,102245,1,8,0:0:0:0:
172,204,102371,1,8,0:0:0:0:
172,204,102624,1,0,0:0:0:0:
172,204,102751,1,8,0:0:0:0:
172,204,103131,1,8,0:0:0:0:
172,204,103384,1,0,0:0:0:0:
172,204,103510,1,8,0:0:0:0:
172,204,103764,1,0,0:0:0:0:
172,204,103890,1,8,0:0:0:0:
172,204,104017,1,8,0:0:0:0:
172,204,104143,1,0,0:0:0:0:
172,204,104270,1,8,0:0:0:0:
172,204,104523,1,0,0:0:0:0:
172,204,104650,1,8,0:0:0:0:
172,204,104903,1,0,0:0:0:0:
172,204,105029,1,8,0:0:0:0:
172,204,105283,1,0,0:0:0:0:
172,204,105409,1,8,0:0:0:0:
172,204,105536,1,8,0:0:0:0:
172,204,105662,1,0,0:0:0:0:
172,204,105789,1,8,0:0:0:0:
172,204,106042,1,0,0:0:0:0:
172,204,106169,1,8,0:0:0:0:
172,204,106422,1,0,0:0:0:0:
172,204,106548,1,0,0:0:0:0:
172,204,106675,1,0,0:0:0:0:
172,204,106802,1,8,0:0:0:0:
172,204,106928,1,8,0:0:0:0:
172,204,107055,1,0,0:0:0:0:
172,204,107181,1,0,0:0:0:0:
172,204,107308,1,8,0:0:0:0:
172,204,107561,1,0,0:0:0:0:
172,204,107688,1,0,0:0:0:0:
172,204,107814,1,8,0:0:0:0:
172,204,107941,1,8,0:0:0:0:
172,204,108067,1,8,0:0:0:0:
172,204,108194,1,0,0:0:0:0:
172,204,108321,1,8,0:0:0:0:
172,204,108447,1,8,0:0:0:0:
172,204,108700,1,8,0:0:0:0:
172,204,108827,1,0,0:0:0:0:
172,204,109080,1,0,0:0:0:0:
172,204,109207,1,4,0:0:0:0:
172,204,109966,1,4,0:0:0:0:
172,204,110346,1,0,0:0:0:0:
172,204,110472,1,0,0:0:0:0:
172,204,110599,1,0,0:0:0:0:
172,204,110726,1,0,0:0:0:0:
172,204,111105,1,0,0:0:0:0:
172,204,111232,1,0,0:0:0:0:
172,204,111359,1,0,0:0:0:0:
172,204,111485,1,8,0:0:0:0:
172,204,111612,1,0,0:0:0:0:
172,204,111738,1,0,0:0:0:0:
172,204,111865,1,8,0:0:0:0:
172,204,112245,1,0,0:0:0:0:
172,204,112371,1,8,0:0:0:0:
172,204,112498,1,8,0:0:0:0:
172,204,112624,1,8,0:0:0:0:
172,204,113004,1,8,0:0:0:0:
172,204,113257,1,0,0:0:0:0:
172,204,113384,1,8,0:0:0:0:
172,204,113510,1,0,0:0:0:0:
172,204,113637,1,8,0:0:0:0:
172,204,113764,1,0,0:0:0:0:
172,204,113890,1,0,0:0:0:0:
172,204,114017,1,0,0:0:0:0:
172,204,114143,1,8,0:0:0:0:
172,204,114270,1,8,0:0:0:0:
172,204,114396,1,8,0:0:0:0:
172,204,114523,1,0,0:0:0:0:
172,204,114776,1,0,0:0:0:0:
172,204,114903,1,12,0:0:0:0:
