osu file format v12

[General]
AudioFilename: Avalon Hill.mp3
AudioLeadIn: 0
PreviewTime: 72739
Countdown: 0
SampleSet: Soft
StackLeniency: 0.7
Mode: 1
LetterboxInBreaks: 0
WidescreenStoryboard: 0

[Editor]
DistanceSpacing: 1
BeatDivisor: 3
GridSize: 4
TimelineZoom: 1

[Metadata]
Title:Avalon no Oka
TitleUnicode:アヴァロンの丘
Artist:Nekomata Master
ArtistUnicode:猫叉Master
Creator:TaMul
Version:Muzukashii
Source:Reflec Beat Groovin
Tags:
BeatmapID:436236
BeatmapSetID:181798

[Difficulty]
HPDrainRate:5
CircleSize:4
OverallDifficulty:5
ApproachRate:5
SliderMultiplier:1.4
SliderTickRate:1

[Events]
//Background and Video events
0,0,"343680-1366x768.jpg",0,90
//Break Periods
//Storyboard Layer 0 (Background)
//Storyboard Layer 1 (Fail)
//Storyboard Layer 2 (Pass)
//Storyboard Layer 3 (Foreground)
//Storyboard Sound Samples
//Background Colour Transformations
3,100,163,162,255

[TimingPoints]
2878,379.746835443038,4,2,1,100,1,0
72751,-100,4,2,1,100,0,1
84143,-100,4,2,1,100,0,0
84903,-100,4,2,1,100,0,1
97055,-100,4,2,1,100,0,0

[HitObjects]
256,192,5915,5,0,0:0:0:0:
256,192,6295,1,0,0:0:0:0:
256,192,6675,1,0,0:0:0:0:
256,192,7055,1,0,0:0:0:0:
256,192,7434,1,0,0:0:0:0:
256,192,7814,1,0,0:0:0:0:
256,192,8194,1,0,0:0:0:0:
256,192,8574,1,0,0:0:0:0:
256,192,8953,1,0,0:0:0:0:
256,192,9333,1,0,0:0:0:0:
256,192,9713,1,0,0:0:0:0:
256,192,10093,1,0,0:0:0:0:
256,192,10473,1,0,0:0:0:0:
256,192,10852,1,0,0:0:0:0:
256,192,11232,1,0,0:0:0:0:
256,192,11612,1,0,0:0:0:0:
256,192,11992,1,0,0:0:0:0:
256,192,12371,1,8,0:0:0:0:
256,192,12751,1,0,0:0:0:0:
256,192,13130,1,8,0:0:0:0:
256,192,13510,1,0,0:0:0:0:
256,192,13889,1,8,0:0:0:0:
256,192,14269,1,0,0:0:0:0:
256,192,14648,1,8,0:0:0:0:
256,192,15029,1,0,0:0:0:0:
256,192,15408,1,8,0:0:0:0:
256,192,15788,1,0,0:0:0:0:
256,192,16167,1,8,0:0:0:0:
256,192,16548,1,0,0:0:0:0:
256,192,16927,1,8,0:0:0:0:
256,192,17307,1,8,0:0:0:0:
256,192,17686,1,8,0:0:0:0:
256,192,18067,1,4,0:0:0:0:
256,192,19207,1,0,0:0:0:0:
256,192,19586,1,4,0:0:0:0:
256,192,20346,1,4,0:0:0:0:
256,192,21105,1,0,0:0:0:0:
256,192,21485,1,8,0:0:0:0:
256,192,22245,1,8,0:0:0:0:
256,192,22624,1,0,0:0:0:0:
256,192,23004,1,8,0:0:0:0:
256,192,23384,1,0,0:0:0:0:
256,192,23510,1,0,0:0:0:0:
256,192,23637,1,0,0:0:0:0:
256,192,23764,1,8,0:0:0:0:
256,192,24143,1,0,0:0:0:0:
256,192,24523,1,8,0:0:0:0:
256,192,25283,1,8,0:0:0:0:
256,192,25662,1,0,0:0:0:0:
256,192,26042,1,8,0:0:0:0:
256,192,26422,1,8,0:0:0:0:
256,192,26548,1,0,0:0:0:0:
256,192,26675,1,0,0:0:0:0:
256,192,26802,1,8,0:0:0:0:
256,192,27181,1,0,0:0:0:0:
256,192,27561,1,8,0:0:0:0:
256,192,28321,1,8,0:0:0:0:
256,192,28700,1,0,0:0:0:0:
256,192,29080,1,8,0:0:0:0:
256,192,29460,1,0,0:0:0:0:
256,192,29586,1,0,0:0:0:0:
256,192,29713,1,0,0:0:0:0:
256,192,29840,1,8,0:0:0:0:
256,192,30219,1,0,0:0:0:0:
256,192,30599,1,8,0:0:0:0:
256,192,31359,1,8,0:0:0:0:
256,192,31738,1,0,0:0:0:0:
256,192,32118,1,8,0:0:0:0:
256,192,32498,1,8,0:0:0:0:
256,192,32624,1,0,0:0:0:0:
256,192,32751,1,0,0:0:0:0:
256,192,32878,1,8,0:0:0:0:
256,192,33257,1,4,0:0:0:0:
256,192,33637,1,4,0:0:0:0:
256,192,34017,1,4,0:0:0:0:
256,192,34776,1,8,0:0:0:0:
256,192,35536,1,8,0:0:0:0:
256,192,35915,1,8,0:0:0:0:
256,192,36295,1,4,0:0:0:0:
256,192,36675,1,4,0:0:0:0:
256,192,37055,1,4,0:0:0:0:
256,192,37814,1,8,0:0:0:0:
256,192,38574,1,0,0:0:0:0:
256,192,38953,1,0,0:0:0:0:
256,192,39333,1,4,0:0:0:0:
256,192,39713,1,4,0:0:0:0:
256,192,40093,1,12,0:0:0:0:
256,192,40472,1,12,0:0:0:0:
256,192,40852,1,0,0:0:0:0:
256,192,41232,1,8,0:0:0:0:
256,192,41485,1,0,0:0:0:0:
256,192,41612,1,0,0:0:0:0:
256,192,41865,1,8,0:0:0:0:
256,192,41991,1,8,0:0:0:0:
256,192,42371,1,0,0:0:0:0:
256,192,42751,1,0,0:0:0:0:
256,192,43131,1,0,0:0:0:0:
256,192,43510,1,0,0:0:0:0:
256,192,43890,1,12,0:0:0:0:
256,192,44650,1,8,0:0:0:0:
256,192,44776,1,0,0:0:0:0:
256,192,44903,1,0,0:0:0:0:
256,192,45029,1,8,0:0:0:0:
256,192,45409,1,0,0:0:0:0:
256,192,45789,1,0,0:0:0:0:
256,192,46169,1,8,0:0:0:0:
172,288,46928,2,8,P|152:184|392:152,1,420
256,192,48447,1,0,0:0:0:0:
256,192,48827,1,0,0:0:0:0:
256,192,49207,1,8,0:0:0:0:
172,96,49966,2,8,P|152:200|392:232,1,420
280,172,51485,1,4,0:0:0:0:
280,172,51865,1,0,0:0:0:0:
280,172,52245,1,0,0:0:0:0:
280,172,52624,1,8,0:0:0:0:
280,172,53004,1,0,0:0:0:0:
280,172,53384,1,8,0:0:0:0:
280,172,53764,1,8,0:0:0:0:
280,172,54143,1,0,0:0:0:0:
280,172,54523,1,0,0:0:0:0:
280,172,54776,1,0,0:0:0:0:
280,172,54903,1,8,0:0:0:0:
280,172,55156,1,0,0:0:0:0:
280,172,55283,1,8,0:0:0:0:
280,172,55536,1,0,0:0:0:0:
280,172,55662,1,8,0:0:0:0:
280,172,56042,1,8,0:0:0:0:
280,172,56295,1,8,0:0:0:0:
280,172,56422,1,0,0:0:0:0:
280,172,56675,1,0,0:0:0:0:
280,172,56802,1,8,0:0:0:0:
280,172,57055,1,0,0:0:0:0:
280,172,57181,1,8,0:0:0:0:
280,172,57561,1,4,0:0:0:0:
280,172,58700,1,0,0:0:0:0:
280,172,59080,1,0,0:0:0:0:
280,172,59460,1,8,0:0:0:0:
280,172,59840,1,8,0:0:0:0:
280,172,60219,1,0,0:0:0:0:
280,172,60599,1,4,0:0:0:0:
280,172,61738,1,0,0:0:0:0:
280,172,62118,1,0,0:0:0:0:
280,172,62498,1,8,0:0:0:0:
280,172,62878,1,8,0:0:0:0:
280,172,63257,1,0,0:0:0:0:
280,172,63637,1,0,0:0:0:0:
280,172,64017,1,8,0:0:0:0:
280,172,64270,1,0,0:0:0:0:
280,172,64396,1,8,0:0:0:0:
280,172,64776,1,8,0:0:0:0:
280,172,65156,1,0,0:0:0:0:
280,172,65536,1,8,0:0:0:0:
280,172,65789,1,0,0:0:0:0:
280,172,65915,1,8,0:0:0:0:
280,172,66169,1,0,0:0:0:0:
280,172,66295,1,8,0:0:0:0:
216,288,66675,2,0,L|196:144,3,140
256,192,68194,12,0,69713,0:0:0:0:
200,172,71232,5,0,0:0:0:0:
200,172,71612,1,0,0:0:0:0:
200,172,71991,1,0,0:0:0:0:
200,172,72371,1,8,0:0:0:0:
200,172,72751,1,0,0:0:0:0:
200,172,73004,1,0,0:0:0:0:
200,172,73131,1,8,0:0:0:0:
200,172,73384,1,0,0:0:0:0:
200,172,73510,1,8,0:0:0:0:
200,172,73764,1,0,0:0:0:0:
200,172,73890,1,8,0:0:0:0:
200,172,74270,1,8,0:0:0:0:
200,172,74523,1,8,0:0:0:0:
200,172,74650,1,0,0:0:0:0:
200,172,74903,1,0,0:0:0:0:
200,172,75029,1,8,0:0:0:0:
200,172,75283,1,0,0:0:0:0:
200,172,75409,1,8,0:0:0:0:
200,172,75789,1,0,0:0:0:0:
200,172,76169,1,0,0:0:0:0:
200,172,76295,1,0,0:0:0:0:
200,172,76422,1,0,0:0:0:0:
200,172,76548,1,8,0:0:0:0:
200,172,76802,1,0,0:0:0:0:
200,172,76928,1,8,0:0:0:0:
200,172,77181,1,0,0:0:0:0:
200,172,77308,1,8,0:0:0:0:
200,172,77688,1,8,0:0:0:0:
200,172,77941,1,0,0:0:0:0:
200,172,78067,1,8,0:0:0:0:
200,172,78321,1,0,0:0:0:0:
200,172,78447,1,8,0:0:0:0:
200,172,78827,1,0,0:0:0:0:
200,172,79207,1,0,0:0:0:0:
200,172,79586,1,0,0:0:0:0:
200,172,79966,1,8,0:0:0:0:
200,172,80219,1,0,0:0:0:0:
200,172,80346,1,0,0:0:0:0:
200,172,80599,1,0,0:0:0:0:
200,172,80726,1,8,0:0:0:0:
200,172,80979,1,0,0:0:0:0:
200,172,81105,1,8,0:0:0:0:
200,172,81359,1,8,0:0:0:0:
200,172,81485,1,0,0:0:0:0:
200,172,81865,1,4,0:0:0:0:
200,172,82624,1,4,0:0:0:0:
200,172,83384,1,4,0:0:0:0:
200,172,83764,1,4,0:0:0:0:
200,172,84143,1,4,0:0:0:0:
200,172,84903,1,0,0:0:0:0:
200,172,85156,1,0,0:0:0:0:
200,172,85283,1,8,0:0:0:0:
200,172,85536,1,0,0:0:0:0:
200,172,85662,1,8,0:0:0:0:
200,172,85916,1,0,0:0:0:0:
200,172,86042,1,8,0:0:0:0:
200,172,86422,1,8,0:0:0:0:
200,172,86675,1,8,0:0:0:0:
200,172,86802,1,0,0:0:0:0:
200,172,87055,1,0,0:0:0:0:
200,172,87181,1,8,0:0:0:0:
200,172,87435,1,0,0:0:0:0:
200,172,87561,1,8,0:0:0:0:
200,172,87941,1,0,0:0:0:0:
200,172,88321,1,0,0:0:0:0:
200,172,88447,1,0,0:0:0:0:
200,172,88574,1,0,0:0:0:0:
200,172,88700,1,8,0:0:0:0:
200,172,88954,1,0,0:0:0:0:
200,172,89080,1,8,0:0:0:0:
200,172,89333,1,0,0:0:0:0:
200,172,89460,1,8,0:0:0:0:
200,172,89840,1,8,0:0:0:0:
200,172,90093,1,0,0:0:0:0:
200,172,90219,1,8,0:0:0:0:
200,172,90473,1,0,0:0:0:0:
200,172,90599,1,8,0:0:0:0:
200,172,90979,1,0,0:0:0:0:
200,172,91359,1,0,0:0:0:0:
200,172,91738,1,0,0:0:0:0:
200,172,92118,1,8,0:0:0:0:
200,172,92371,1,0,0:0:0:0:
200,172,92498,1,0,0:0:0:0:
200,172,92751,1,0,0:0:0:0:
200,172,92878,1,8,0:0:0:0:
200,172,93131,1,0,0:0:0:0:
200,172,93257,1,8,0:0:0:0:
200,172,93511,1,8,0:0:0:0:
200,172,93637,1,0,0:0:0:0:
200,172,94017,1,4,0:0:0:0:
200,172,94776,1,4,0:0:0:0:
200,172,95536,1,4,0:0:0:0:
200,172,95916,1,4,0:0:0:0:
200,172,96295,1,4,0:0:0:0:
200,172,96675,1,4,0:0:0:0:
256,192,97055,12,4,100093,0:0:0:0:
220,208,100852,5,0,0:0:0:0:
220,208,101612,1,0,0:0:0:0:
220,208,102371,1,0,0:0:0:0:
220,208,102751,1,0,0:0:0:0:
220,208,103131,1,0,0:0:0:0:
220,208,103510,1,8,0:0:0:0:
220,208,103890,1,0,0:0:0:0:
220,208,104270,1,8,0:0:0:0:
220,208,104650,1,0,0:0:0:0:
220,208,105029,1,8,0:0:0:0:
220,208,105409,1,0,0:0:0:0:
220,208,105662,1,0,0:0:0:0:
220,208,105789,1,8,0:0:0:0:
220,208,106169,1,0,0:0:0:0:
220,208,106548,1,8,0:0:0:0:
220,208,106928,1,0,0:0:0:0:
220,208,107308,1,8,0:0:0:0:
220,208,107688,1,0,0:0:0:0:
220,208,108067,1,8,0:0:0:0:
220,208,108447,1,0,0:0:0:0:
220,208,108700,1,0,0:0:0:0:
220,208,108827,1,8,0:0:0:0:
220,208,109207,1,4,0:0:0:0:
220,208,110346,1,0,0:0:0:0:
220,208,110726,1,4,0:0:0:0:
220,208,111485,1,4,0:0:0:0:
220,208,112245,1,0,0:0:0:0:
220,208,112371,1,8,0:0:0:0:
220,208,112498,1,8,0:0:0:0:
220,208,112624,1,8,0:0:0:0:
220,208,113004,1,0,0:0:0:0:
220,208,113257,1,0,0:0:0:0:
220,208,113384,1,8,0:0:0:0:
220,208,113510,1,0,0:0:0:0:
220,208,113637,1,8,0:0:0:0:
220,208,113764,1,0,0:0:0:0:
220,208,113890,1,0,0:0:0:0:
220,208,114017,1,0,0:0:0:0:
220,208,114143,1,0,0:0:0:0:
220,208,114523,1,4,0:0:0:0:
220,208,114776,1,0,0:0:0:0:
220,208,114903,1,4,0:0:0:0:
