osu file format v12

[General]
AudioFilename: Avalon Hill.mp3
AudioLeadIn: 0
PreviewTime: 72751
Countdown: 0
SampleSet: Soft
StackLeniency: 0.7
Mode: 1
LetterboxInBreaks: 0
WidescreenStoryboard: 0

[Editor]
DistanceSpacing: 1
BeatDivisor: 3
GridSize: 4
TimelineZoom: 1

[Metadata]
Title:Avalon no Oka
TitleUnicode:アヴァロンの丘
Artist:Nekomata Master
ArtistUnicode:猫叉Master
Creator:TaMul
Version:Kantan
Source:Reflec Beat Groovin
Tags:
BeatmapID:436235
BeatmapSetID:181798

[Difficulty]
HPDrainRate:4
CircleSize:4
OverallDifficulty:4
ApproachRate:4
SliderMultiplier:1.4
SliderTickRate:1

[Events]
//Background and Video events
0,0,"343680-1366x768.jpg",0,90
//Break Periods
//Storyboard Layer 0 (Background)
//Storyboard Layer 1 (Fail)
//Storyboard Layer 2 (Pass)
//Storyboard Layer 3 (Foreground)
//Storyboard Sound Samples
//Background Colour Transformations
3,100,163,162,255

[TimingPoints]
2878,379.746835443038,4,2,1,100,1,0
72751,-100,4,2,1,100,0,1
84143,-100,4,2,1,100,0,0
84903,-100,4,2,1,100,0,1
97055,-100,4,2,1,100,0,0

[HitObjects]
256,192,5915,5,0,0:0:0:0:
256,192,7434,1,0,0:0:0:0:
256,192,8953,1,0,0:0:0:0:
256,192,10472,1,0,0:0:0:0:
256,192,11991,1,0,0:0:0:0:
256,192,12751,1,0,0:0:0:0:
256,192,13510,1,0,0:0:0:0:
256,192,14270,1,0,0:0:0:0:
256,192,15029,1,0,0:0:0:0:
256,192,15789,1,0,0:0:0:0:
256,192,16548,1,0,0:0:0:0:
256,192,18067,1,4,0:0:0:0:
256,192,19586,1,4,0:0:0:0:
256,192,20346,1,4,0:0:0:0:
256,192,21105,1,4,0:0:0:0:
256,192,21865,1,0,0:0:0:0:
256,192,22624,1,0,0:0:0:0:
256,192,23004,1,0,0:0:0:0:
256,192,23384,1,0,0:0:0:0:
256,192,24143,1,4,0:0:0:0:
256,192,24903,1,0,0:0:0:0:
256,192,25662,1,0,0:0:0:0:
256,192,26042,1,0,0:0:0:0:
256,192,26422,1,4,0:0:0:0:
256,192,27181,1,4,0:0:0:0:
256,192,27941,1,0,0:0:0:0:
256,192,28700,1,0,0:0:0:0:
256,192,29080,1,0,0:0:0:0:
256,192,29460,1,0,0:0:0:0:
256,192,30219,1,4,0:0:0:0:
256,192,30979,1,0,0:0:0:0:
256,192,31738,1,0,0:0:0:0:
256,192,32118,1,0,0:0:0:0:
256,192,32498,1,0,0:0:0:0:
256,192,33257,1,0,0:0:0:0:
256,192,33637,1,0,0:0:0:0:
256,192,34017,1,8,0:0:0:0:
256,192,34776,1,8,0:0:0:0:
256,192,35536,1,0,0:0:0:0:
256,192,36295,1,0,0:0:0:0:
256,192,36675,1,0,0:0:0:0:
256,192,37055,1,8,0:0:0:0:
256,192,37814,1,8,0:0:0:0:
256,192,38574,1,0,0:0:0:0:
256,192,39333,1,4,0:0:0:0:
256,192,40093,1,0,0:0:0:0:
256,192,40852,1,8,0:0:0:0:
256,192,41612,1,8,0:0:0:0:
256,192,42371,1,0,0:0:0:0:
256,192,43890,1,4,0:0:0:0:
152,156,44650,2,0,P|264:100|416:148,1,280
260,248,46169,1,0,0:0:0:0:
260,248,46928,1,8,0:0:0:0:
260,248,47688,1,0,0:0:0:0:
260,248,48067,1,0,0:0:0:0:
260,248,48447,1,0,0:0:0:0:
260,248,49207,1,8,0:0:0:0:
260,248,49966,1,0,0:0:0:0:
260,248,50346,1,0,0:0:0:0:
260,248,50726,1,0,0:0:0:0:
260,248,51485,1,0,0:0:0:0:
260,248,52245,1,0,0:0:0:0:
260,248,53004,1,8,0:0:0:0:
260,248,53764,1,8,0:0:0:0:
180,180,54523,2,8,P|272:152|376:296,1,280
140,308,56042,2,4,P|92:232|152:56,1,280
256,192,57561,1,0,0:0:0:0:
256,192,59080,1,0,0:0:0:0:
256,192,59840,1,0,0:0:0:0:
256,192,60599,1,4,0:0:0:0:
256,192,62118,1,0,0:0:0:0:
256,192,62878,1,0,0:0:0:0:
256,192,63637,1,0,0:0:0:0:
256,192,64396,1,8,0:0:0:0:
256,192,65156,1,0,0:0:0:0:
256,192,65915,1,8,0:0:0:0:
256,192,66675,1,0,0:0:0:0:
256,192,68194,1,0,0:0:0:0:
256,192,68953,1,0,0:0:0:0:
256,192,69713,1,0,0:0:0:0:
256,192,70093,1,0,0:0:0:0:
256,192,70472,1,0,0:0:0:0:
256,192,70852,1,0,0:0:0:0:
256,192,71232,1,8,0:0:0:0:
256,192,71991,1,8,0:0:0:0:
256,192,72751,1,0,0:0:0:0:
256,192,73510,1,0,0:0:0:0:
256,192,73890,1,8,0:0:0:0:
256,192,74270,1,0,0:0:0:0:
256,192,75029,1,0,0:0:0:0:
256,192,75409,1,8,0:0:0:0:
256,192,75789,1,0,0:0:0:0:
256,192,76548,1,0,0:0:0:0:
256,192,77308,1,8,0:0:0:0:
256,192,78067,1,8,0:0:0:0:
256,192,78827,1,0,0:0:0:0:
256,192,79207,1,0,0:0:0:0:
256,192,79586,1,0,0:0:0:0:
256,192,80346,1,8,0:0:0:0:
256,192,80726,1,8,0:0:0:0:
256,192,81105,1,8,0:0:0:0:
256,192,81865,1,4,0:0:0:0:
256,192,82624,1,4,0:0:0:0:
256,192,83384,1,4,0:0:0:0:
256,192,83764,1,4,0:0:0:0:
256,192,84143,1,4,0:0:0:0:
256,192,84903,1,0,0:0:0:0:
256,192,85662,1,0,0:0:0:0:
256,192,86042,1,8,0:0:0:0:
256,192,86422,1,0,0:0:0:0:
256,192,87181,1,0,0:0:0:0:
256,192,87561,1,8,0:0:0:0:
256,192,87941,1,0,0:0:0:0:
256,192,88700,1,0,0:0:0:0:
256,192,89460,1,8,0:0:0:0:
256,192,90219,1,8,0:0:0:0:
256,192,90979,1,0,0:0:0:0:
256,192,91359,1,0,0:0:0:0:
256,192,91738,1,0,0:0:0:0:
256,192,92498,1,8,0:0:0:0:
256,192,92878,1,8,0:0:0:0:
256,192,93257,1,8,0:0:0:0:
256,192,94017,1,4,0:0:0:0:
256,192,94776,1,4,0:0:0:0:
256,192,95536,1,4,0:0:0:0:
256,192,95916,1,4,0:0:0:0:
256,192,96295,1,4,0:0:0:0:
256,192,97055,12,0,100093,0:0:0:0:
228,212,100852,5,0,0:0:0:0:
228,212,101612,1,0,0:0:0:0:
228,212,102371,1,0,0:0:0:0:
228,212,103131,1,0,0:0:0:0:
228,212,103890,1,8,0:0:0:0:
228,212,104650,1,0,0:0:0:0:
228,212,105409,1,8,0:0:0:0:
228,212,106169,1,0,0:0:0:0:
228,212,106928,1,8,0:0:0:0:
228,212,107688,1,4,0:0:0:0:
228,212,108447,1,0,0:0:0:0:
228,212,108827,1,0,0:0:0:0:
228,212,109207,1,0,0:0:0:0:
228,212,110346,1,0,0:0:0:0:
228,212,110726,1,4,0:0:0:0:
228,212,111485,1,4,0:0:0:0:
228,212,112245,1,12,0:0:0:0:
228,212,113004,1,8,0:0:0:0:
228,212,113764,1,0,0:0:0:0:
228,212,114523,1,0,0:0:0:0:
228,212,114903,1,4,0:0:0:0:
