osu file format v12

[General]
AudioFilename: Avalon Hill.mp3
AudioLeadIn: 0
PreviewTime: 72751
Countdown: 0
SampleSet: Soft
StackLeniency: 0.7
Mode: 1
LetterboxInBreaks: 0
WidescreenStoryboard: 0

[Editor]
DistanceSpacing: 1
BeatDivisor: 3
GridSize: 4
TimelineZoom: 1

[Metadata]
Title:Avalon no Oka
TitleUnicode:アヴァロンの丘
Artist:Nekomata Master
ArtistUnicode:猫叉Master
Creator:TaMul
Version:Futsuu
Source:Reflec Beat Groovin
Tags:
BeatmapID:436234
BeatmapSetID:181798

[Difficulty]
HPDrainRate:5
CircleSize:4
OverallDifficulty:5
ApproachRate:5
SliderMultiplier:1.4
SliderTickRate:1

[Events]
//Background and Video events
0,0,"343680-1366x768.jpg",0,90
//Break Periods
//Storyboard Layer 0 (Background)
//Storyboard Layer 1 (Fail)
//Storyboard Layer 2 (Pass)
//Storyboard Layer 3 (Foreground)
//Storyboard Sound Samples
//Background Colour Transformations
3,100,163,162,255

[TimingPoints]
2878,379.746835443038,4,2,1,100,1,0
72751,-100,4,2,1,100,0,1
84143,-100,4,2,1,100,0,0
84903,-100,4,2,1,100,0,1
97055,-100,4,2,1,100,0,0

[HitObjects]
256,192,5915,5,0,0:0:0:0:
256,192,6675,1,0,0:0:0:0:
256,192,7434,1,0,0:0:0:0:
256,192,8194,1,0,0:0:0:0:
256,192,8953,1,0,0:0:0:0:
256,192,9713,1,0,0:0:0:0:
256,192,10473,1,0,0:0:0:0:
256,192,11232,1,0,0:0:0:0:
256,192,11992,1,0,0:0:0:0:
256,192,12751,1,8,0:0:0:0:
256,192,13510,1,0,0:0:0:0:
256,192,14270,1,8,0:0:0:0:
256,192,15029,1,0,0:0:0:0:
256,192,15789,1,8,0:0:0:0:
256,192,16548,1,4,0:0:0:0:
256,192,17308,1,4,0:0:0:0:
256,192,18067,1,4,0:0:0:0:
256,192,19586,1,4,0:0:0:0:
256,192,20346,1,4,0:0:0:0:
256,192,21105,1,4,0:0:0:0:
256,192,21865,1,8,0:0:0:0:
256,192,22624,1,0,0:0:0:0:
256,192,23004,1,0,0:0:0:0:
256,192,23384,1,8,0:0:0:0:
256,192,24143,1,4,0:0:0:0:
256,192,24903,1,8,0:0:0:0:
256,192,25662,1,0,0:0:0:0:
256,192,26042,1,0,0:0:0:0:
256,192,26422,1,8,0:0:0:0:
256,192,27181,1,4,0:0:0:0:
256,192,27941,1,8,0:0:0:0:
256,192,28700,1,0,0:0:0:0:
256,192,29080,1,0,0:0:0:0:
256,192,29460,1,8,0:0:0:0:
256,192,30219,1,4,0:0:0:0:
256,192,30979,1,8,0:0:0:0:
256,192,31738,1,0,0:0:0:0:
256,192,32118,1,0,0:0:0:0:
256,192,32498,1,0,0:0:0:0:
256,192,33257,1,0,0:0:0:0:
256,192,33637,1,0,0:0:0:0:
256,192,34017,1,0,0:0:0:0:
192,256,34776,2,8,P|168:188|336:112,1,280
248,192,36295,1,8,0:0:0:0:
248,192,36675,1,8,0:0:0:0:
248,192,37055,1,8,0:0:0:0:
320,128,37814,2,0,P|344:196|176:272,1,280
136,120,39333,1,4,0:0:0:0:
136,120,40093,1,0,0:0:0:0:
136,120,40852,1,12,0:0:0:0:
136,120,41612,1,8,0:0:0:0:
136,120,42371,1,0,0:0:0:0:
136,120,42751,1,0,0:0:0:0:
136,120,43131,1,0,0:0:0:0:
136,120,43890,1,8,0:0:0:0:
136,120,44270,1,8,0:0:0:0:
136,120,44650,1,8,0:0:0:0:
256,192,45409,1,0,0:0:0:0:
256,192,45789,1,0,0:0:0:0:
256,192,46169,1,0,0:0:0:0:
192,256,46928,2,8,P|168:188|336:112,1,280
248,192,48447,1,8,0:0:0:0:
248,192,48827,1,8,0:0:0:0:
248,192,49207,1,8,0:0:0:0:
320,128,49966,2,0,P|344:196|176:272,1,280
136,120,51485,1,4,0:0:0:0:
136,120,52245,1,0,0:0:0:0:
136,120,53004,1,12,0:0:0:0:
136,120,53764,1,8,0:0:0:0:
136,120,54523,1,0,0:0:0:0:
136,120,54903,1,0,0:0:0:0:
136,120,55283,1,0,0:0:0:0:
136,120,56042,1,8,0:0:0:0:
136,120,56422,1,8,0:0:0:0:
136,120,56802,1,8,0:0:0:0:
136,120,57561,1,4,0:0:0:0:
136,120,59080,1,0,0:0:0:0:
136,120,59840,1,8,0:0:0:0:
136,120,60599,1,4,0:0:0:0:
136,120,62118,1,0,0:0:0:0:
136,120,62878,1,8,0:0:0:0:
136,120,63257,1,8,0:0:0:0:
136,120,63637,1,8,0:0:0:0:
136,120,64396,1,0,0:0:0:0:
136,120,64776,1,0,0:0:0:0:
136,120,65156,1,0,0:0:0:0:
136,120,65915,1,8,0:0:0:0:
136,120,66295,1,0,0:0:0:0:
136,120,66675,1,8,0:0:0:0:
136,120,67434,1,8,0:0:0:0:
256,192,68194,12,4,69713,0:0:0:0:
148,128,70472,5,4,0:0:0:0:
148,128,71232,1,4,0:0:0:0:
148,128,71612,1,4,0:0:0:0:
148,128,71991,1,4,0:0:0:0:
148,128,72751,1,0,0:0:0:0:
148,128,73131,1,0,0:0:0:0:
148,128,73510,1,0,0:0:0:0:
148,128,74270,1,8,0:0:0:0:
148,128,74650,1,8,0:0:0:0:
148,128,75029,1,8,0:0:0:0:
148,128,75789,1,0,0:0:0:0:
148,128,76169,1,8,0:0:0:0:
148,128,76548,1,0,0:0:0:0:
148,128,76928,1,8,0:0:0:0:
148,128,77308,1,0,0:0:0:0:
148,128,78067,1,0,0:0:0:0:
148,128,78827,1,0,0:0:0:0:
148,128,79207,1,8,0:0:0:0:
148,128,79586,1,0,0:0:0:0:
148,128,80346,1,0,0:0:0:0:
148,128,80726,1,8,0:0:0:0:
148,128,81105,1,0,0:0:0:0:
148,128,81865,1,0,0:0:0:0:
148,128,82245,1,0,0:0:0:0:
148,128,82624,1,8,0:0:0:0:
148,128,83004,1,8,0:0:0:0:
148,128,83384,1,4,0:0:0:0:
148,128,84143,1,4,0:0:0:0:
148,128,84903,1,0,0:0:0:0:
148,128,85283,1,0,0:0:0:0:
148,128,85662,1,0,0:0:0:0:
148,128,86422,1,8,0:0:0:0:
148,128,86802,1,8,0:0:0:0:
148,128,87181,1,8,0:0:0:0:
148,128,87941,1,0,0:0:0:0:
148,128,88321,1,8,0:0:0:0:
148,128,88700,1,0,0:0:0:0:
148,128,89080,1,8,0:0:0:0:
148,128,89460,1,0,0:0:0:0:
148,128,90219,1,4,0:0:0:0:
148,128,90979,1,0,0:0:0:0:
148,128,91359,1,8,0:0:0:0:
148,128,91738,1,0,0:0:0:0:
148,128,92498,1,0,0:0:0:0:
148,128,92878,1,8,0:0:0:0:
148,128,93257,1,0,0:0:0:0:
148,128,94017,1,0,0:0:0:0:
148,128,94397,1,0,0:0:0:0:
148,128,94776,1,8,0:0:0:0:
148,128,95156,1,8,0:0:0:0:
148,128,95536,1,4,0:0:0:0:
148,128,96295,1,4,0:0:0:0:
148,128,97055,2,0,P|220:112|104:184,2,560
172,152,100852,1,0,0:0:0:0:
172,152,101612,1,0,0:0:0:0:
172,152,102371,1,0,0:0:0:0:
172,152,103131,1,0,0:0:0:0:
172,152,103890,1,8,0:0:0:0:
172,152,104650,1,0,0:0:0:0:
172,152,105409,1,8,0:0:0:0:
172,152,106169,1,0,0:0:0:0:
172,152,106928,1,8,0:0:0:0:
172,152,107688,1,0,0:0:0:0:
172,152,108447,1,8,0:0:0:0:
172,152,109207,1,4,0:0:0:0:
172,152,110726,1,4,0:0:0:0:
172,152,112245,1,0,0:0:0:0:
172,152,113004,1,8,0:0:0:0:
172,152,113764,1,0,0:0:0:0:
172,152,114143,1,0,0:0:0:0:
172,152,114523,1,8,0:0:0:0:
172,152,114903,1,12,0:0:0:0:
