osu file format v9

[General]
AudioFilename: Ojamajo de BAN BAN! (Pop-mix).mp3
AudioLeadIn: 0
PreviewTime: 38454
Countdown: 0
SampleSet: Normal
StackLeniency: 0.7
Mode: 0
LetterboxInBreaks: 1

[Editor]
Bookmarks: 4247,14797,25346,38533,49082,60950,71500,82049,93918,106115
DistanceSpacing: 0.2
BeatDivisor: 4
GridSize: 8

[Metadata]
Title:Ojamajo de BAN BAN! (Pop-mix)
Artist:Nekokanimaru
Creator:Muya
Version:Hyper
Source:BMS
Tags:mo~tto! ojamajo doremi gowww

[Difficulty]
HPDrainRate:5
CircleSize:4
OverallDifficulty:7
ApproachRate:8
SliderMultiplier:1.4
SliderTickRate:1

[Events]
//Background and Video events
0,0,"BG.jpg"
//Break Periods
2,61145,65470
//Storyboard Layer 0 (Background)
//Storyboard Layer 1 (Fail)
//Storyboard Layer 2 (Pass)
//Storyboard Layer 3 (Foreground)
//Storyboard Sound Samples
//Background Colour Transformations
3,100,163,162,255

[TimingPoints]
2924,329.67032967033,4,1,1,60,1,0
38528,-100,4,1,1,60,0,1
48995,-100,4,1,1,60,0,0
49077,-100,4,1,1,60,0,1
49160,-100,4,1,1,60,0,0
60945,-100,4,1,1,60,0,1
61028,-100,4,1,1,60,0,0
71495,-133.333333333333,4,2,1,60,0,0
76770,-100,4,1,1,30,0,0
77429,-100,4,1,1,35,0,0
78088,-100,4,1,1,40,0,0
78748,-66.6666666666667,4,1,1,45,0,0
79407,-100,4,1,1,50,0,0
80066,-100,4,1,1,55,0,0
80726,-100,4,1,1,60,0,0
82044,-100,4,1,1,60,0,1
82127,-100,4,1,1,60,0,0
93830,-100,4,1,1,60,0,0
93913,-100,4,1,1,60,0,1
93995,-100,4,1,1,60,0,0
106110,-100,4,1,1,60,0,1
106193,-100,4,1,1,60,0,0

[Colours]
Combo1 : 255,255,0
Combo2 : 255,0,0
Combo3 : 255,128,0
Combo4 : 0,0,255
Combo5 : 128,0,255

[HitObjects]
256,120,2924,1,4
256,128,3253,1,4
256,136,3583,2,0,B|232:176|224:216,1,70,4|0
296,232,3913,2,0,B|320:272|328:312,1,70,4|0
264,344,4242,6,0,B|216:368|184:368,1,70,4|0
168,336,4489,2,0,B|144:312|88:288|64:288,1,105,0|0
32,224,4902,1,0
32,224,4984,1,0
32,224,5066,1,0
64,152,5231,1,8
64,152,5314,1,0
64,152,5396,1,0
48,72,5561,6,0,B|80:48,3,35
112,56,5891,2,0,B|152:64,3,35,8|0|0|0
184,48,6220,2,0,B|224:40|256:24,1,70
320,64,6550,2,0,B|360:72|392:88,1,70,8|0
456,48,6880,6,0,B|480:80|480:128,1,70,4|0
456,144,7127,2,0,B|416:208|416:256,1,105
464,304,7539,1,0
464,304,7621,1,0
464,304,7704,1,0
400,352,7869,1,8
400,352,7951,1,0
400,352,8033,1,0
336,304,8198,6,0,B|288:288,3,35
264,296,8528,2,0,B|224:312,3,35,8|0|0|0
256,120,9022,5,4
256,120,9187,1,4
120,40,9517,6,0,B|112:80|80:112,1,70,4|0
56,120,9764,2,0,B|16:160|24:208|32:224,1,105
104,200,10176,2,0,B|112:248|88:272,1,70
160,352,10506,2,0,B|152:304|176:280,1,70,8|0
240,240,10836,1,0
304,280,11000,1,0
304,200,11165,1,8
304,200,11248,1,0
304,200,11330,1,0
240,152,11495,2,0,B|240:72,1,70
240,240,11825,2,0,B|240:320,1,70,8|0
176,200,12154,6,0,B|136:176|112:176,1,70,4|0
72,192,12402,2,0,B|32:224|32:280|40:288,1,105
96,336,12814,1,0
168,304,12978,1,0
240,336,13143,1,8
312,312,13308,1,0
384,344,13473,6,0,B|424:352,3,35
448,328,13803,2,0,B|480:304,3,35,8|0|0|0
256,192,14297,5,4
256,192,14462,1,4
344,64,14792,6,0,B|312:32|272:32,2,70,4|0|8
416,96,15286,1,0
480,56,15451,2,0,B|520:112|448:184|496:208,1,140,0|8
480,191,15945,2,0,B|480:272,1,70
416,312,16275,6,0,B|448:344|488:344,2,70,0|8|0
344,280,16770,1,0
376,208,16934,2,0,B|320:168|248:240|224:192,1,140
208,280,17429,6,0,B|176:304|136:304,1,70
96,240,17759,2,0,B|128:216|168:216,1,70,8|0
192,144,18088,2,0,B|192:96|152:56|136:56,1,105
104,40,18418,2,0,B|168:16|240:32,1,105,8|0
240,48,18748,6,0,B|344:80,1,105,4|0
376,64,19077,2,0,B|432:152,1,105,8|0
472,160,19407,2,0,B|432:264,1,105,4|0
464,288,19737,2,0,B|352:352,1,105,8|0
336,320,20066,6,0,B|288:296|256:304,1,70
200,344,20396,2,0,B|152:368|120:360,1,70,8|0
64,328,20726,1,0
64,328,20891,1,0
32,256,21055,2,0,B|8:184,2,70,8|0|0
104,224,21550,5,0
176,256,21715,1,8
168,176,21880,1,0
144,104,22044,2,0,B|104:112|96:152,1,70
240,208,22374,2,0,B|256:168|232:136,1,70,8|0
216,64,22704,5,0
288,32,22869,1,0
320,104,23033,2,0,B|344:136|344:184,1,70,8|0
424,168,23363,2,0,B|432:216|400:256,1,70
448,304,23693,2,0,B|416:336|368:336,1,70,8|0
320,288,24022,6,0,B|288:272,3,35,4|0|0|0
280,272,24352,1,12
272,272,24434,1,0
264,272,24517,1,0
256,272,24599,1,0
248,272,24682,1,8
240,272,24764,1,0
232,272,24847,1,0
224,272,24929,1,0
216,272,25011,2,0,B|144:272,1,70,8|0
72,296,25341,6,0,B|48:248|104:216|72:144,2,140,0|8|0
128,352,26165,1,0
208,360,26330,1,8
288,352,26495,1,0
368,360,26660,6,0,B|432:336|464:280|464:256,1,140,0|8
408,208,27154,2,0,B|384:144|328:112|304:112,1,140
256,56,27649,1,8
256,56,27814,1,0
184,88,27978,6,0,B|32:80,2,140,0|8|0
256,56,28803,1,0
264,136,28967,2,0,B|272:184|248:224,1,70,8|0
216,272,29297,2,0,B|160:288|88:280|64:264,2,140,0|8|0
248,288,30039,1,0
312,336,30204,2,0,B|376:320,1,35,0|8
424,344,30451,1,0
472,280,30616,6,0,B|480:224|464:176|432:152,2,140,0|8|0
424,344,31440,1,0
392,272,31605,2,0,B|392:224|360:200,1,70,8|0
344,136,31934,2,0,B|288:104|240:112|208:128,1,140,0|8
120,200,32429,2,0,B|176:232|224:224|256:208,1,140
288,280,32924,1,8
248,344,33088,6,0,B|192:352,2,35,0|0|4
288,280,33418,1,0
344,336,33583,1,8
400,280,33748,2,0,B|456:272,2,35,0|0|4
360,216,34077,1,0
400,152,34242,1,8
360,88,34407,2,0,B|376:32,2,35,0|0|4
296,136,34737,2,0,B|264:168,2,35,0|0|12
288,56,35066,2,0,B|280:16,2,35,0|0|4
216,88,35396,2,0,B|152:64,1,70,0|8
72,64,35726,6,0,B|32:88,2,35,0|0|4
112,128,36055,1,0
72,192,36220,1,8
136,240,36385,2,0,B|120:288,2,35,0|0|4
200,192,36715,2,0,B|248:192|272:176,1,70,0|8
328,224,37044,2,0,B|360:248,2,35,0|0|4
360,152,37374,5,4
312,56,37539,1,4
200,64,37704,1,4
120,64,37869,5,8
120,72,37951,1,0
120,80,38033,1,0
120,88,38116,1,0
120,96,38198,1,8
120,104,38281,1,0
120,112,38363,1,0
120,120,38445,1,0
120,128,38528,6,0,B|120:176|88:208,1,70,4|0
40,248,38858,2,0,B|40:296|72:328,1,70,8|0
152,256,39187,2,0,B|200:256|232:288,1,70,0|0
256,344,39517,2,0,B|304:344|336:312,1,70,8|0
400,328,39847,5,0
472,296,40011,1,0
400,328,40176,1,8
472,296,40341,1,0
328,288,40506,2,0,B|248:264,1,70
480,216,40836,2,0,B|496:136,1,70,8|0
464,80,41165,6,0,B|432:40|336:40|328:64,1,140,0|8
280,152,41660,1,0
168,168,41825,2,0,B|128:200|128:296|152:304,1,140,0|8
240,240,42319,1,0
304,280,42484,6,0,B|344:312|360:352,1,70
336,208,42814,2,0,B|376:208|416:192,1,70,8|0
280,152,43143,2,0,B|304:112|312:80,2,70,0|0|8
200,168,43638,1,0
144,112,43803,5,8
144,112,43967,1,0
144,112,44132,1,8
144,112,44297,1,0
144,112,44462,2,0,B|96:96|48:112,1,70,4|0
72,216,44792,2,0,B|120:232|168:216,1,70,12|0
64,304,45121,5,8
64,304,45286,1,0
64,304,45451,1,0
64,304,45616,1,0
64,304,45781,2,0,B|48:352|64:400,1,70,4|0
168,368,46110,2,0,B|184:320|168:272,1,70,12|0
174,298,46358,5,0
174,298,46440,1,4
232,248,46605,2,0,B|280:264|312:248,1,70,0|8
352,312,46934,2,0,B|376:344,2,35,0|0|4
416,264,47264,1,0
400,192,47429,1,8
432,120,47594,2,0,B|464:80,2,35
368,72,47924,5,4
272,128,48088,1,4
176,72,48253,1,4
96,72,48418,5,8
96,80,48500,1,0
96,88,48583,1,0
96,96,48665,1,0
96,104,48748,1,8
96,112,48830,1,0
96,120,48913,1,0
96,128,48995,1,0
96,136,49077,6,0,B|96:192|112:216,1,70,4|0
184,224,49407,2,0,B|184:168|168:144,1,70,8|0
128,280,49737,2,0,B|128:336|144:360,1,70,0|0
216,368,50066,2,0,B|216:312|200:288,1,70,8|0
264,248,50396,5,0
296,320,50561,1,0
352,264,50726,1,8
384,336,50891,1,0
440,280,51055,2,0,B|472:264|488:224,1,70
416,136,51385,2,0,B|384:152|368:192,1,70,8|0
368,72,51715,6,0,B|320:40|280:96|216:56,1,140,0|8
120,40,52209,1,0
40,120,52374,2,0,B|88:152|128:96|192:136,1,140,0|8
288,160,52869,1,0
328,224,53033,6,0,B|336:264|312:304,1,70
240,288,53363,2,0,B|248:328|224:368,2,70,8|0|0
224,208,53858,1,0
288,160,54022,1,8
256,88,54187,2,0,B|240:48|208:24,1,70,0|8
152,80,54517,5,0
152,80,54682,1,8
152,80,54847,1,0
152,80,55011,2,0,B|104:104|64:104,1,70,4|0
32,200,55341,2,0,B|80:176|120:176,1,70,12|0
176,168,55671,5,8
176,168,55836,1,0
176,168,56000,1,8
176,168,56165,1,0
176,168,56330,2,0,B|200:216|200:256,1,70,4|0
296,288,56660,2,0,B|272:240|272:200,1,70,12|0
273,221,56907,5,0
273,221,56989,1,4
256,144,57154,2,0,B|280:120|320:104,1,70,0|8
376,56,57484,2,0,B|360:16,2,35,0|0|4
448,88,57814,1,0
400,152,57978,1,8
456,208,58143,6,0,B|464:264,3,35,0|0|8|0
456,280,58473,2,0,B|432:320,3,35,0|0|8|0
408,328,58803,2,0,B|360:344,3,35,0|0|8|0
336,336,59132,2,0,B|288:320,3,35,0|0|8|0
264,336,59462,2,0,B|176:336,1,70
120,336,59792,1,4
48,304,59956,5,12
48,296,60039,1,0
48,288,60121,1,0
48,280,60204,1,0
48,272,60286,1,8
48,264,60369,1,0
48,256,60451,1,0
48,248,60533,1,0
48,240,60616,1,8
48,232,60698,1,0
48,224,60781,1,0
48,216,60863,1,0
48,208,60945,1,4
376,96,66220,6,0,B|232:96,1,140,4|0
176,48,66715,1,0
112,88,66880,2,0,B|80:120|80:160,1,70
128,216,67209,2,0,B|160:184|160:144,1,70,8|0
48,216,67539,2,0,B|16:248|16:288,1,70
96,288,67869,2,0,B|128:320|168:320,1,70,8|0
264,288,68198,2,0,B|232:256|192:256,1,70
328,240,68528,2,0,B|360:272|400:272,1,70,8|0
448,176,68858,6,0,B|448:136,7,35,4|0|0|0|8|0|0|0
448,176,69517,2,0,B|448:224,7,35,4|0|0|0|8|0|0|0
440,176,70176,5,12
432,176,70259,1,0
424,176,70341,1,0
416,176,70424,1,0
408,176,70506,1,8
400,176,70588,1,0
392,176,70671,1,0
384,176,70753,1,0
376,176,70836,2,0,B|288:176,1,70,4|0
136,176,71165,2,0,B|224:176,1,70,8|0
256,240,71495,6,0,B|256:304,1,52.4999984353781,4|0
208,320,71825,2,0,B|208:256,1,52.4999984353781,2|0
160,232,72154,2,0,B|160:304,1,52.4999984353781
112,320,72484,2,0,B|112:256,1,52.4999984353781,2|0
72,224,72814,1,0
40,176,72978,1,0
40,120,73143,1,2
40,64,73308,1,0
96,64,73473,2,0,B|168:64,1,52.4999984353781
144,120,73803,2,0,B|216:120,1,52.4999984353781,2|0
256,120,74132,6,0,B|368:120,1,104.999996870756,4|2
416,120,74627,1,0
472,120,74792,2,0,B|472:240,1,104.999996870756,0|2
472,280,75286,1,0
472,336,75451,5,0
416,336,75616,1,0
360,336,75781,1,2
304,336,75945,1,0
248,336,76110,2,0,B|184:336,1,52.4999984353781
136,336,76440,2,0,B|80:336,1,52.4999984353781,2|0
32,280,76770,5,8
32,280,76934,1,0
32,280,77099,1,8
32,280,77264,1,0
32,280,77429,2,0,B|32:200,1,70,4|0
104,104,77759,2,0,B|104:184,1,70,12|0
184,72,78088,5,8
184,72,78253,1,0
184,72,78418,1,8
184,72,78583,1,0
184,72,78748,2,0,B|184:176,1,104.999996870756,4|0
264,304,79077,2,0,B|264:200,1,104.999996870756,12|0
264,199,79325,5,0
264,199,79407,1,4
304,128,79572,2,0,B|360:120|384:104,1,70,0|8
432,56,79902,2,0,B|456:16,2,35,0|0|4
480,120,80231,1,0
424,176,80396,1,8
480,232,80561,1,0
432,296,80726,2,0,B|408:344,3,35,8|0|0|0
384,352,81055,2,0,B|328:352,3,35,8|0|0|0
344,352,81385,5,8
336,352,81467,1,0
328,352,81550,1,0
320,352,81632,1,0
312,352,81715,1,8
304,352,81797,1,0
296,352,81880,1,0
288,352,81962,1,0
280,352,82044,6,0,B|128:352,1,140,4|0
88,264,82539,1,0
32,168,82704,2,0,B|120:48,1,140,0|8
224,40,83198,1,0
288,88,83363,6,0,B|312:128|312:168,1,70
344,224,83693,1,8
280,264,83858,1,0
232,200,84022,2,0,B|176:176|144:192,1,70
88,176,84352,2,0,B|48:208|40:240,1,70,8|0
48,304,84682,6,0,B|80:344|176:344|184:320,1,140,0|8
232,232,85176,1,0
344,216,85341,2,0,B|384:184|384:88|360:80,1,140,0|8
272,144,85836,1,0
208,104,86000,6,0,B|168:72|152:32,1,70
176,176,86330,2,0,B|136:176|96:192,1,70,8|0
232,232,86660,2,0,B|208:272|200:304,2,70,0|0|8
288,288,87154,1,0
368,272,87319,5,8
368,272,87484,1,0
368,272,87649,1,8
368,272,87814,1,0
368,272,87978,2,0,B|416:288|464:272,1,70,4|0
440,168,88308,2,0,B|392:152|344:168,1,70,12|0
448,80,88638,5,8
448,80,88803,1,0
448,80,88967,1,8
448,80,89132,1,0
448,80,89297,2,0,B|464:32|448:-16,1,70,4|0
344,16,89627,2,0,B|328:64|344:112,1,70,12|0
338,86,89874,5,0
338,86,89956,1,4
280,136,90121,2,0,B|232:120|200:136,1,70,0|8
160,72,90451,2,0,B|136:40,2,35
96,120,90781,1,0
112,192,90945,1,8
80,264,91110,2,0,B|48:304,2,35,0|0|4
144,312,91440,5,4
240,256,91605,1,4
336,312,91770,1,4
400,272,91934,6,0,B|416:232,3,35,4|0|0|0
400,200,92264,2,0,B|384:160,3,35,8|0|0|0
400,128,92594,2,0,B|416:72,3,35,8|0|0|0
392,56,92923,2,0,B|360:24|328:16,1,70,8|0
272,64,93253,5,8
264,72,93336,1,0
256,80,93418,1,0
248,88,93500,1,0
240,96,93583,1,8
232,104,93665,1,0
224,112,93748,1,0
216,120,93830,1,0
208,128,93913,6,0,B|192:184|144:192,1,70,4|0
136,208,94160,2,0,B|160:232|216:256|240:256,1,105
256,328,94572,1,0
256,328,94654,1,0
256,328,94737,1,0
312,272,94902,1,8
312,272,94984,1,0
312,272,95066,1,0
376,312,95231,6,0,B|408:288,3,35
416,256,95561,2,0,B|424:200,3,35,8|0|0|0
424,184,95891,2,0,B|384:176|352:160,1,70
248,72,96220,2,0,B|288:80|320:96,1,70,8|0
192,128,96550,6,0,B|216:160|216:208,1,70,4|0
184,216,96797,2,0,B|144:280|144:328,1,105
216,344,97209,1,0
216,344,97292,1,0
216,344,97374,1,0
280,296,97539,1,8
280,296,97621,1,0
280,296,97704,1,0
344,336,97869,6,0,B|392:320,3,35
416,336,98198,2,0,B|456:352,3,35,8|0|0|0
256,192,98693,5,4
256,192,98858,1,4
120,40,99187,6,0,B|112:80|80:112,1,70,4|0
56,120,99434,2,0,B|16:160|24:208|32:224,1,105
104,200,99847,2,0,B|112:248|88:272,1,70
160,352,100176,2,0,B|152:304|176:280,1,70,8|0
240,240,100506,1,0
304,280,100671,1,0
304,200,100836,1,8
304,200,100918,1,0
304,200,101000,1,0
240,152,101165,2,0,B|240:72,1,70
240,240,101495,2,0,B|240:320,1,70,8|0
176,200,101825,6,0,B|136:176|112:176,1,70,4|0
72,192,102072,2,0,B|32:224|32:280|40:288,1,105
72,352,102484,1,0
160,280,102649,1,0
248,352,102814,1,8
336,288,102978,1,0
400,336,103143,6,0,B|424:304,3,35,4|0|0|0
424,272,103473,2,0,B|400:240,3,35,8|0|0|0
408,208,103803,2,0,B|432:176,3,35,8|0|0|0
432,144,104132,2,0,B|408:112,3,35,8|0|0|0
376,112,104462,6,0,B|344:88,3,35,12|0|0|0
312,88,104792,2,0,B|280:112,3,35,8|0|0|0
248,104,105121,2,0,B|216:80,3,35,8|0|0|0
184,80,105451,2,0,B|152:104,2,35,8|0|4
256,336,106110,5,4
