osu file format v14

[General]
AudioFilename: Banjo-Kazooie_Malevolent_Mansion_OC_ReMix.mp3
AudioLeadIn: 0
PreviewTime: 223058
Countdown: 1
SampleSet: Normal
StackLeniency: 0.7
Mode: 0
LetterboxInBreaks: 1
WidescreenStoryboard: 1

[Editor]
DistanceSpacing: 1.5
BeatDivisor: 4
GridSize: 4
TimelineZoom: 1.800001

[Metadata]
Title:Malevolent Mansion
TitleUnicode:Malevolent Mansion
Artist:Nekofrog, Sole Signal
ArtistUnicode:Nekofrog, Sole Signal
Creator:r a d o n
Version:Extra
Source:banjo-kazooie
Tags:
BeatmapID:728102
BeatmapSetID:292104

[Difficulty]
HPDrainRate:6.5
CircleSize:4.2
OverallDifficulty:8.5
ApproachRate:9.3
SliderMultiplier:1.4
SliderTickRate:1

[Events]
//Background and Video events
0,0,"Banjo-e-Kazooie-Game-Bang.jpg",0,0
//Break Periods
//Storyboard Layer 0 (Background)
//Storyboard Layer 1 (Fail)
//Storyboard Layer 2 (Pass)
//Storyboard Layer 3 (Foreground)
//Storyboard Sound Samples

[TimingPoints]
151058,352.941176470588,4,1,0,100,1,0
151058,-74.0740740740741,4,1,0,100,0,0
155294,-80,4,1,0,100,0,0
167999,-60.6060606060606,4,1,0,100,0,0
169411,-80,4,1,0,100,0,0
173999,-66.6666666666667,4,1,0,100,0,0
175057,-80,4,1,0,100,0,0
177882,-57.1428571428571,4,1,0,100,0,0
178588,-80,4,1,0,100,0,0
189176,-50,4,1,0,100,0,0
199410,-50,4,1,0,100,0,1
200470,-50,4,1,0,100,0,1
211764,-80,4,1,0,100,0,0
214588,-66.6666666666667,4,1,0,100,0,0
223058,-50,4,1,0,100,0,0
223411,-57.1428571428571,4,1,0,100,0,0
237175,-57.1428571428571,4,1,0,100,0,1
248470,-200,4,1,0,100,0,0
249352,-66.6666666666667,4,1,0,100,0,0
250588,-66.6666666666667,4,1,0,100,0,0
258352,-50,4,1,0,100,0,0
259764,-66.6666666666667,4,1,0,100,0,1
270882,-66.6666666666667,4,1,0,100,0,0
273882,-200,4,1,0,100,0,0

[HitObjects]
256,192,151058,12,0,153705,0:0:0:0:
280,252,153882,6,0,P|332:244|384:272,1,94.5000003604889
380,116,154235,1,2,0:0:0:0:
336,100,154323,1,2,0:0:0:0:
292,80,154411,2,2,L|244:60,1,47.2500001802444
180,32,154588,1,0,0:0:0:0:
200,156,154764,6,8,P|212:196|244:244,1,94.5000003604889,0|8,0:0|0:0,0:0:0:0:
268,272,155029,1,0,0:0:0:0:
304,296,155117,1,0,0:0:0:0:
408,296,155294,5,0,0:0:0:0:
444,196,155470,1,0,0:0:0:0:
380,116,155647,2,2,P|336:92|279:79,1,87.5
196,80,155999,2,2,P|196:124|248:160,2,87.5
324,104,156529,5,0,0:0:0:0:
268,212,156705,1,0,0:0:0:0:
144,212,156882,1,0,0:0:0:0:
252,156,157058,1,0,0:0:0:0:
360,216,157235,1,0,0:0:0:0:
324,104,157411,1,0,0:0:0:0:
412,188,157588,1,0,0:0:0:0:
300,268,157764,2,2,B|276:256|240:272|240:272|192:264,1,87.5
180,264,158029,1,0,0:0:0:0:
144,264,158117,5,0,0:0:0:0:
60,168,158294,1,0,0:0:0:0:
172,168,158470,1,0,0:0:0:0:
172,52,158647,1,0,0:0:0:0:
284,52,158823,1,0,0:0:0:0:
284,168,158999,1,0,0:0:0:0:
400,168,159176,1,0,0:0:0:0:
400,280,159352,1,0,0:0:0:0:
284,280,159529,1,0,0:0:0:0:
172,168,159705,5,2,0:0:0:0:
136,168,159794,1,2,0:0:0:0:
100,168,159882,2,2,P|48:160|20:120,1,87.5
88,96,160147,5,2,0:0:0:0:
124,96,160235,1,2,0:0:0:0:
160,96,160323,1,2,0:0:0:0:
196,96,160411,2,2,P|236:128|236:200,1,87.5
172,168,160676,5,2,0:0:0:0:
184,200,160764,1,2,0:0:0:0:
208,224,160852,1,2,0:0:0:0:
240,236,160941,2,4,P|284:224|320:176,1,87.5
276,352,161294,5,8,0:0:0:0:
240,212,161470,2,4,P|220:168|172:132,1,87.5
232,332,161823,1,8,0:0:0:0:
272,172,161999,2,4,P|296:124|336:92,1,87.5
276,312,162352,1,8,0:0:0:0:
212,136,162529,2,4,P|176:100|136:80,1,87.5
232,288,162882,1,8,0:0:0:0:
308,92,163058,2,4,P|340:60|396:48,1,87.5
376,224,163411,5,2,0:0:0:0:
328,224,163499,1,2,0:0:0:0:
280,212,163587,2,0,P|244:176|232:132,1,87.5
212,24,163941,1,0,0:0:0:0:
344,24,164117,1,0,0:0:0:0:
228,88,164294,1,0,0:0:0:0:
144,188,164470,1,0,0:0:0:0:
116,316,164647,5,0,0:0:0:0:
152,324,164735,1,0,0:0:0:0:
188,328,164823,2,2,L|264:332,1,43.75
320,324,164999,2,2,L|396:304,1,43.75
428,264,165176,2,0,L|452:200,1,43.75
460,136,165352,5,2,0:0:0:0:
412,144,165441,1,2,0:0:0:0:
364,156,165529,1,2,0:0:0:0:
324,184,165617,1,2,0:0:0:0:
292,220,165705,1,2,0:0:0:0:
276,264,165794,1,2,0:0:0:0:
268,308,165882,1,0,0:0:0:0:
428,284,166058,5,2,0:0:0:0:
436,240,166147,1,2,0:0:0:0:
436,196,166235,2,0,P|428:148|384:112,1,87.5
276,92,166588,5,0,0:0:0:0:
148,124,166764,1,0,0:0:0:0:
284,68,166941,1,0,0:0:0:0:
132,152,167117,1,0,0:0:0:0:
308,52,167294,1,0,0:0:0:0:
104,172,167470,1,0,0:0:0:0:
344,44,167647,5,0,0:0:0:0:
172,64,167823,1,0,0:0:0:0:
84,204,167999,1,0,0:0:0:0:
160,336,168176,1,0,0:0:0:0:
344,336,168352,6,2,P|416:304|444:232,1,115.500001101494
344,72,168705,2,2,P|284:64|212:96,1,115.500001101494
156,268,169058,2,2,P|188:308|264:324,1,115.500001101494
360,200,169411,5,0,0:0:0:0:
276,116,169588,1,0,0:0:0:0:
244,244,169764,1,0,0:0:0:0:
376,260,169941,1,0,0:0:0:0:
220,96,170118,1,0,0:0:0:0:
400,160,170294,1,0,0:0:0:0:
188,272,170470,1,0,0:0:0:0:
212,32,170647,1,0,0:0:0:0:
424,112,170823,2,0,L|516:152,1,87.5
452,260,171176,5,2,0:0:0:0:
432,304,171264,1,2,0:0:0:0:
412,348,171352,1,2,0:0:0:0:
272,240,171529,5,2,0:0:0:0:
256,196,171617,1,2,0:0:0:0:
240,152,171705,1,2,0:0:0:0:
100,48,171882,5,2,0:0:0:0:
68,84,171970,1,2,0:0:0:0:
36,120,172058,1,2,0:0:0:0:
36,252,172234,5,0,0:0:0:0:
164,232,172410,1,0,0:0:0:0:
256,320,172587,1,0,0:0:0:0:
44,192,172763,5,0,0:0:0:0:
192,152,172940,1,0,0:0:0:0:
292,268,173116,1,0,0:0:0:0:
52,128,173293,5,0,0:0:0:0:
224,72,173469,1,0,0:0:0:0:
324,216,173646,1,0,0:0:0:0:
324,228,173822,1,0,0:0:0:0:
324,240,173999,6,2,P|308:272|268:288,2,52.5000020027161
464,160,174352,2,2,P|492:144|528:148,2,52.5000020027161
304,92,174705,2,2,P|272:76|252:44,2,52.5000020027161
408,240,175058,5,0,0:0:0:0:
400,84,175235,1,0,0:0:0:0:
268,172,175411,1,0,0:0:0:0:
501,157,175588,5,0,0:0:0:0:
301,289,175765,1,0,0:0:0:0:
277,57,175941,1,0,0:0:0:0:
501,157,176117,6,0,P|504:108|496:56,1,87.5
488,188,176382,1,0,0:0:0:0:
468,216,176470,2,0,P|432:252|364:284,1,87.5
200,316,176823,5,2,0:0:0:0:
176,276,176911,1,2,0:0:0:0:
168,228,176999,1,2,0:0:0:0:
184,180,177088,1,2,0:0:0:0:
224,152,177176,1,2,0:0:0:0:
272,144,177264,1,2,0:0:0:0:
264,212,177352,5,2,0:0:0:0:
312,200,177441,1,2,0:0:0:0:
336,160,177529,1,2,0:0:0:0:
332,112,177617,1,2,0:0:0:0:
296,84,177705,1,2,0:0:0:0:
248,84,177794,1,0,0:0:0:0:
212,116,177882,6,4,B|144:196|192:296|292:324|408:252|412:140|300:96,1,428.750004088879,4|2,0:0|0:0,0:0:0:0:
272,144,178588,5,2,0:0:0:0:
268,160,178676,1,2,0:0:0:0:
272,176,178764,1,2,0:0:0:0:
268,192,178852,1,2,0:0:0:0:
272,208,178941,1,2,0:0:0:0:
268,224,179029,1,2,0:0:0:0:
272,240,179117,1,2,0:0:0:0:
268,256,179205,1,2,0:0:0:0:
264,292,179294,5,2,0:0:0:0:
288,268,179382,1,2,0:0:0:0:
316,244,179470,1,2,0:0:0:0:
348,228,179558,1,2,0:0:0:0:
380,216,179647,1,2,0:0:0:0:
416,208,179735,1,2,0:0:0:0:
452,212,179823,5,2,0:0:0:0:
440,176,179911,1,2,0:0:0:0:
432,140,179999,2,2,L|428:96,6,43.75
464,292,180705,6,0,P|448:336|396:372,1,87.5
344,160,181058,2,0,P|308:124|252:112,1,87.5
188,296,181411,2,0,P|152:332|96:344,1,87.5
112,144,181764,2,0,P|136:104|172:72,1,87.5
352,60,182117,5,4,0:0:0:0:
204,156,182294,1,2,0:0:0:0:
164,156,182382,1,2,0:0:0:0:
124,156,182470,2,2,B|92:164|92:164|64:152|64:152|32:156,1,87.5
244,156,182823,2,0,B|272:152|272:152|304:160|304:160|336:156,1,87.5
184,248,183176,2,0,B|192:272|192:272|180:304|180:304|184:336,1,87.5
200,120,183529,5,0,0:0:0:0:
156,132,183617,1,0,0:0:0:0:
116,148,183705,2,0,L|76:196,1,43.75
64,248,183882,2,0,L|72:312,1,43.75
128,332,184058,2,0,L|196:352,1,43.75
240,348,184235,5,2,0:0:0:0:
256,344,184323,1,2,0:0:0:0:
268,332,184411,1,2,0:0:0:0:
276,312,184499,1,2,0:0:0:0:
272,292,184588,1,2,0:0:0:0:
260,276,184676,1,2,0:0:0:0:
236,268,184764,1,2,0:0:0:0:
212,264,184852,1,2,0:0:0:0:
180,264,184941,5,2,0:0:0:0:
188,216,185029,1,2,0:0:0:0:
220,180,185117,1,2,0:0:0:0:
264,160,185205,1,2,0:0:0:0:
312,156,185294,1,2,0:0:0:0:
356,176,185382,1,2,0:0:0:0:
388,212,185470,1,2,0:0:0:0:
396,260,185558,1,2,0:0:0:0:
400,296,185647,2,2,L|352:284,6,43.75
388,148,186352,5,0,0:0:0:0:
212,148,186529,1,0,0:0:0:0:
212,60,186705,5,0,0:0:0:0:
212,236,186882,1,0,0:0:0:0:
124,236,187058,5,0,0:0:0:0:
300,236,187235,1,0,0:0:0:0:
300,324,187411,5,0,0:0:0:0:
300,148,187588,1,0,0:0:0:0:
212,236,187764,5,0,0:0:0:0:
184,264,187852,1,0,0:0:0:0:
156,292,187941,1,0,0:0:0:0:
300,148,188117,5,2,0:0:0:0:
324,116,188205,1,2,0:0:0:0:
348,84,188294,1,2,0:0:0:0:
300,324,188470,5,2,0:0:0:0:
272,288,188558,1,2,0:0:0:0:
232,268,188647,1,2,0:0:0:0:
184,264,188735,1,2,0:0:0:0:
144,276,188823,2,2,P|168:233|176:188,1,87.5
176,56,189176,1,0,0:0:0:0:
468,340,189529,5,0,0:0:0:0:
468,244,189705,1,0,0:0:0:0:
384,244,189882,1,0,0:0:0:0:
384,144,190058,1,0,0:0:0:0:
468,340,190235,6,0,B|468:244|468:244|384:244|384:244|384:136,1,280,4|4,0:0|0:0,0:0:0:0:
112,56,190941,5,0,0:0:0:0:
96,152,191117,1,0,0:0:0:0:
76,248,191294,1,0,0:0:0:0:
244,56,191470,1,0,0:0:0:0:
209,253,191647,1,0,0:0:0:0:
112,56,191823,1,0,0:0:0:0:
76,248,191999,6,4,B|64:312|64:312|192:336|192:336|208:252,1,280,4|0,0:0|0:0,0:0:0:0:
244,160,192529,5,0,0:0:0:0:
336,196,192705,1,0,0:0:0:0:
304,288,192882,1,0,0:0:0:0:
209,253,193058,6,4,P|141:225|97:173,1,140,4|0,0:0|0:0,0:0:0:0:
236,84,193411,2,4,P|276:160|272:256,1,140,4|0,0:0|0:0,0:0:0:0:
184,212,193764,5,0,0:0:0:0:
84,212,193941,1,0,0:0:0:0:
84,44,194117,1,0,0:0:0:0:
184,212,194294,1,0,0:0:0:0:
360,128,194470,1,0,0:0:0:0:
468,292,194647,1,0,0:0:0:0:
256,324,194823,6,0,P|180:308|132:224,1,140,4|0,0:0|0:0,0:0:0:0:
108,124,195176,5,0,0:0:0:0:
196,40,195352,1,2,0:0:0:0:
52,40,195529,1,2,0:0:0:0:
256,124,195705,1,0,0:0:0:0:
404,176,195882,6,0,P|452:228|432:320,1,140,4|0,0:0|0:0,0:0:0:0:
408,328,196147,1,0,0:0:0:0:
356,332,196235,2,0,P|284:324|216:284,1,140,4|0,0:0|0:0,0:0:0:0:
48,192,196588,5,0,0:0:0:0:
128,292,196764,1,0,0:0:0:0:
216,192,196941,1,0,0:0:0:0:
128,92,197117,1,0,0:0:0:0:
192,260,197294,1,0,0:0:0:0:
32,76,197470,1,0,0:0:0:0:
184,328,197647,6,0,P|248:356|328:360,1,140,4|0,0:0|0:0,0:0:0:0:
364,360,197911,1,0,0:0:0:0:
412,360,197999,5,0,0:0:0:0:
392,220,198176,1,0,0:0:0:0:
488,84,198352,1,0,0:0:0:0:
356,272,198529,1,0,0:0:0:0:
256,120,198705,6,0,P|184:80|100:88,1,140,4|0,0:0|0:0,0:0:0:0:
84,108,198970,1,0,0:0:0:0:
64,156,199058,2,0,P|92:224|184:280,1,140,4|0,0:0|0:0,0:0:0:0:
303,342,199411,5,0,0:0:0:0:
217,62,199588,1,0,0:0:0:0:
419,290,199764,1,0,0:0:0:0:
131,174,199941,1,0,0:0:0:0:
432,148,200117,1,0,0:0:0:0:
161,295,200294,1,0,0:0:0:0:
344,80,200470,6,4,B|416:64|416:64|500:80|356:184|524:272,1,280,4|0,0:0|0:0,0:0:0:0:
448,324,200999,5,2,0:0:0:0:
416,304,201088,1,2,0:0:0:0:
388,284,201176,2,0,L|296:220,1,70
268,200,201352,1,0,0:0:0:0:
268,356,201529,1,0,0:0:0:0:
348,224,201705,5,0,0:0:0:0:
364,196,201794,1,0,0:0:0:0:
380,164,201882,2,0,L|416:92,1,70
444,32,202058,1,0,0:0:0:0:
444,188,202235,1,0,0:0:0:0:
292,144,202411,5,4,0:0:0:0:
260,132,202499,1,2,0:0:0:0:
228,124,202588,2,0,L|116:88,1,70
88,80,202764,1,12,0:0:0:0:
152,212,202941,2,0,P|224:176|220:112,1,140
56,88,203294,6,8,L|192:164,1,140
208,176,203558,1,2,0:0:0:0:
240,192,203647,1,2,0:0:0:0:
88,312,203823,5,2,0:0:0:0:
120,284,203911,1,2,0:0:0:0:
152,256,203999,2,8,L|256:156,1,140
384,52,204352,1,4,0:0:0:0:
416,240,204529,5,2,0:0:0:0:
400,280,204617,1,2,0:0:0:0:
372,308,204705,1,2,0:0:0:0:
332,328,204794,2,0,P|296:336|256:332,1,70
164,184,205058,5,10,0:0:0:0:
348,196,205235,5,2,0:0:0:0:
376,164,205323,1,2,0:0:0:0:
380,124,205411,1,2,0:0:0:0:
360,88,205499,2,0,P|328:68|272:64,1,70
168,56,205764,6,4,P|96:84|48:156,1,140
56,256,206117,2,8,L|208:288,1,140
468,340,206470,5,0,0:0:0:0:
272,152,206647,1,2,0:0:0:0:
232,128,206735,1,2,0:0:0:0:
188,104,206823,2,8,P|128:76|40:68,1,140
464,44,207176,5,4,0:0:0:0:
272,272,207352,1,2,0:0:0:0:
228,296,207441,1,2,0:0:0:0:
184,320,207529,2,8,P|104:340|36:332,1,140
48,48,207882,5,4,0:0:0:0:
312,200,208058,1,2,0:0:0:0:
352,228,208147,1,2,0:0:0:0:
392,256,208235,2,8,P|452:308|488:364,1,140
48,340,208588,5,4,0:0:0:0:
196,220,208941,6,8,P|160:272|196:332,1,140
276,352,209205,2,0,L|344:332,1,70
484,260,209470,1,0,0:0:0:0:
456,300,209558,1,0,0:0:0:0:
424,336,209647,2,8,P|440:268|424:192,1,140
376,136,209911,2,0,P|348:112|300:96,1,70
148,88,210176,5,2,0:0:0:0:
96,88,210264,1,2,0:0:0:0:
44,88,210352,1,2,0:0:0:0:
88,312,210529,5,8,0:0:0:0:
276,312,210705,1,8,0:0:0:0:
396,248,210882,5,2,0:0:0:0:
344,248,210970,1,2,0:0:0:0:
292,248,211058,1,0,0:0:0:0:
240,248,211147,1,0,0:0:0:0:
188,248,211235,1,0,0:0:0:0:
136,248,211323,1,0,0:0:0:0:
80,292,211411,6,4,B|48:240|68:168|160:156|192:208,1,210
256,192,211764,12,0,214411,0:0:0:0:
300,60,214588,6,0,B|364:72|400:156,1,105.000004005432,8|0,0:0|0:0,0:0:0:0:
176,160,214941,2,0,P|159:208|177:257,1,105.000004005432,8|0,0:0|0:0,0:0:0:0:
380,208,215294,2,0,P|388:268|348:336,1,105.000004005432,8|0,0:0|0:0,0:0:0:0:
148,208,215647,5,0,0:0:0:0:
124,176,215735,1,0,0:0:0:0:
116,136,215823,1,0,0:0:0:0:
124,96,215911,1,2,0:0:0:0:
156,68,215999,2,2,P|216:76|260:136,1,105.000004005432
332,264,216352,5,0,0:0:0:0:
372,84,216529,1,0,0:0:0:0:
232,220,216705,2,2,P|176:228|120:196,1,105.000004005432
16,28,217058,5,0,0:0:0:0:
188,120,217235,1,0,0:0:0:0:
20,220,217411,2,0,P|40:156|88:96,1,105.000004005432,8|0,0:0|0:0,0:0:0:0:
112,80,217676,1,0,0:0:0:0:
176,56,217764,2,0,P|236:48|316:68,1,105.000004005432,8|0,0:0|0:0,0:0:0:0:
112,80,218117,2,0,P|64:120|32:176,2,105.000004005432,8|0|8,0:0|0:0|0:0,0:0:0:0:
360,48,218647,5,0,0:0:0:0:
384,220,218823,1,0,0:0:0:0:
352,136,218999,1,0,0:0:0:0:
288,300,219176,1,0,0:0:0:0:
384,220,219352,1,0,0:0:0:0:
188,300,219529,1,0,0:0:0:0:
456,268,219705,1,0,0:0:0:0:
148,236,219882,2,2,L|60:228,2,52.5000020027161
43,311,220235,6,8,P|12:270|19:220,1,105.000004005432
72,160,220588,2,8,P|104:212|80:268,1,105.000004005432
52,96,220941,1,2,0:0:0:0:
104,104,221029,1,2,0:0:0:0:
144,136,221117,1,2,0:0:0:0:
160,184,221205,1,2,0:0:0:0:
160,236,221294,2,2,P|136:296|68:324,1,105.000004005432
256,268,221647,5,0,0:0:0:0:
396,156,221823,1,0,0:0:0:0:
236,88,221999,5,2,0:0:0:0:
252,116,222088,1,2,0:0:0:0:
268,144,222176,1,2,0:0:0:0:
308,44,222352,5,0,0:0:0:0:
104,164,222529,1,0,0:0:0:0:
312,136,222705,5,2,0:0:0:0:
328,164,222793,1,2,0:0:0:0:
344,192,222882,1,2,0:0:0:0:
396,156,223058,6,0,B|428:232|400:284|332:316|264:308|232:224,1,280,4|0,0:0|0:0,0:0:0:0:
132,100,223588,1,4,0:0:0:0:
328,224,223764,5,2,0:0:0:0:
368,240,223852,1,2,0:0:0:0:
392,280,223941,1,2,0:0:0:0:
384,324,224029,1,2,0:0:0:0:
352,356,224117,2,2,P|352:280|384:196,1,122.500001168251
488,56,224470,5,2,0:0:0:0:
444,80,224558,1,2,0:0:0:0:
396,92,224647,1,2,0:0:0:0:
348,84,224735,1,2,0:0:0:0:
304,60,224823,5,2,0:0:0:0:
304,108,224911,1,2,0:0:0:0:
280,152,224999,1,2,0:0:0:0:
236,176,225088,1,2,0:0:0:0:
184,176,225176,2,0,L|112:172,1,61.2500005841255
172,252,225352,2,0,L|64:284,1,61.2500005841255
224,308,225529,2,0,L|164:372,1,61.2500005841255
304,312,225705,2,0,L|280:368,1,61.2500005841255
364,260,225882,2,0,P|372:200|308:136,1,122.500001168251,4|0,0:0|0:0,0:0:0:0:
112,100,226235,5,2,0:0:0:0:
132,124,226323,1,2,0:0:0:0:
108,140,226411,1,2,0:0:0:0:
132,160,226499,1,2,0:0:0:0:
108,180,226588,6,2,L|104:264,1,61.2500005841255,10|2,0:0|0:0,0:0:0:0:
176,232,226764,2,2,L|176:308,1,61.2500005841255,10|2,0:0|0:0,0:0:0:0:
244,276,226941,2,2,L|356:360,1,122.500001168251,6|2,0:0|0:0,0:0:0:0:
232,344,227294,5,0,0:0:0:0:
236,216,227470,1,0,0:0:0:0:
144,292,227647,1,0,0:0:0:0:
320,292,227823,1,0,0:0:0:0:
56,224,227999,1,0,0:0:0:0:
400,224,228176,1,0,0:0:0:0:
184,232,228352,5,2,0:0:0:0:
160,196,228441,1,2,0:0:0:0:
164,152,228529,1,2,0:0:0:0:
180,112,228617,1,2,0:0:0:0:
168,72,228705,6,8,P|96:88|68:152,1,122.500001168251,4|0,0:0|0:0,0:0:0:0:
20,280,229058,5,2,0:0:0:0:
60,300,229147,1,2,0:0:0:0:
100,288,229235,1,2,0:0:0:0:
136,312,229323,1,2,0:0:0:0:
172,304,229411,6,0,L|252:336,1,61.2500005841255,8|0,0:0|0:0,0:0:0:0:
224,248,229588,2,0,L|316:264,1,61.2500005841255,8|0,0:0|0:0,0:0:0:0:
272,184,229764,2,0,L|372:64,1,122.500001168251,4|0,0:0|0:0,0:0:0:0:
228,112,230117,5,0,0:0:0:0:
108,144,230294,1,0,0:0:0:0:
256,184,230470,5,0,0:0:0:0:
80,72,230647,1,0,0:0:0:0:
124,332,230823,5,0,0:0:0:0:
288,248,230999,1,0,0:0:0:0:
64,224,231176,5,0,0:0:0:0:
352,352,231352,1,0,0:0:0:0:
336,188,231529,6,0,B|308:144|276:100|216:88,1,122.500001168251,4|0,0:0|0:0,0:0:0:0:
28,64,231882,5,2,0:0:0:0:
56,104,231970,1,2,0:0:0:0:
68,152,232058,1,2,0:0:0:0:
64,200,232147,1,2,0:0:0:0:
44,244,232235,5,2,0:0:0:0:
88,220,232323,1,2,0:0:0:0:
136,208,232411,1,2,0:0:0:0:
184,216,232499,1,2,0:0:0:0:
228,240,232588,1,2,0:0:0:0:
264,272,232676,2,2,L|308:332,1,61.2500005841255
328,128,232941,5,0,0:0:0:0:
112,68,233117,1,0,0:0:0:0:
144,292,233294,5,2,0:0:0:0:
144,292,233382,1,2,0:0:0:0:
144,292,233470,1,2,0:0:0:0:
72,160,233647,5,0,0:0:0:0:
388,56,233823,1,0,0:0:0:0:
312,328,233999,5,2,0:0:0:0:
312,328,234088,1,2,0:0:0:0:
312,328,234176,1,2,0:0:0:0:
188,140,234352,6,0,P|232:88|328:76,2,122.500001168251,4|0|4,0:0|0:0|0:0,0:0:0:0:
376,72,234882,6,0,P|440:116|464:188,1,122.500001168251,4|0,0:0|0:0,0:0:0:0:
460,200,235147,1,2,0:0:0:0:
444,244,235235,1,2,0:0:0:0:
288,344,235411,6,2,P|256:352|192:328,2,61.2500005841255
396,216,235764,5,2,0:0:0:0:
416,172,235852,1,2,0:0:0:0:
412,124,235941,1,2,0:0:0:0:
384,84,236029,1,2,0:0:0:0:
340,40,236117,5,2,0:0:0:0:
308,76,236205,1,2,0:0:0:0:
288,120,236294,1,2,0:0:0:0:
296,168,236382,1,2,0:0:0:0:
340,212,236470,5,2,0:0:0:0:
292,224,236558,1,2,0:0:0:0:
244,220,236647,1,2,0:0:0:0:
200,196,236735,1,2,0:0:0:0:
144,148,236823,2,0,P|124:204|172:264,1,122.500001168251,4|0,0:0|0:0,0:0:0:0:
244,316,237176,6,0,P|328:312|400:272,1,122.500001168251,8|0,0:0|0:0,0:0:0:0:
412,260,237441,1,2,0:0:0:0:
436,204,237529,2,0,P|424:128|368:80,1,122.500001168251
212,48,237882,1,0,0:0:0:0:
72,184,238058,6,0,P|76:256|152:324,1,122.500001168251
144,320,238323,1,2,0:0:0:0:
188,336,238411,1,2,0:0:0:0:
448,356,238588,5,8,0:0:0:0:
192,196,238764,1,8,0:0:0:0:
448,32,238941,1,8,0:0:0:0:
256,248,239117,1,8,0:0:0:0:
68,32,239294,1,8,0:0:0:0:
316,196,239470,1,8,0:0:0:0:
68,356,239647,1,8,0:0:0:0:
256,140,239823,5,8,0:0:0:0:
256,140,239911,1,0,0:0:0:0:
256,140,239999,2,8,P|252:216|204:296,1,140,4|0,0:0|0:0,0:0:0:0:
464,340,240352,5,2,0:0:0:0:
440,308,240441,1,2,0:0:0:0:
432,276,240529,1,2,0:0:0:0:
408,244,240617,1,2,0:0:0:0:
400,212,240705,6,0,L|368:140,1,61.2500005841255,8|0,0:0|0:0,0:0:0:0:
312,188,240882,6,0,L|280:116,1,61.2500005841255,8|0,0:0|0:0,0:0:0:0:
224,168,241058,2,0,P|220:104|268:64,1,122.500001168251,4|0,0:0|0:0,0:0:0:0:
128,284,241411,5,8,0:0:0:0:
308,52,241588,1,8,0:0:0:0:
251,341,241764,1,8,0:0:0:0:
174,65,241941,1,8,0:0:0:0:
104,300,242117,5,8,0:0:0:0:
436,144,242294,1,8,0:0:0:0:
72,168,242470,1,8,0:0:0:0:
424,308,242647,1,8,0:0:0:0:
174,65,242823,6,2,L|128:20,2,61.2500005841255
302,167,243176,5,2,0:0:0:0:
342,195,243264,1,2,0:0:0:0:
358,243,243352,1,2,0:0:0:0:
342,291,243441,1,2,0:0:0:0:
310,327,243529,2,0,P|270:339|214:335,1,61.2500005841255
214,267,243705,2,0,P|222:227|266:187,1,61.2500005841255
302,167,243882,2,0,P|354:215|326:303,1,122.500001168251
88,348,244235,5,0,0:0:0:0:
32,108,244411,1,0,0:0:0:0:
168,276,244588,5,2,0:0:0:0:
128,276,244676,1,2,0:0:0:0:
88,276,244764,1,2,0:0:0:0:
112,180,244941,5,0,0:0:0:0:
380,32,245117,1,0,0:0:0:0:
212,164,245294,5,2,0:0:0:0:
212,124,245382,1,2,0:0:0:0:
212,84,245470,1,2,0:0:0:0:
396,260,245647,6,0,P|440:208|452:128,2,122.500001168251
356,288,246087,1,0,0:0:0:0:
312,312,246176,2,0,P|248:332|168:276,1,122.500001168251
80,224,246529,1,0,0:0:0:0:
252,132,246705,1,0,0:0:0:0:
92,320,246882,1,0,0:0:0:0:
304,316,247058,5,2,0:0:0:0:
352,312,247147,1,2,0:0:0:0:
396,288,247235,1,2,0:0:0:0:
412,244,247323,1,2,0:0:0:0:
424,184,247411,5,2,0:0:0:0:
376,196,247499,1,2,0:0:0:0:
328,196,247588,1,2,0:0:0:0:
280,184,247676,1,2,0:0:0:0:
228,148,247764,5,2,0:0:0:0:
264,116,247852,1,2,0:0:0:0:
312,108,247941,1,2,0:0:0:0:
360,124,248029,1,2,0:0:0:0:
392,164,248117,6,8,P|384:228|304:276,1,122.500001168251
200,316,248470,6,4,B|144:348|96:296|112:228|176:228,1,175,4|0,0:0|0:0,0:0:0:0:
232,228,249441,2,0,L|268:304,4,52.5000020027161,2|0|2|0|2,0:0|0:0|0:0|0:0|0:0,0:0:0:0:
212,184,249882,5,0,0:0:0:0:
208,136,249970,1,0,0:0:0:0:
244,104,250058,1,0,0:0:0:0:
292,108,250147,1,0,0:0:0:0:
324,140,250235,1,0,0:0:0:0:
324,188,250323,1,0,0:0:0:0:
344,232,250411,1,0,0:0:0:0:
388,252,250499,1,0,0:0:0:0:
456,248,250588,5,0,0:0:0:0:
472,220,250676,1,0,0:0:0:0:
468,188,250764,1,0,0:0:0:0:
444,168,250852,1,0,0:0:0:0:
412,164,250941,1,0,0:0:0:0:
384,152,251029,1,0,0:0:0:0:
368,124,251117,1,0,0:0:0:0:
372,92,251205,1,0,0:0:0:0:
392,68,251294,6,2,L|316:56,3,52.5000020027161
268,108,251647,2,2,L|268:44,3,52.5000020027161
196,60,251999,5,0,0:0:0:0:
176,104,252088,1,0,0:0:0:0:
180,152,252176,1,0,0:0:0:0:
208,192,252264,1,0,0:0:0:0:
216,240,252352,1,0,0:0:0:0:
196,284,252441,1,0,0:0:0:0:
152,304,252529,1,0,0:0:0:0:
104,292,252617,1,0,0:0:0:0:
132,224,252705,6,2,L|100:160,3,52.5000020027161
176,104,253058,2,2,L|236:88,3,52.5000020027161
296,160,253411,2,2,L|296:216,3,52.5000020027161
236,260,253764,5,0,0:0:0:0:
192,280,253852,1,0,0:0:0:0:
152,304,253941,1,0,0:0:0:0:
116,332,254029,1,0,0:0:0:0:
80,364,254117,5,0,0:0:0:0:
100,320,254205,1,0,0:0:0:0:
112,276,254294,1,0,0:0:0:0:
116,228,254382,1,0,0:0:0:0:
112,180,254470,1,0,0:0:0:0:
92,140,254558,1,0,0:0:0:0:
84,92,254647,5,0,0:0:0:0:
100,48,254735,1,0,0:0:0:0:
144,32,254823,1,0,0:0:0:0:
188,52,254911,1,0,0:0:0:0:
200,96,254999,1,0,0:0:0:0:
192,144,255088,1,0,0:0:0:0:
180,188,255176,6,2,L|164:264,3,52.5000020027161
156,308,255529,5,0,0:0:0:0:
184,344,255617,1,0,0:0:0:0:
228,356,255705,1,0,0:0:0:0:
276,348,255794,1,0,0:0:0:0:
312,316,255882,1,0,0:0:0:0:
324,272,255970,1,0,0:0:0:0:
316,224,256058,1,0,0:0:0:0:
284,188,256147,1,0,0:0:0:0:
232,244,256235,5,0,0:0:0:0:
274,243,256323,1,0,0:0:0:0:
316,224,256411,1,0,0:0:0:0:
347,187,256500,1,0,0:0:0:0:
354,139,256588,1,0,0:0:0:0:
335,98,256676,1,0,0:0:0:0:
298,66,256764,1,0,0:0:0:0:
250,59,256853,1,0,0:0:0:0:
204,64,256941,6,0,L|108:84,1,52.5000020027161
52,96,257117,2,0,L|24:160,1,52.5000020027161
116,204,257294,2,0,L|48:260,1,52.5000020027161
20,328,257470,2,0,L|104:340,1,52.5000020027161
172,348,257647,5,0,0:0:0:0:
176,336,257735,1,0,0:0:0:0:
188,324,257823,1,0,0:0:0:0:
212,304,257911,1,0,0:0:0:0:
248,288,257999,1,0,0:0:0:0:
288,292,258088,1,0,0:0:0:0:
328,300,258176,1,0,0:0:0:0:
372,284,258264,1,0,0:0:0:0:
408,248,258352,6,8,P|428:176|400:92,1,140
164,96,258705,2,8,P|140:168|152:248,1,140,8|0,0:0|0:0,0:0:0:0:
284,180,259058,2,2,L|284:256,6,70
284,88,259764,5,0,0:0:0:0:
364,224,259941,1,0,0:0:0:0:
416,72,260117,1,0,0:0:0:0:
196,124,260294,5,2,0:0:0:0:
152,144,260382,1,2,0:0:0:0:
112,172,260470,2,0,P|92:192|76:236,1,52.5000020027161,2|0,0:0|0:0,0:0:0:0:
72,288,260647,2,2,P|80:316|104:340,1,52.5000020027161
164,328,260823,2,2,P|188:312|204:284,1,52.5000020027161
172,228,260999,2,0,P|228:224|272:272,1,105.000004005432,8|0,0:0|0:0,0:0:0:0:
488,352,261352,5,2,0:0:0:0:
456,332,261441,1,2,0:0:0:0:
428,312,261529,2,8,P|384:268|360:216,1,105.000004005432
308,96,261882,5,0,0:0:0:0:
448,224,262058,1,0,0:0:0:0:
440,56,262235,1,0,0:0:0:0:
296,276,262411,1,0,0:0:0:0:
464,136,262588,5,2,0:0:0:0:
460,96,262676,1,2,0:0:0:0:
440,60,262764,2,0,P|392:40|328:52,1,105.000004005432
180,104,263117,1,0,0:0:0:0:
380,128,263294,1,0,0:0:0:0:
116,156,263470,5,2,0:0:0:0:
100,96,263558,1,2,0:0:0:0:
128,40,263647,1,2,0:0:0:0:
188,24,263735,1,2,0:0:0:0:
244,52,263823,1,2,0:0:0:0:
260,112,263911,1,2,0:0:0:0:
260,176,263999,6,0,L|260:256,1,52.5000020027161
292,292,264176,2,0,L|312:347,1,52.5000020027161
226,292,264352,2,0,L|215:343,1,52.5000020027161
316,281,264529,2,0,L|336:336,1,52.5000020027161
199,285,264705,2,0,L|180:336,1,52.5000020027161
347,271,264882,2,0,L|376:324,1,52.5000020027161
168,278,265058,2,0,L|136:328,1,52.5000020027161
374,261,265235,2,0,L|416:312,1,52.5000020027161
132,244,265411,6,0,B|84:236|92:300|0:268,1,105.000004005432,8|0,0:0|0:0,0:0:0:0:
256,192,265764,2,0,B|280:148|324:172|340:132,1,105.000004005432,8|0,0:0|0:0,0:0:0:0:
164,32,266117,5,0,0:0:0:0:
60,216,266294,1,0,0:0:0:0:
248,308,266470,1,0,0:0:0:0:
156,120,266647,1,0,0:0:0:0:
328,60,266823,2,0,P|328:96|312:136,1,52.5000020027161
396,108,266999,2,0,P|384:148|348:172,1,52.5000020027161
452,172,267176,2,8,P|408:224|336:220,1,105.000004005432
184,300,267529,5,0,0:0:0:0:
204,128,267705,1,0,0:0:0:0:
20,264,267882,1,0,0:0:0:0:
92,96,268058,5,2,0:0:0:0:
124,72,268147,1,2,0:0:0:0:
164,76,268235,1,2,0:0:0:0:
200,60,268323,1,0,0:0:0:0:
240,72,268411,1,0,0:0:0:0:
356,188,268588,5,2,0:0:0:0:
388,160,268676,1,2,0:0:0:0:
388,120,268764,1,2,0:0:0:0:
228,176,268941,5,2,0:0:0:0:
204,212,269030,1,2,0:0:0:0:
200,252,269118,1,2,0:0:0:0:
184,292,269206,1,2,0:0:0:0:
192,332,269294,2,8,P|248:308|272:240,1,105.000004005432
252,132,269647,5,0,0:0:0:0:
216,88,269735,1,0,0:0:0:0:
160,72,269823,1,0,0:0:0:0:
104,68,269911,1,0,0:0:0:0:
124,128,269999,5,0,0:0:0:0:
136,184,270088,1,0,0:0:0:0:
124,240,270176,1,0,0:0:0:0:
88,284,270264,1,0,0:0:0:0:
40,320,270352,5,0,0:0:0:0:
92,344,270441,1,0,0:0:0:0:
148,344,270529,1,0,0:0:0:0:
200,324,270617,1,0,0:0:0:0:
244,280,270705,2,0,B|176:176,1,105.000004005432
124,96,271058,5,0,0:0:0:0:
396,96,271235,1,0,0:0:0:0:
257,332,271411,1,0,0:0:0:0:
192,96,271588,5,0,0:0:0:0:
360,156,271764,1,0,0:0:0:0:
220,276,271941,1,0,0:0:0:0:
260,96,272117,5,0,0:0:0:0:
328,216,272294,1,0,0:0:0:0:
188,216,272470,1,0,0:0:0:0:
328,96,272647,5,0,0:0:0:0:
292,276,272823,1,0,0:0:0:0:
156,156,272999,1,0,0:0:0:0:
396,96,273176,5,0,0:0:0:0:
256,336,273352,1,0,0:0:0:0:
124,96,273528,2,0,L|240:96,1,105.000004005432
396,96,273881,6,0,B|287:276,1,210.000008010865
256,192,274322,12,0,275646,0:0:0:0:
