osu file format v9

[General]
AudioFilename: Final_Fantasy_7_The_Omen_of_Jenova_OC_ReMix.mp3
AudioLeadIn: 0
PreviewTime: 26317
Countdown: 1
SampleSet: Soft
StackLeniency: 0.8
Mode: 0
LetterboxInBreaks: 1

[Editor]
Bookmarks: 4151,16067,22651,44234,60984,65484,68651,91984,106317,112734,114484,150651,161317
DistanceSpacing: 1.2
BeatDivisor: 4
GridSize: 4

[Metadata]
Title:The Omen of Jenova
Artist:Nekofrog
Creator:Xafnia
Version:Hard
Source:Final Fantasy VII
Tags:OverClocked ReMix J-E-N-O-V-A Nobuo Uematsu Xenogears aston

[Difficulty]
HPDrainRate:5
CircleSize:4
OverallDifficulty:6
ApproachRate:7
SliderMultiplier:1.4
SliderTickRate:1

[Events]
//Background and Video events
0,0,"x.jpg"
//Break Periods
2,29683,30417
2,47851,48417
//Storyboard Layer 0 (Background)
//Storyboard Layer 1 (Fail)
//Storyboard Layer 2 (Pass)
//Storyboard Layer 3 (Foreground)
//Storyboard Sound Samples
//Background Colour Transformations
3,100,247,247,247

[TimingPoints]
1318,333.333333333333,4,2,0,50,1,0
161317,-100,4,2,0,50,0,1
177317,-100,4,2,0,50,0,0
187984,-100,4,2,0,50,0,1
193234,-66.6666666666667,4,2,0,50,0,1
198651,-100,4,2,0,50,0,0

[Colours]
Combo1 : 240,240,240
Combo2 : 159,238,217
Combo3 : 186,73,77

[HitObjects]
176,72,1817,1,0
216,112,2150,1,0
216,112,2317,1,0
476,312,3150,5,0
432,276,3484,1,0
432,276,3651,1,0
120,308,4651,5,0
160,268,4984,1,0
160,268,5151,1,0
392,144,5817,5,0
348,176,6150,1,0
348,176,6317,1,0
204,52,6651,6,0,B|220:84|204:132,1,70
144,92,6984,2,0,B|131:128|147:160,1,70
204,120,7317,2,0,B|220:152|204:200,3,70
280,188,7984,6,0,B|267:151|283:119,1,70
348,152,8317,2,0,B|360:115|344:83,1,70
284,116,8651,6,0,B|271:79|287:47,3,70
216,52,9317,6,0,B|216:152,1,70
216,52,9650,2,0,B|116:52,1,70
216,52,9984,2,0,B|286:52,3,70
356,52,10651,6,0,B|356:152,1,70
356,52,10984,2,0,B|256:52,1,70
356,52,11318,2,0,B|426:52,3,70
164,284,12651,5,4
232,284,13984,1,4
304,284,15317,1,4
56,156,15984,6,0,B|124:156,1,70
184,196,16317,2,0,B|116:196,1,70
52,228,16651,2,0,B|120:228,1,70
184,264,16984,2,0,B|116:264,1,70
256,192,17317,12,0,17984
300,236,18151,2,0,B|304:140|240:140,1,105
232,156,18484,2,0,B|228:252|304:252,1,105
384,192,20651,6,0,B|419:213|420:254|420:254,1,70
384,192,20984,2,0,B|348:212|312:192|312:192,1,70
384,192,21317,2,0,B|384:150|420:129|420:129,1,70
284,80,21817,2,0,B|76:80,1,210
76,220,22651,2,0,B|380:220,1,280
120,72,23984,5,0
188,84,24151,1,0
140,136,24317,1,0
208,152,24484,1,0
160,200,24651,1,8
436,148,25317,5,0
368,160,25484,1,0
416,212,25650,1,0
348,228,25817,1,0
396,276,25984,1,8
120,72,26651,5,0
188,84,26818,1,0
140,136,26984,1,0
208,152,27151,1,0
160,200,27318,1,8
272,116,27984,2,0,B|268:280,1,140
48,84,28984,2,0,B|58:49|112:32,1,70
164,64,29317,2,0,B|154:98|100:116,1,70
276,236,31317,6,0,B|286:201|340:184,1,70
392,212,31651,2,0,B|382:246|328:264,1,70
276,236,31984,2,0,B|236:248|226:282,1,70
180,76,32651,2,0,B|170:111|116:128,1,70,0|0
328,192,33317,2,0,B|337:157|376:146,1,70,0|0
172,212,33984,5,0
268,112,34317,1,0
268,112,34401,1,0
268,112,34484,1,0
268,112,34567,1,0
268,112,34651,1,0
336,96,34817,1,0
316,164,34984,1,0
384,144,35151,1,0
368,212,35317,1,4
188,324,35651,5,0
256,324,35817,1,0
220,264,35984,1,0
188,324,36151,1,0
68,72,36651,5,0
68,72,36734,1,0
68,72,36817,1,0
68,72,36901,1,0
68,72,36984,1,0
276,80,37484,5,0
192,192,37817,1,0
332,204,38151,1,0
272,164,38317,1,0
272,164,38401,1,0
272,164,38484,1,0
216,40,38984,5,0
216,40,39151,1,0
288,96,39317,1,0
288,96,39484,1,0
204,128,39651,1,0
204,128,39817,1,0
132,72,39984,1,0
132,72,40151,1,0
116,160,40317,1,0
116,160,40484,1,0
40,108,40651,1,0
40,108,40817,1,0
32,200,40984,1,0
32,200,41151,1,0
108,248,41317,1,0
108,248,41484,1,0
204,264,41651,6,0,B|272:264,1,70
224,216,41984,2,0,B|289:192,1,70
228,160,42317,2,0,B|281:115,1,70
212,116,42651,2,0,B|247:55,1,70
463,284,43317,2,0,B|428:344,1,70
112,333,43984,2,0,B|146:272,1,70
84,73,44984,5,0
258,122,45317,1,0
168,103,45484,1,0
168,103,45567,1,0
168,103,45651,1,0
139,189,45817,1,0
109,275,45984,1,0
73,359,46151,1,0
162,346,46317,1,8
314,245,46651,5,0
404,234,46817,1,0
404,234,46901,1,0
404,234,46984,1,0
494,227,47151,1,0
443,151,47317,1,0
388,78,47484,1,0
351,161,47651,1,0
108,76,49317,6,0,B|196:76|196:160,1,140
48,272,50317,2,0,B|92:272|92:316,1,70
100,208,50651,2,0,B|56:208|56:164,1,70
24,80,50984,5,0
204,88,51317,1,0
112,84,51484,1,0
24,80,51651,1,0
168,192,51984,1,0
260,196,52151,1,0
348,220,52317,6,0,B|330:285,1,70
392,356,52651,2,0,B|410:286,1,70
348,220,52984,6,0,B|330:285,1,70
248,328,53317,5,0
200,252,53484,1,0
160,172,53651,1,0
252,172,53817,1,0
252,172,53901,1,0
252,172,53984,1,0
72,172,54317,5,0
232,88,54651,2,0,B|332:88|332:88|412:168,1,210
244,244,55484,1,0
192,168,55651,1,0
272,164,55984,5,0
272,164,56067,1,0
272,164,56151,1,0
272,164,56234,1,0
272,164,56317,1,0
272,164,56401,1,0
272,164,56484,1,0
272,164,56567,1,0
272,164,56651,1,0
292,348,56984,5,0
440,240,57317,1,0
424,56,57651,1,0
424,56,57817,1,0
176,172,58317,1,0
252,172,58651,5,0
252,172,58734,1,0
252,172,58817,1,0
252,172,58901,1,0
252,172,58984,1,0
252,172,59067,1,0
252,172,59151,1,0
396,296,59651,5,0
396,296,59734,1,0
396,296,59817,1,0
396,296,59901,1,0
396,296,59984,1,0
116,300,60317,5,0
256,56,60651,1,0
256,336,60984,1,0
112,96,61317,1,0
392,96,61651,6,0,B|400:108|400:108|420:108,1,35
448,144,61817,2,0,B|440:156|440:156|419:156,1,35
392,192,61984,2,0,B|400:204|400:204|420:204,1,35
304,276,62317,2,0,B|296:288|296:288|275:288,1,35
248,152,62651,2,0,B|256:164|256:164|276:164,1,35
200,276,62984,2,0,B|192:288|192:288|171:288,1,35
144,324,63151,2,0,B|152:336|152:336|172:336,1,35
47,240,63484,5,0
95,179,63651,1,0
150,126,63817,1,0
218,90,63984,1,0
294,77,64151,1,0
369,90,64317,1,0
437,125,64484,1,0
397,191,64651,1,0
339,241,64817,1,0
270,276,64984,1,0
193,285,65151,1,0
116,281,65317,1,0
256,192,65401,12,0,66651
256,104,66984,6,0,B|292:104,1,35
256,104,67151,2,0,B|256:68,1,35
256,104,67317,2,0,B|220:104,1,35
256,168,67651,2,0,B|256:236,1,70
328,240,67984,2,0,B|328:160,1,70
328,100,68317,2,0,B|328:64,1,35
328,100,68484,2,0,B|368:100,1,35
68,208,69317,5,0
176,116,69651,1,0
176,116,69734,1,0
176,116,69817,1,0
176,116,69901,1,0
176,116,69984,1,0
196,256,70317,1,0
196,256,70401,1,0
196,256,70484,1,0
196,256,70567,1,0
196,256,70651,1,0
376,152,71151,5,8
436,208,71317,1,0
436,292,71484,1,0
380,348,71651,1,0
320,292,71817,1,0
320,208,71984,1,0
376,152,72151,1,0
376,152,72234,1,0
376,152,72317,1,0
296,128,72484,5,8
232,72,72651,1,0
220,156,72817,1,0
152,108,72984,1,0
144,192,73151,1,0
80,140,73317,1,0
68,224,73484,1,0
68,224,73567,1,0
68,224,73651,1,0
132,276,73817,5,8
280,192,74151,1,0
424,104,74484,1,0
440,272,74817,1,0
440,272,74901,1,0
440,272,74984,1,0
300,60,75484,1,0
300,60,75567,1,0
300,60,75651,1,0
