osu file format v6

[General]
AudioFilename: Neko Jump - Poo.mp3
AudioLeadIn: 0
PreviewTime: 17852
Countdown: 0
SampleSet: Normal
StackLeniency: 0.7
Mode: 0
LetterboxInBreaks: 1

[Editor]
DistanceSpacing: 0.699999988079071
BeatDivisor: 4
GridSize: 8

[Metadata]
Title:Poo (TV Size)
Artist:Neko Jump
Creator:orioncomet
Version:Normal
Source:Anyamaru Tantei Kiruminzuu
Tags:Anime Anyamaru Kirumin Nekojump Poo Thai

[Difficulty]
HPDrainRate:2
CircleSize:4
OverallDifficulty:5
SliderMultiplier:1
SliderTickRate:2

[Events]
//Background and Video events
0,0,"003l.jpg"
Video,0,"poo.flv"
//Break Periods
//Storyboard Layer 0 (Background)
//Storyboard Layer 1 (Fail)
//Storyboard Layer 2 (Pass)
//Storyboard Layer 3 (Foreground)
//Storyboard Sound Samples
//Background Colour Transformations
3,100,128,64,64

[TimingPoints]
7462,340.909090909091,4,1,0,44,1,0
34727,-100,4,1,0,44,0,1
56034,-100,4,1,0,23,0,0
66773,-100,4,1,0,44,0,0
67455,-100,4,1,0,44,0,1
78712,-100,4,1,0,44,0,0

[Colours]
Combo1 : 122,208,254
Combo2 : 243,243,243
Combo3 : 255,128,192
Combo4 : 255,128,0

[HitObjects]
96,80,7462,1,2
168,80,7802,1,0
240,80,8143,2,0,B|240:192,1,100,2|0
208,248,8825,1,2
256,296,9166,1,0
312,248,9507,1,2
376,272,9848,6,0,B|496:160|344:88,1,200,0|2
328,56,10871,1,0
256,56,11211,1,2
288,120,11552,1,4
152,96,12234,5,0
152,200,12746,2,0,B|184:256|296:232,1,150,2|2
344,184,13598,1,0
344,112,13939,1,2
272,104,14280,2,0,B|272:312,1,200,0|2
432,336,15643,5,0
416,264,15984,1,2
456,208,16325,2,0,B|528:96|416:40,1,200,0|6
232,160,18030,5,2
192,216,18371,1,0
136,176,18711,1,2
176,120,19052,1,0
200,56,19393,2,0,B|224:104|296:120|352:96|384:32,1,200,2|8
440,72,20416,5,8
480,128,20757,1,0
480,200,21098,1,8
472,272,21439,2,0,B|368:272,1,100,0|8
304,256,22121,2,0,B|368:296|496:240|432:120|352:96,1,300,2|12
304,160,23484,5,2
232,152,23825,1,8
216,80,24166,2,0,B|144:112|96:176|160:288|296:288|296:169|432:200,1,400,2|8
440,144,25871,6,0,B|520:168|520:264|432:288,1,200,2|8
376,248,26893,1,2
320,208,27234,1,8
264,248,27575,2,0,B|184:304|104:240|112:184,1,200,2|8
168,104,28768,6,2,B|168:168|392:168|392:352,1,350
336,312,30302,2,2,B|248:376|136:304,1,200
104,256,31325,1,0
64,200,31666,5,8
72,128,32007,1,0
144,128,32348,1,8
216,200,32859,6,0,B|216:48,2,150,2|4|2
312,232,34393,6,0,B|312:352,1,100,0|2
208,320,35246,5,0
176,320,35416,1,8
104,320,35757,1,0
104,248,36098,1,2
104,176,36439,5,0
104,176,36609,1,2
104,176,36780,1,8
104,104,37121,6,0,B|104:16|264:16,1,200,2|2
328,24,38143,2,0,B|392:24|392:96,1,100
464,96,38825,2,0,B|464:168|408:168,1,100
408,240,39507,1,8
408,312,39848,6,0,B|304:312,1,100,0|2
240,312,40530,2,0,B|128:312|128:168,1,200,2|8
168,120,41552,1,2
216,168,41893,1,8
224,240,42234,1,2
168,280,42575,1,8
96,272,42916,6,0,B|40:152|192:88|264:224,2,300,2|2|2
168,264,45302,6,0,B|168:352|336:352,1,200,8|2
320,280,46325,1,2
312,208,46666,2,0,B|224:208|224:80|328:80,1,200,2|8
336,144,47689,1,8
368,80,48030,6,0,B|456:80|456:208|352:208,1,200,2|8
360,280,49052,1,0
288,280,49393,1,2
216,280,49734,1,0
184,216,50075,6,0,B|96:216|96:88|200:88,2,200,2|8|2
256,216,51780,1,8
328,216,52121,1,2
328,288,52461,1,8
256,288,52802,6,0,B|184:328|112:280|112:200,2,200,2|2|2
256,144,54848,5,2
256,72,55189,1,6
256,248,56041,6,0,B|416:248|416:96,1,250,2|8
352,80,57234,5,0
288,48,57575,1,8
224,80,57916,1,2
288,112,58257,5,8
288,184,58598,1,8
288,256,58939,6,2,B|176:256,1,100
80,256,59791,2,2,B|152:184|90:80|192:32,1,250
224,96,60984,1,8
264,40,61325,2,2,B|352:96|464:40,1,200
464,112,62348,5,8
496,176,62689,1,0
424,176,63030,1,8
352,176,63371,6,0,B|296:264,1,100,0|2
232,240,64052,1,2
216,168,64393,6,0,B|96:224|32:72|200:24,1,300,2|4
288,48,65927,5,2
216,48,66268,1,0
248,112,66609,1,12
184,144,66950,6,2,B|184:48|88:48,1,150
40,208,68143,5,2
112,208,68484,1,0
184,208,68825,1,2
184,136,69166,2,0,B|184:64|240:64,1,100,0|2
304,64,69848,6,0,B|336:176,1,100,0|2
256,240,70700,2,0,B|208:352|32:296|48:152|136:112,1,350,8|8
72,72,72234,1,2
48,136,72575,2,0,B|48:240,1,100,8|4
120,240,73257,5,0
168,288,73598,1,2
216,240,73939,1,0
256,184,74280,6,0,B|256:104|400:104|400:224,1,200,2|2
368,256,75302,2,0,B|320:296|264:248,1,100,0|0
256,208,75984,12,4,78371
