osu file format v6

[General]
AudioFilename: Neko Jump - Poo.mp3
AudioLeadIn: 0
PreviewTime: 17852
Countdown: 0
SampleSet: Normal
StackLeniency: 0.7
Mode: 0
LetterboxInBreaks: 1

[Editor]
DistanceSpacing: 0.800000011920929
BeatDivisor: 4
GridSize: 8

[Metadata]
Title:Poo (TV Size)
Artist:Neko Jump
Creator:orioncomet
Version:Hard
Source:Anyamaru Tantei Kiruminzuu
Tags:Anime Anyamaru Kirumin Nekojump Poo Thai

[Difficulty]
HPDrainRate:5
CircleSize:5
OverallDifficulty:6
SliderMultiplier:1.4
SliderTickRate:2

[Events]
//Background and Video events
0,0,"001l.jpg"
Video,0,"poo.flv"
//Break Periods
//Storyboard Layer 0 (Background)
//Storyboard Layer 1 (Fail)
//Storyboard Layer 2 (Pass)
//Storyboard Layer 3 (Foreground)
//Storyboard Sound Samples
//Background Colour Transformations
3,100,128,64,64

[TimingPoints]
7462,340.909090909091,4,1,0,31,1,0
34727,-100,4,1,0,31,0,1
55949,-100,4,1,0,20,0,0
67028,-100,4,1,0,31,0,0
67455,-100,4,1,0,31,0,1
78534,-100,4,1,0,31,0,0

[Colours]
Combo1 : 122,208,254
Combo2 : 243,243,243
Combo3 : 255,128,192
Combo4 : 255,128,0

[HitObjects]
104,200,7462,2,2,B|168:256|240:192,1,140
232,144,7973,1,8
248,88,8143,1,2
288,48,8314,1,8
344,48,8484,2,2,B|424:48|424:144,1,140,0|8
368,240,9166,2,0,B|432:296|496:240,1,140,2|2
424,160,9848,1,4
368,160,10018,5,2
312,160,10189,1,8
256,160,10359,1,0
200,160,10530,2,2,B|128:160|128:240|224:240,1,140,8|0
312,232,11211,1,8
256,232,11382,1,0
200,232,11552,1,12
88,232,11893,6,0,B|88:160,1,70,2|0
88,104,12234,2,0,B|160:104,1,70,2|2
144,160,12575,1,0
160,216,12746,5,0
208,184,12916,1,2
256,216,13086,1,0
312,216,13257,2,2,B|384:216|384:296|288:296,1,140
256,280,13768,1,0
200,296,13939,1,0
240,336,14109,1,2
296,336,14280,1,0
352,336,14450,1,0
408,336,14621,2,2,B|480:336|480:256|384:256,1,140
296,256,15302,5,8
352,256,15473,1,0
408,256,15643,1,2
464,256,15814,1,0
496,208,15984,1,8
496,152,16155,2,2,B|496:80,1,70
384,88,16666,2,2,B|328:128|296:48|240:96,1,140,2|6
120,192,17518,5,8
240,304,18030,6,2,B|240:360|360:360,1,140
304,256,18711,1,2
360,256,18882,1,0
392,216,19052,1,8
448,120,19393,1,2
336,120,19734,1,2
224,120,20075,6,0,B|224:192,2,70,0|2|8
168,120,20586,1,0
112,120,20757,2,2,B|168:176|104:256,1,140
216,288,21439,1,8
272,288,21609,1,0
320,312,21780,1,2
432,312,22121,1,2
376,216,22461,1,2
264,216,22802,5,8
152,216,23143,1,8
48,160,23484,6,2,B|48:72|136:72,1,140
248,72,24166,1,8
304,72,24336,2,2,B|376:72,1,70
312,168,24848,1,8
424,168,25189,1,2
424,224,25359,2,0,B|424:296,1,70,0|2
384,336,25700,1,0
328,336,25871,5,2
232,280,26211,1,8
120,272,26552,1,2
56,176,26893,2,2,B|-16:112|80:40,1,140
168,32,27575,2,0,B|216:88,1,70,8|0
272,88,27916,2,0,B|344:88,1,70,8|0
336,144,28257,1,2
288,168,28427,1,4
160,176,28768,6,0,B|72:176|72:272,1,140,2|0
112,304,29280,2,0,B|200:304|200:208,1,140,2|0
256,120,29961,5,8
312,120,30132,2,0,B|384:120,1,70,0|8
384,176,30473,2,0,B|312:176,1,70,0|8
200,176,30984,1,2
200,176,31155,1,0
112,104,31496,5,8
144,56,31666,1,0
176,104,31836,1,0
232,104,32007,1,8
344,104,32348,1,4
280,256,32859,5,8
336,256,33030,2,2,B|400:256|400:160|304:160,1,140
224,168,33711,1,8
224,168,33882,1,4
112,168,34223,6,2,B|112:88|208:88,1,140
204,88,34734,1,2
304,40,35075,1,2
352,64,35246,1,0
304,96,35416,1,8
304,208,35757,1,2
304,208,35927,1,0
248,208,36098,2,2,B|176:208,1,70
120,208,36439,2,2,B|88:240|120:272,1,70
224,304,36950,6,2,B|296:360|352:296,1,140
348,299,37461,1,2
464,304,37802,2,2,B|464:232,1,70
464,234,38143,1,8
464,176,38314,1,0
464,120,38484,1,8
424,80,38655,1,0
464,40,38825,1,12
352,40,39166,5,2
352,40,39336,1,4
240,40,39677,5,0
184,40,39848,1,2
184,96,40018,1,0
240,96,40189,1,8
240,264,40700,2,2,B|168:264,1,70
168,208,41041,2,0,B|96:208,1,70,0|2
56,176,41382,2,0,B|40:208,2,35
56,120,41723,1,8
56,120,41893,2,0,B|120:64|184:128,1,140,2|2
296,120,42575,5,8
240,120,42746,1,0
240,176,42916,2,2,B|376:288|504:168,1,280
496,232,43768,1,8
496,288,43939,1,0
440,288,44109,1,8
392,320,44280,1,4
312,248,44621,5,8
368,248,44791,1,0
368,192,44961,1,8
424,192,45132,6,2,B|424:112|328:112,1,140
331,112,45643,1,2
232,64,45984,1,8
184,88,46155,1,0
232,120,46325,1,8
232,232,46666,1,2
232,232,46836,1,0
288,232,47007,2,2,B|360:232,1,70
416,232,47348,6,0,B|448:264|416:296,1,70,0|2
368,320,47689,1,12
312,328,47859,6,2,B|240:384|184:320,1,140
187,323,48371,1,2
72,328,48711,2,2,B|72:256,1,70
72,258,49052,1,8
72,200,49223,1,2
72,144,49393,1,0
112,104,49564,1,2
72,64,49734,1,4
184,64,50075,5,10
184,64,50246,1,0
240,64,50416,1,6
296,64,50586,5,0
352,64,50757,1,2
352,120,50927,1,0
296,120,51098,1,8
296,288,51609,2,2,B|368:288,1,70
368,232,51950,2,0,B|440:232,1,70,0|2
480,200,52291,2,0,B|496:232,2,35
480,144,52632,1,8
480,144,52802,2,2,B|416:88|352:152,1,140,0|0
240,144,53484,5,2
296,144,53655,1,0
296,200,53825,2,0,B|160:312|32:192,2,280,2|2|2
408,200,55530,1,2
408,200,55700,1,0
448,160,55871,1,2
408,120,56041,6,2,B|336:120,1,70
280,120,56382,2,2,B|280:192,1,70
168,192,56893,2,0,B|104:128|176:72,2,140,8|2|8
168,304,57916,1,2
224,304,58086,6,0,B|264:304,2,35,0|0|8
224,248,58427,2,0,B|224:208,2,35,0|0|8
168,248,58768,6,2,B|96:248,1,70
40,248,59109,2,0,B|8:216|40:184,1,70,0|2
144,144,59621,1,0
104,104,59791,1,8
104,48,59961,1,0
160,48,60132,2,2,B|224:104|296:40,1,140
286,47,60643,1,2
288,160,60984,6,0,B|328:160,2,35,0|0|8
232,160,61325,2,0,B|192:160,2,35,0|0|8
256,208,61666,6,2,B|168:256|264:312,1,140
312,312,62177,2,0,B|384:312,1,70,0|8
432,280,62518,1,0
464,240,62689,1,2
464,128,63030,2,0,B|376:128|376:216,1,140,2|8
264,216,63711,2,0,B|176:216|176:128,1,140,2|8
96,56,64393,1,2
208,56,64734,1,2
264,56,64905,6,0,B|304:56,2,35,0|0|8
264,112,65246,1,0
264,112,65331,1,0
264,112,65416,1,8
264,168,65586,1,0
264,168,65672,1,0
264,168,65757,1,8
264,224,65927,6,2,B|176:224|176:312,1,140
232,312,66439,2,0,B|304:312,1,70,8|0
360,312,66780,2,0,B|432:312,1,70,0|8
432,256,67121,5,0
464,208,67291,1,0
432,160,67461,1,8
464,112,67632,2,2,B|464:40,1,70
408,48,67973,5,0
376,96,68143,1,2
376,152,68314,1,0
320,152,68484,1,2
280,192,68655,1,0
240,152,68825,2,0,B|168:152,1,70
112,152,69166,6,8,B|80:120|112:88,1,70
160,64,69507,1,2
216,56,69677,6,2,B|288:0|344:64,1,140
340,60,70189,1,2
456,56,70530,2,2,B|456:128,1,70
456,126,70871,1,8
456,184,71041,1,0
456,240,71212,1,2
416,280,71382,1,0
456,320,71552,1,2
344,320,71893,5,2
344,320,72064,1,0
288,320,72234,1,12
232,320,72405,5,0
176,320,72575,1,2
176,264,72746,1,0
232,264,72916,1,8
232,96,73427,2,0,B|160:96,1,70,2|0
160,152,73768,2,0,B|88:152,1,70,2|0
48,184,74109,2,0,B|32:152,2,35
48,240,74450,1,8
48,240,74621,2,2,B|112:296|176:232,1,140,0|0
288,240,75302,5,0
232,240,75473,1,2
232,184,75643,2,2,B|368:72|496:192,1,280
440,208,76496,1,2
392,232,76666,1,12
256,192,76837,12,4,78371
