osu file format v6

[General]
AudioFilename: Neko Jump - Poo.mp3
AudioLeadIn: 0
PreviewTime: 17852
Countdown: 0
SampleSet: Normal
StackLeniency: 0.7
Mode: 0
LetterboxInBreaks: 1

[Editor]
DistanceSpacing: 0.800000011920929
BeatDivisor: 1
GridSize: 8

[Metadata]
Title:Poo (TV Size)
Artist:Neko Jump
Creator:orioncomet
Version:Easy
Source:Anyamaru Tantei Kiruminzuu
Tags:Anime Anyamaru Kirumin Nekojump Poo Thai

[Difficulty]
HPDrainRate:0
CircleSize:3
OverallDifficulty:0
SliderMultiplier:0.9
SliderTickRate:2

[Events]
//Background and Video events
0,0,"002l.jpg"
Video,0,"poo.flv"
//Break Periods
//Storyboard Layer 0 (Background)
//Storyboard Layer 1 (Fail)
//Storyboard Layer 2 (Pass)
//Storyboard Layer 3 (Foreground)
//Storyboard Sound Samples
//Background Colour Transformations
3,100,128,64,64

[TimingPoints]
7462,340.909090909091,4,1,0,37,1,0
34727,-100,4,1,0,37,0,1
55949,-100,4,1,0,21,0,0
67455,-100,4,1,0,37,0,1
76922,-100,4,1,0,23,0,1
78193,-100,4,1,0,37,0,0

[Colours]
Combo1 : 122,208,254
Combo2 : 243,243,243
Combo3 : 255,128,192
Combo4 : 255,128,0

[HitObjects]
464,320,7462,2,2,B|280:320,1,180
208,320,8484,2,0,B|120:240|216:160,1,180
208,166,9507,1,2
248,104,9848,6,0,B|432:104,2,180,0|2|0
176,104,11552,1,2
64,192,12234,5,2
136,192,12575,1,0
136,192,12916,2,2,B|136:288|264:288,1,180
336,288,13939,1,0
408,288,14280,2,0,B|408:192,2,90,0|2|4
312,176,15643,6,2,B|312:272|200:328|64:272|72:168,1,360
264,64,18030,5,8
192,64,18371,1,0
120,64,18711,1,8
120,136,19052,2,2,B|200:216|288:136,1,180
216,272,20416,6,2,B|136:200|216:112,1,180
288,120,21439,2,0,B|368:192|288:280,1,180,8|8
248,336,22461,1,2
168,216,23143,5,0
168,216,23484,2,2,B|48:216|48:112,1,180
96,64,24507,1,2
168,48,24848,2,0,B|288:48|288:152,1,180,8|8
280,224,25871,6,0,B|280:344|384:344,1,180,2|8
392,272,26893,1,0
440,224,27234,2,12,B|504:128|432:56,1,180,12|6
296,72,28598,6,0,B|200:72,1,90,0|2
136,72,29280,2,2,B|40:72|40:208,1,180
112,200,30302,6,0,B|112:296,2,90,0|0|2
184,200,31325,2,2,B|280:200|280:64,1,180
352,72,32348,1,2
368,216,33030,6,0,B|272:216,1,90,2|4
152,152,34052,5,2
80,152,34393,1,0
80,224,34734,1,4
224,224,35416,6,0,B|352:224|352:136|280:136,1,180,2|2
440,152,36780,5,8
512,152,37121,1,0
512,80,37461,1,2
368,80,38143,6,2,B|304:80|304:176|216:176,1,180
104,96,39507,5,8
48,144,39848,1,0
96,200,40189,1,2
232,144,40871,6,0,B|328:96|408:152,1,180,8|2
400,224,41893,6,0,B|304:224,1,90,0|2
240,224,42575,2,0,B|240:272|88:272|88:208,2,180,0|0|2
240,152,44280,1,4
152,232,44961,5,8
80,232,45302,1,0
80,160,45643,1,2
224,160,46325,6,2,B|192:224|224:288|320:288,1,180
432,232,47689,5,8
504,232,48030,1,0
504,304,48371,1,2
360,304,49052,6,0,B|296:304|296:208|208:208,1,180,2|2
96,288,50416,5,2
48,240,50757,1,0
96,184,51098,1,8
232,232,51780,5,2
304,232,52121,2,0,B|424:232|424:96|320:64|280:104,1,270,8|2
240,160,53484,6,0,B|240:112|88:112|88:176,2,180,0|2|2
240,232,55189,1,4
408,192,55871,5,8
480,192,56211,1,0
480,120,56552,1,2
336,120,57234,6,2,B|368:184|328:248|240:248,1,180
120,192,58598,5,2
48,192,58939,1,0
48,264,59280,1,8
192,264,59961,6,2,B|256:264|256:168|344:168,1,180
456,248,61325,5,8
512,200,61666,1,0
464,144,62007,1,2
328,192,62689,5,8
256,192,63030,2,0,B|160:192,1,90,0|8
160,120,63711,6,0,B|256:120,1,90,0|8
320,120,64393,2,0,B|320:72|472:72|472:136,2,180,0|8|8
320,192,66098,6,0,B|240:240|144:184,2,180,2|2|6
448,128,68143,6,0,B|448:32,1,90,0|2
376,40,68825,2,0,B|376:144,2,90,0|2|4
304,40,69848,6,0,B|208:40,1,90,0|2
144,40,70530,2,0,B|144:144,2,90,0|2|4
216,40,71552,1,4
216,112,71893,5,0
288,112,72234,2,2,B|376:112|376:248,1,180
232,256,73598,5,2
160,256,73939,1,0
104,216,74280,1,8
256,192,74621,12,4,77007
