osu file format v14

[General]
AudioFilename: Potter Puppet Pals_ The Mysterious Ticking Noise.mp3
AudioLeadIn: 0
PreviewTime: 0
Countdown: 0
SampleSet: Soft
StackLeniency: 0.7
Mode: 3
LetterboxInBreaks: 0
SpecialStyle: 0
WidescreenStoryboard: 0

[Editor]
Bookmarks: 31925,39800,47800,55800,63800,100800
DistanceSpacing: 2
BeatDivisor: 6
GridSize: 16
TimelineZoom: 1.9

[Metadata]
Title:The Mysterious Ticking Noise
TitleUnicode:The Mysterious Ticking Noise
Artist:Neil Cicierega
ArtistUnicode:Neil Cicierega
Creator:Sinnoh
Version:What is that mysterious ticking noise?
Source:Potter Puppet Pals
Tags:
BeatmapID:1892911
BeatmapSetID:907145

[Difficulty]
HPDrainRate:8
CircleSize:5
OverallDifficulty:8
ApproachRate:5
SliderMultiplier:1.4
SliderTickRate:1

[Events]
//Background and Video events
0,0,"potterpuppetsticking.jpg",0,0
//Break Periods
//Storyboard Layer 0 (Background)
//Storyboard Layer 1 (Fail)
//Storyboard Layer 2 (Pass)
//Storyboard Layer 3 (Foreground)
//Storyboard Sound Samples

[TimingPoints]
1300,500,4,2,0,60,1,0
31800,500,4,2,0,60,1,0
71800,-100,4,2,0,60,0,0
71925,-100,4,2,0,60,0,0
72050,-99.009900990099,4,2,0,60,0,0
72175,-98.0392156862745,4,2,0,60,0,0
72300,-97.0873786407767,4,2,0,60,0,0
72425,-95.2380952380952,4,2,0,60,0,0
72550,-93.4579439252336,4,2,0,60,0,0
72675,-90.9090909090909,4,2,0,60,0,0
72800,-88.495575221239,4,2,0,60,0,0
72925,-85.4700854700855,4,2,0,60,0,0
73050,-82.6446280991736,4,2,0,60,0,0
73175,-80,4,2,0,60,0,0
73300,-76.9230769230769,4,2,0,60,0,0
73425,-74.0740740740741,4,2,0,60,0,0
73550,-70.9219858156028,4,2,0,60,0,0
73675,-68.0272108843538,4,2,0,60,0,0
73800,-65.359477124183,4,2,0,60,0,0
73925,-62.5,4,2,0,60,0,0
74050,-59.8802395209581,4,2,0,60,0,0
74175,-57.1428571428571,4,2,0,60,0,0
74300,-54.6448087431694,4,2,0,60,0,0
74425,-52.0833333333333,4,2,0,60,0,0
74550,-49.7512437810945,4,2,0,60,0,0
74675,-47.6190476190476,4,2,0,60,0,0
74800,-45.4545454545455,4,2,0,60,0,0
74925,-43.4782608695652,4,2,0,60,0,0
75050,-41.49377593361,4,2,0,60,0,0
75175,-39.6825396825397,4,2,0,60,0,0
75300,-38.0228136882129,4,2,0,60,0,0
75425,-36.3636363636364,4,2,0,60,0,0
75550,-34.8432055749129,4,2,0,60,0,0
75675,-33.3333333333333,4,2,0,60,0,0
75800,-100,4,2,0,60,0,0
99800,-50,4,2,0,60,0,0
100800,-66.6666666666667,4,2,0,60,0,0
102800,-76.9230769230769,4,2,0,60,0,0
103050,-83.3333333333333,4,2,0,60,0,0
103300,-90.9090909090909,4,2,0,60,0,0
103550,-100,4,2,0,60,0,0
108733,458.015267175573,4,2,0,60,1,0

[HitObjects]
256,192,31800,5,0,0:0:0:0:
256,192,32800,1,0,0:0:0:0:
256,192,33800,1,0,0:0:0:0:
256,192,34133,1,0,0:0:0:0:
256,192,34300,1,0,0:0:0:0:
256,192,34800,1,0,0:0:0:0:
256,192,35800,1,0,0:0:0:0:
256,192,36800,1,0,0:0:0:0:
256,192,37800,1,0,0:0:0:0:
256,192,38133,1,0,0:0:0:0:
256,192,38300,1,0,0:0:0:0:
256,192,38800,1,0,0:0:0:0:
51,192,39300,1,0,0:0:0:0:
51,192,39633,1,0,0:0:0:0:
256,192,39800,1,0,0:0:0:0:
51,192,39800,1,0,0:0:0:0:
256,192,40800,1,0,0:0:0:0:
256,192,41800,1,0,0:0:0:0:
256,192,42133,1,0,0:0:0:0:
256,192,42300,1,0,0:0:0:0:
256,192,42800,1,0,0:0:0:0:
51,192,43300,1,0,0:0:0:0:
51,192,43633,1,0,0:0:0:0:
256,192,43800,1,0,0:0:0:0:
51,192,43800,1,0,0:0:0:0:
256,192,44800,1,0,0:0:0:0:
256,192,45800,1,0,0:0:0:0:
256,192,46133,1,0,0:0:0:0:
256,192,46300,1,0,0:0:0:0:
256,192,46800,1,0,0:0:0:0:
51,192,47300,1,0,0:0:0:0:
51,192,47633,1,0,0:0:0:0:
256,192,47800,1,0,0:0:0:0:
51,192,47800,1,0,0:0:0:0:
153,192,48300,128,0,48800:0:0:0:0:
256,192,48800,1,0,0:0:0:0:
153,192,49300,128,0,49800:0:0:0:0:
256,192,49800,1,0,0:0:0:0:
256,192,50133,1,0,0:0:0:0:
256,192,50300,1,0,0:0:0:0:
153,192,50300,1,0,0:0:0:0:
256,192,50800,1,0,0:0:0:0:
153,192,50800,1,0,0:0:0:0:
51,192,51300,1,0,0:0:0:0:
153,192,51300,1,0,0:0:0:0:
51,192,51633,1,0,0:0:0:0:
256,192,51800,1,0,0:0:0:0:
51,192,51800,1,0,0:0:0:0:
153,192,52300,128,0,52800:0:0:0:0:
256,192,52800,1,0,0:0:0:0:
153,192,53300,128,0,53800:0:0:0:0:
256,192,53800,1,0,0:0:0:0:
256,192,54133,1,0,0:0:0:0:
256,192,54300,1,0,0:0:0:0:
153,192,54300,1,0,0:0:0:0:
256,192,54800,1,0,0:0:0:0:
153,192,54800,1,0,0:0:0:0:
51,192,55300,1,0,0:0:0:0:
153,192,55300,1,0,0:0:0:0:
51,192,55633,1,0,0:0:0:0:
256,192,55800,1,0,0:0:0:0:
51,192,55800,1,0,0:0:0:0:
153,192,56300,128,0,56800:0:0:0:0:
460,192,56633,1,0,0:0:0:0:
256,192,56800,1,0,0:0:0:0:
460,192,56800,1,0,0:0:0:0:
460,192,57133,1,0,0:0:0:0:
153,192,57300,128,0,57800:0:0:0:0:
256,192,57800,1,0,0:0:0:0:
256,192,58133,1,0,0:0:0:0:
256,192,58300,1,0,0:0:0:0:
153,192,58300,1,0,0:0:0:0:
460,192,58633,1,0,0:0:0:0:
256,192,58800,1,0,0:0:0:0:
153,192,58800,1,0,0:0:0:0:
460,192,58800,1,0,0:0:0:0:
460,192,59133,1,0,0:0:0:0:
51,192,59300,1,0,0:0:0:0:
153,192,59300,1,0,0:0:0:0:
51,192,59633,1,0,0:0:0:0:
256,192,59800,1,0,0:0:0:0:
51,192,59800,1,0,0:0:0:0:
153,192,60300,128,0,60800:0:0:0:0:
460,192,60633,1,0,0:0:0:0:
256,192,60800,1,0,0:0:0:0:
460,192,60800,1,0,0:0:0:0:
460,192,61133,1,0,0:0:0:0:
153,192,61300,128,0,61800:0:0:0:0:
460,192,61633,1,0,0:0:0:0:
256,192,61800,1,0,0:0:0:0:
460,192,61800,1,0,0:0:0:0:
256,192,62133,1,0,0:0:0:0:
460,192,62133,1,0,0:0:0:0:
256,192,62300,1,0,0:0:0:0:
153,192,62300,1,0,0:0:0:0:
460,192,62633,1,0,0:0:0:0:
256,192,62800,1,0,0:0:0:0:
153,192,62800,1,0,0:0:0:0:
460,192,62800,1,0,0:0:0:0:
460,192,63133,1,0,0:0:0:0:
51,192,63300,1,0,0:0:0:0:
153,192,63300,1,0,0:0:0:0:
51,192,63633,1,0,0:0:0:0:
256,192,63800,1,0,0:0:0:0:
51,192,63800,1,0,0:0:0:0:
358,192,64050,1,0,0:0:0:0:
358,192,64175,1,0,0:0:0:0:
153,192,64300,128,0,64800:0:0:0:0:
358,192,64300,1,0,0:0:0:0:
358,192,64466,1,0,0:0:0:0:
460,192,64633,1,0,0:0:0:0:
358,192,64716,1,0,0:0:0:0:
256,192,64800,1,0,0:0:0:0:
460,192,64800,1,0,0:0:0:0:
358,192,64841,1,0,0:0:0:0:
358,192,64966,1,0,0:0:0:0:
460,192,65133,1,0,0:0:0:0:
358,192,65133,1,0,0:0:0:0:
153,192,65300,128,0,65800:0:0:0:0:
358,192,65466,128,0,65800:0:0:0:0:
256,192,65800,1,0,0:0:0:0:
358,192,65966,1,0,0:0:0:0:
358,192,66091,1,0,0:0:0:0:
256,192,66133,1,0,0:0:0:0:
358,192,66216,1,0,0:0:0:0:
256,192,66300,1,0,0:0:0:0:
153,192,66300,1,0,0:0:0:0:
358,192,66383,1,0,0:0:0:0:
460,192,66633,1,0,0:0:0:0:
358,192,66716,1,0,0:0:0:0:
256,192,66800,1,0,0:0:0:0:
153,192,66800,1,0,0:0:0:0:
460,192,66800,1,0,0:0:0:0:
358,192,66841,1,0,0:0:0:0:
358,192,66966,1,0,0:0:0:0:
460,192,67133,1,0,0:0:0:0:
358,192,67133,1,0,0:0:0:0:
51,192,67300,1,0,0:0:0:0:
153,192,67300,1,0,0:0:0:0:
358,192,67466,128,0,67800:0:0:0:0:
51,192,67633,1,0,0:0:0:0:
256,192,67800,1,0,0:0:0:0:
51,192,67800,1,0,0:0:0:0:
358,192,67966,1,0,0:0:0:0:
358,192,68091,1,0,0:0:0:0:
358,192,68216,1,0,0:0:0:0:
153,192,68300,128,0,68800:0:0:0:0:
358,192,68383,1,0,0:0:0:0:
460,192,68633,1,0,0:0:0:0:
358,192,68716,1,0,0:0:0:0:
256,192,68800,1,0,0:0:0:0:
460,192,68800,1,0,0:0:0:0:
358,192,68841,1,0,0:0:0:0:
358,192,68966,1,0,0:0:0:0:
460,192,69133,1,0,0:0:0:0:
358,192,69133,1,0,0:0:0:0:
153,192,69300,128,0,69800:0:0:0:0:
358,192,69466,128,0,69800:0:0:0:0:
460,192,69633,1,0,0:0:0:0:
256,192,69800,1,0,0:0:0:0:
460,192,69800,1,0,0:0:0:0:
358,192,69966,1,0,0:0:0:0:
358,192,70091,1,0,0:0:0:0:
256,192,70133,1,0,0:0:0:0:
460,192,70133,1,0,0:0:0:0:
358,192,70216,1,0,0:0:0:0:
256,192,70300,1,0,0:0:0:0:
153,192,70300,1,0,0:0:0:0:
358,192,70383,1,0,0:0:0:0:
460,192,70633,1,0,0:0:0:0:
358,192,70716,1,0,0:0:0:0:
256,192,70800,1,0,0:0:0:0:
153,192,70800,1,0,0:0:0:0:
460,192,70800,1,0,0:0:0:0:
358,192,70841,1,0,0:0:0:0:
358,192,70966,1,0,0:0:0:0:
460,192,71133,1,0,0:0:0:0:
358,192,71133,1,0,0:0:0:0:
153,192,71300,1,0,0:0:0:0:
358,192,71300,1,0,0:0:0:0:
358,192,71550,1,0,0:0:0:0:
256,192,71800,1,0,0:0:0:0:
358,192,72050,1,0,0:0:0:0:
358,192,72175,1,0,0:0:0:0:
256,192,72300,1,0,0:0:0:0:
358,192,72550,1,0,0:0:0:0:
358,192,72675,1,0,0:0:0:0:
256,192,72800,1,0,0:0:0:0:
358,192,73050,1,0,0:0:0:0:
358,192,73175,1,0,0:0:0:0:
256,192,73300,1,0,0:0:0:0:
358,192,73550,1,0,0:0:0:0:
358,192,73675,1,0,0:0:0:0:
256,192,73800,1,0,0:0:0:0:
358,192,74050,1,0,0:0:0:0:
358,192,74175,1,0,0:0:0:0:
256,192,74300,1,0,0:0:0:0:
358,192,74550,1,0,0:0:0:0:
358,192,74675,1,0,0:0:0:0:
256,192,74800,1,0,0:0:0:0:
358,192,75050,1,0,0:0:0:0:
358,192,75175,1,0,0:0:0:0:
256,192,75300,1,0,0:0:0:0:
358,192,75550,1,0,0:0:0:0:
358,192,75675,1,0,0:0:0:0:
51,192,75800,1,0,0:0:0:0:
51,192,76133,1,0,0:0:0:0:
51,192,76300,128,0,77633:0:0:0:0:
51,192,77800,1,0,0:0:0:0:
153,192,77925,1,0,0:0:0:0:
256,192,78050,1,0,0:0:0:0:
358,192,78175,1,0,0:0:0:0:
460,192,78300,1,0,0:0:0:0:
460,192,78800,1,0,0:0:0:0:
460,192,79133,1,0,0:0:0:0:
51,192,79300,1,0,0:0:0:0:
51,192,79633,1,0,0:0:0:0:
256,192,79800,1,0,0:0:0:0:
51,192,79800,1,0,0:0:0:0:
153,192,80300,128,0,80800:0:0:0:0:
358,192,80300,1,0,0:0:0:0:
460,192,80633,1,0,0:0:0:0:
358,192,80633,1,0,0:0:0:0:
256,192,80800,1,0,0:0:0:0:
460,192,80800,1,0,0:0:0:0:
358,192,80800,1,0,0:0:0:0:
460,192,81133,1,0,0:0:0:0:
153,192,81300,128,0,81800:0:0:0:0:
358,192,81300,1,0,0:0:0:0:
256,192,81800,1,0,0:0:0:0:
358,192,81800,1,0,0:0:0:0:
256,192,82133,1,0,0:0:0:0:
256,192,82300,1,0,0:0:0:0:
153,192,82300,1,0,0:0:0:0:
358,192,82300,1,0,0:0:0:0:
460,192,82633,1,0,0:0:0:0:
358,192,82633,1,0,0:0:0:0:
256,192,82800,1,0,0:0:0:0:
153,192,82800,1,0,0:0:0:0:
460,192,82800,1,0,0:0:0:0:
358,192,82800,1,0,0:0:0:0:
460,192,83133,1,0,0:0:0:0:
51,192,83300,1,0,0:0:0:0:
153,192,83300,1,0,0:0:0:0:
358,192,83300,1,0,0:0:0:0:
51,192,83633,1,0,0:0:0:0:
256,192,83800,1,0,0:0:0:0:
51,192,83800,1,0,0:0:0:0:
358,192,83800,1,0,0:0:0:0:
153,192,84300,128,0,84800:0:0:0:0:
358,192,84300,1,0,0:0:0:0:
460,192,84633,1,0,0:0:0:0:
358,192,84633,1,0,0:0:0:0:
256,192,84800,1,0,0:0:0:0:
460,192,84800,1,0,0:0:0:0:
358,192,84800,1,0,0:0:0:0:
460,192,85133,1,0,0:0:0:0:
153,192,85300,128,0,85800:0:0:0:0:
358,192,85300,1,0,0:0:0:0:
460,192,85633,1,0,0:0:0:0:
256,192,85800,1,0,0:0:0:0:
460,192,85800,1,0,0:0:0:0:
358,192,85800,1,0,0:0:0:0:
256,192,86133,1,0,0:0:0:0:
460,192,86133,1,0,0:0:0:0:
358,192,86133,1,0,0:0:0:0:
256,192,86300,1,0,0:0:0:0:
153,192,86300,1,0,0:0:0:0:
358,192,86300,1,0,0:0:0:0:
460,192,86633,1,0,0:0:0:0:
358,192,86633,1,0,0:0:0:0:
256,192,86800,1,0,0:0:0:0:
153,192,86800,1,0,0:0:0:0:
460,192,86800,1,0,0:0:0:0:
358,192,86800,1,0,0:0:0:0:
460,192,87133,1,0,0:0:0:0:
153,192,87300,1,0,0:0:0:0:
358,192,87300,1,0,0:0:0:0:
256,192,87800,1,0,0:0:0:0:
51,192,87800,1,0,0:0:0:0:
153,192,87800,1,0,0:0:0:0:
358,192,87800,1,0,0:0:0:0:
460,192,87800,1,0,0:0:0:0:
358,192,88133,1,0,0:0:0:0:
460,192,88133,1,0,0:0:0:0:
153,192,88133,1,0,0:0:0:0:
51,192,88133,1,0,0:0:0:0:
256,192,88133,1,0,0:0:0:0:
51,192,88300,1,0,0:0:0:0:
256,192,88300,1,0,0:0:0:0:
153,192,88300,1,0,0:0:0:0:
358,192,88300,1,0,0:0:0:0:
460,192,88300,1,0,0:0:0:0:
51,192,88800,128,0,89300:0:0:0:0:
153,192,88800,128,0,89300:0:0:0:0:
256,192,88800,128,0,89300:0:0:0:0:
358,192,88800,128,0,89300:0:0:0:0:
460,192,88800,128,0,89300:0:0:0:0:
51,192,89633,1,0,0:0:0:0:
153,192,89675,1,0,0:0:0:0:
256,192,89716,1,0,0:0:0:0:
358,192,89758,1,0,0:0:0:0:
460,192,89800,1,0,0:0:0:0:
51,192,90237,1,0,0:0:0:0:
256,192,90237,1,0,0:0:0:0:
358,192,90237,1,0,0:0:0:0:
460,192,90237,1,0,0:0:0:0:
153,192,90237,1,0,0:0:0:0:
460,192,90737,1,0,0:0:0:0:
153,192,90737,1,0,0:0:0:0:
358,192,90737,1,0,0:0:0:0:
51,192,90737,1,0,0:0:0:0:
256,192,90737,1,0,0:0:0:0:
51,192,91237,1,0,0:0:0:0:
256,192,91237,1,0,0:0:0:0:
358,192,91237,1,0,0:0:0:0:
460,192,91237,1,0,0:0:0:0:
153,192,91237,1,0,0:0:0:0:
460,192,91716,128,0,93466:0:0:0:0:
358,192,91716,128,0,93466:0:0:0:0:
256,192,91716,128,0,93466:0:0:0:0:
153,192,91716,128,0,93466:0:0:0:0:
51,192,91716,128,0,93466:0:0:0:0:
460,192,93633,128,0,94800:0:0:0:0:
358,192,93675,128,0,94800:0:0:0:0:
256,192,93716,128,0,94800:0:0:0:0:
153,192,93758,128,0,94800:0:0:0:0:
51,192,93800,128,0,94800:0:0:0:0:
153,192,96175,1,0,0:0:0:0:
153,192,96425,1,0,0:0:0:0:
153,192,96675,1,0,0:0:0:0:
153,192,96925,1,0,0:0:0:0:
153,192,97175,1,0,0:0:0:0:
153,192,97300,1,0,0:0:0:0:
153,192,97466,1,0,0:0:0:0:
153,192,97633,1,0,0:0:0:0:
153,192,98175,1,0,0:0:0:0:
153,192,98341,1,0,0:0:0:0:
153,192,98550,1,0,0:0:0:0:
153,192,98925,1,0,0:0:0:0:
460,192,99466,128,0,100800:0:0:0:0:
358,192,99550,128,0,100800:0:0:0:0:
51,192,100800,1,0,0:0:0:0:
153,192,100800,1,0,0:0:0:0:
256,192,100841,1,0,0:0:0:0:
358,192,100883,1,0,0:0:0:0:
460,192,100925,1,0,0:0:0:0:
51,192,100966,1,0,0:0:0:0:
153,192,101008,1,0,0:0:0:0:
256,192,101050,1,0,0:0:0:0:
358,192,101091,1,0,0:0:0:0:
460,192,101133,1,0,0:0:0:0:
51,192,101175,1,0,0:0:0:0:
153,192,101216,1,0,0:0:0:0:
256,192,101258,1,0,0:0:0:0:
358,192,101300,1,0,0:0:0:0:
460,192,101341,1,0,0:0:0:0:
51,192,101383,1,0,0:0:0:0:
153,192,101425,1,0,0:0:0:0:
256,192,101466,1,0,0:0:0:0:
358,192,101508,1,0,0:0:0:0:
460,192,101550,1,0,0:0:0:0:
51,192,101591,1,0,0:0:0:0:
153,192,101633,1,0,0:0:0:0:
256,192,101675,1,0,0:0:0:0:
358,192,101716,1,0,0:0:0:0:
460,192,101758,1,0,0:0:0:0:
51,192,101800,1,0,0:0:0:0:
153,192,101841,1,0,0:0:0:0:
256,192,101883,1,0,0:0:0:0:
358,192,101925,1,0,0:0:0:0:
460,192,101966,1,0,0:0:0:0:
51,192,102008,1,0,0:0:0:0:
153,192,102050,1,0,0:0:0:0:
256,192,102091,1,0,0:0:0:0:
358,192,102133,1,0,0:0:0:0:
460,192,102175,1,0,0:0:0:0:
51,192,102216,1,0,0:0:0:0:
153,192,102258,1,0,0:0:0:0:
256,192,102300,1,0,0:0:0:0:
358,192,102341,1,0,0:0:0:0:
460,192,102383,1,0,0:0:0:0:
51,192,102425,1,0,0:0:0:0:
153,192,102466,1,0,0:0:0:0:
256,192,102508,1,0,0:0:0:0:
358,192,102550,1,0,0:0:0:0:
460,192,102591,1,0,0:0:0:0:
51,192,102633,1,0,0:0:0:0:
153,192,102675,1,0,0:0:0:0:
256,192,102716,1,0,0:0:0:0:
358,192,102758,1,0,0:0:0:0:
460,192,102800,1,0,0:0:0:0:
51,192,102800,1,0,0:0:0:0:
358,192,103050,1,0,0:0:0:0:
153,192,103300,1,0,0:0:0:0:
460,192,103550,128,0,107050:0:0:0:0:
256,192,106175,1,0,0:0:0:0:
256,192,106383,1,0,0:0:0:0:
256,192,106550,1,0,0:0:0:0:
256,192,106716,1,0,0:0:0:0:
256,192,106925,1,0,0:0:0:0:
256,192,107112,1,0,0:0:0:0:
256,192,107362,1,0,0:0:0:0:
256,192,107612,1,0,0:0:0:0:
256,192,107925,128,0,108550:0:0:0:0:
256,192,110489,1,0,0:0:0:0:
256,192,110870,1,0,0:0:0:0:
256,192,111023,1,0,0:0:0:0:
256,192,111481,1,0,0:0:0:0:
256,192,111786,1,0,0:0:0:0:
256,192,111939,1,0,0:0:0:0:
256,192,112244,128,0,112549:0:0:0:0:
256,192,112702,1,0,0:0:0:0:
256,192,113160,1,0,0:0:0:0:
256,192,113313,1,0,0:0:0:0:
256,192,113618,1,0,0:0:0:0:
256,192,113771,1,0,0:0:0:0:
256,192,114076,1,0,0:0:0:0:
256,192,114229,1,0,0:0:0:0:
256,192,114496,1,0,0:0:0:0:
256,192,114649,1,0,0:0:0:0:
