osu file format v14

[General]
AudioFilename: SevenP.mp3
AudioLeadIn: 0
PreviewTime: 65491
Countdown: 0
SampleSet: Soft
StackLeniency: 0.7
Mode: 0
LetterboxInBreaks: 0
WidescreenStoryboard: 1

[Editor]
Bookmarks: 98952,115238,153625,175568
DistanceSpacing: 0.8
BeatDivisor: 4
GridSize: 8
TimelineZoom: 2.000001

[Metadata]
Title:Charon (DJ SEVEN PnB Refix)
TitleUnicode:カロン (DJ SEVEN PnB Refix)
Artist:Negoto
ArtistUnicode:ねごと
Creator:Liiraye
Version:Plight
Source:
Tags:Seven Prince Shilkey Gyuunyu Collab Secretpipe neonat
BeatmapID:434346
BeatmapSetID:180823

[Difficulty]
HPDrainRate:7
CircleSize:4
OverallDifficulty:8.5
ApproachRate:9
SliderMultiplier:1.8
SliderTickRate:2

[Events]
//Background and Video events
0,0,"loundraw.png",0,0
//Break Periods
//Storyboard Layer 0 (Background)
Sprite,Background,Centre,"sb/b.png",320,240 F,0,21796,21807,0,1 R,0,21796,21807,0 MX,0,21796,21839,442.276,426.4255 V,0,21796,21882,0,0,1.3553,1.3553 C,0,21796,21967,63,54,45,0,0,0 R,2,21796,21968,1.471,1.8474 MY,0,21796,22053,371.622,354.1299 MX,0,21839,21882,426.4255,413.9355 MX,0,21882,21925,413.9355,404.7497 V,0,21882,21967,1.3553,1.3553,2.5924,2.5924 MX,0,21925,21967,404.7497,398.6604 MX,0,21967,22010,398.6604,395.3672 V,0,21967,22160,2.5924,2.5924,2.0464,2.0464 R,2,21968,23339,1.8474,1.471 C,0,21989,22000,0,0,0,1,1,1 C,0,22010,22021,1,1,1,2,2,1 MX,0,22010,22032,395.3672,394.6612 C,0,22021,22107,2,2,1,6,5,4 MX,0,22032,22085,394.6612,395.2769 MY,0,22053,22150,354.1299,349.1975 MX,0,22085,22139,395.2769,398.7387 C,0,22117,22128,6,5,4,7,6,5 C,0,22139,22150,7,6,5,8,7,5 MX,0,22139,22182,398.7387,403.1187 MY,0,22150,22235,349.1975,345.9448 C,0,22150,22257,8,7,5,13,11,9 V,0,22160,22332,2.0464,2.0464,1.6729,1.6729 MX,0,22182,22267,403.1187,414.9257 MY,0,22235,22332,345.9448,343.4746 C,0,22267,22278,13,11,9,14,12,10 MX,0,22267,22610,414.9257,473.4362 C,0,22289,22300,14,12,10,15,13,10 C,0,22300,22407,15,13,10,20,17,14 MY,0,22332,22471,343.4746,341.7537 V,0,22332,23339,1.6729,1.6729,0,0 C,0,22417,22428,20,17,14,21,18,15 C,0,22439,22450,21,18,15,22,18,15 C,0,22450,22535,22,18,15,26,22,18 MY,0,22471,22792,341.7537,342.8101 C,0,22546,22557,26,22,18,27,23,19 C,0,22567,22578,27,23,19,28,24,20 C,0,22589,22600,28,24,20,29,24,20 C,0,22600,22653,29,24,20,31,27,22 MX,0,22610,22696,473.4362,486.059 C,0,22664,22717,31,27,22,34,29,24 MX,0,22696,22782,486.059,496.9288 C,0,22728,22739,34,29,24,35,30,25 C,0,22750,22760,35,30,25,36,31,26 C,0,22771,22782,36,31,26,37,32,26 C,0,22782,22867,37,32,26,41,35,29 MX,0,22782,22867,496.9288,505.8919 MY,0,22792,23039,342.8101,345.0394 MX,0,22867,22953,505.8919,512.9054 C,0,22878,22889,41,35,29,42,36,30 C,0,22900,22910,42,36,30,43,37,30 C,0,22910,23017,43,37,30,48,41,34 MX,0,22953,23039,512.9054,518 C,0,23028,23039,48,41,34,49,42,35 MX,0,23039,23114,518,520.939 MY,0,23039,23339,345.0394,346.4256 C,0,23050,23060,49,42,35,50,43,35 C,0,23060,23167,50,43,35,55,47,39 MX,0,23114,23210,520.939,522.7285 C,0,23178,23189,55,47,39,56,48,40 C,0,23200,23210,56,48,40,57,48,40 C,0,23210,23296,57,48,40,61,52,43 MX,0,23210,23339,522.7285,521.793 C,0,23307,23317,61,52,43,62,53,44 F,0,23328,23339,1,0 R,0,23328,23339,0 C,0,23328,23339,62,53,44,63,54,45
Sprite,Background,Centre,"sb/b.png",320,240 F,0,21796,21807,0,1 R,0,21796,21807,0 MX,0,21796,21839,450.5073,434.4719 V,0,21796,21882,0,0,1.2667,1.2667 C,0,21796,21967,189,172,162,0,0,0 MY,0,21796,21967,394.1519,381.1599 R,2,21796,21968,2.9849,6.0288 MX,0,21839,21882,434.4719,421.5211 MX,0,21882,21925,421.5211,411.6693 V,0,21882,21967,1.2667,1.2667,2.4292,2.4292 MX,0,21925,21967,411.6693,404.7746 MX,0,21967,22010,404.7746,400.5915 MY,0,21967,22139,381.1599,370.0134 V,0,21967,22214,2.4292,2.4292,1.8036,1.8036 C,0,21967,23339,0,0,0,189,172,162 R,2,21968,23339,6.0288,2.9849 MX,0,22010,22053,400.5915,398.8161 MX,0,22053,22107,398.8161,399.4822 MX,0,22107,22160,399.4822,402.76 MY,0,22139,22267,370.0134,364.5275 MX,0,22160,22203,402.76,406.8605 MX,0,22203,22289,406.8605,417.8569 V,0,22214,22557,1.8036,1.8036,1.1949,1.1949 MY,0,22267,22364,364.5275,361.9864 MX,0,22289,22632,417.8569,471.9598 MY,0,22364,22503,361.9864,360.2456 MY,0,22503,22814,360.2456,361.2812 V,0,22557,23339,1.1949,1.1949,0,0 MX,0,22632,22717,471.9598,483.5322 MX,0,22717,22803,483.5322,493.4404 MX,0,22803,22889,493.4404,501.5424 MY,0,22814,23060,361.2812,363.4937 MX,0,22889,22975,501.5424,507.7979 MX,0,22975,23082,507.7979,513.0629 MY,0,23060,23339,363.4937,364.7444 MX,0,23082,23178,513.0629,515.4684 MX,0,23178,23339,515.4684,514.8201 F,0,23328,23339,1,0 R,0,23328,23339,0
Sprite,Background,Centre,"sb/b.png",320,240 F,0,21796,21807,0,1 R,0,21796,21807,0 MX,0,21796,21839,483.8413,456.0077 MY,0,21796,21882,404.1903,397.8516 V,0,21796,21882,0,0,1.4264,1.4264 C,0,21796,21967,189,172,162,0,0,0 R,2,21796,21968,4.3793,6.1057 MX,0,21839,21882,456.0077,431.4285 MX,0,21882,21925,431.4285,410.68 V,0,21882,21967,1.4264,1.4264,2.7167,2.7167 MY,0,21882,22139,397.8516,373.6038 MX,0,21925,21946,410.68,401.8222 MX,0,21946,21989,401.8222,387.137 V,0,21967,22139,2.7167,2.7167,2.1435,2.1435 C,0,21967,23339,0,0,0,189,172,162 R,2,21968,23339,6.1057,4.3793 MX,0,21989,22032,387.137,376.3302 MX,0,22032,22075,376.3302,369.0804 MX,0,22075,22117,369.0804,364.9825 MX,0,22117,22150,364.9825,363.715 MY,0,22139,22225,373.6038,367.1976 V,0,22139,22235,2.1435,2.1435,1.8759,1.8759 MX,0,22150,22214,363.715,365.0313 MX,0,22214,22257,365.0313,368.212 MY,0,22225,22310,367.1976,362.1436 V,0,22235,22407,1.8759,1.8759,1.4879,1.4879 MX,0,22257,22300,368.212,372.8071 MX,0,22300,22385,372.8071,385.0009 MY,0,22310,22460,362.1436,356.2754 MX,0,22385,22642,385.0009,429.9223 V,0,22407,22750,1.4879,1.4879,0.9003,0.9003 MY,0,22460,22567,356.2754,353.9667 MY,0,22567,22664,353.9667,352.88 MX,0,22642,22728,429.9223,443.9431 MY,0,22664,23339,352.88,354.0561 MX,0,22728,22814,443.9431,456.4166 V,0,22750,23339,0.9003,0.9003,0,0 MX,0,22814,22900,456.4166,467.013 MX,0,22900,22985,467.013,475.5342 MX,0,22985,23071,475.5342,481.8744 MX,0,23071,23114,481.8744,484.2108 MX,0,23114,23232,484.2108,487.7524 MX,0,23232,23339,487.7524,487.3083 F,0,23328,23339,1,0 R,0,23328,23339,0
Sprite,Background,Centre,"sb/b.png",320,240 F,0,21796,21807,0,1 R,0,21796,21807,0 MX,0,21796,21839,559.8893,567.6943 V,0,21796,21882,0,0,1.2643,1.2643 C,0,21796,21967,165,158,139,0,0,0 R,2,21796,21968,1.2294,3.9338 MY,0,21796,22053,358.2914,371.7529 MX,0,21839,21882,567.6943,573.7021 MX,0,21882,21925,573.7021,577.7905 V,0,21882,21967,1.2643,1.2643,2.6133,2.6133 MX,0,21925,21967,577.7905,579.8976 MX,0,21967,22042,579.8976,578.8557 V,0,21967,22192,2.6133,2.6133,2.3383,2.3383 C,0,21967,23339,0,0,0,165,158,139 R,2,21968,23339,3.9338,1.2294 MX,0,22042,22085,578.8557,575.7042 MY,0,22053,22203,371.7529,377.7914 MX,0,22085,22128,575.7042,570.8814 MX,0,22128,22171,570.8814,564.5916 MX,0,22171,22257,564.5916,548.5716 V,0,22192,22535,2.3383,2.3383,1.6731,1.6731 MY,0,22203,22353,377.7914,380.8071 MX,0,22257,22514,548.5716,490.596 MY,0,22353,22642,380.8071,379.6583 MX,0,22514,22600,490.596,473.0171 V,0,22535,23339,1.6731,1.6731,0,0 MX,0,22600,22685,473.0171,457.6538 MY,0,22642,22985,379.6583,374.8533 MX,0,22685,22771,457.6538,444.6765 MX,0,22771,22857,444.6765,433.9919 MX,0,22857,22942,433.9919,425.3593 MX,0,22942,23028,425.3593,418.48 MY,0,22985,23339,374.8533,372.8205 MX,0,23028,23114,418.48,413.0605 MX,0,23114,23232,413.0605,407.5434 MX,0,23232,23339,407.5434,404.1452 F,0,23328,23339,1,0 R,0,23328,23339,0
Sprite,Background,Centre,"sb/b.png",320,240 F,0,21796,21807,0,1 R,0,21796,21807,0 MX,0,21796,21839,530.2048,533.0053 C,0,21796,21967,165,158,139,0,0,0 V,0,21796,21967,0,0,2.1132,2.1132 R,2,21796,21968,1.891,5.8092 MY,0,21796,22160,380.6161,389.8719 MX,0,21839,21903,533.0053,535.4965 MX,0,21903,22021,535.4965,534.6852 V,0,21967,22353,2.1132,2.1132,1.5791,1.5791 C,0,21967,23339,0,0,0,165,158,139 R,2,21968,23339,5.8092,1.891 MX,0,22021,22085,534.6852,531.5701 MX,0,22085,22171,531.5701,525.0871 MY,0,22160,22375,389.8719,392.0677 MX,0,22171,22257,525.0871,516.7148 MX,0,22257,22428,516.7148,497.6249 V,0,22353,23339,1.5791,1.5791,0,0 MY,0,22375,23339,392.0677,388.4557 MX,0,22428,22600,497.6249,479.5565 MX,0,22600,22771,479.5565,464.9668 MX,0,22771,22942,464.9668,454.1205 MX,0,22942,23039,454.1205,449.4045 MX,0,23039,23210,449.4045,442.9047 MX,0,23210,23339,442.9047,439.2892 F,0,23328,23339,1,0 R,0,23328,23339,0
Sprite,Background,Centre,"sb/b.png",320,240 F,0,21796,21807,0,1 R,0,21796,21807,0 MX,0,21796,21882,486.3861,518.2112 MY,0,21796,21903,361.3758,363.4719 C,0,21796,21967,189,172,162,0,0,0 V,0,21796,21967,0,0,2.132,2.132 R,2,21796,21968,4.3033,3.7513 MX,0,21882,21967,518.2112,547.6689 MY,0,21903,22021,363.4719,368.7148 MX,0,21967,22010,547.6689,560.8556 V,0,21967,22289,2.132,2.132,1.865,1.865 C,0,21967,23339,0,0,0,189,172,162 R,2,21968,23339,3.7513,4.3033 MX,0,22010,22053,560.8556,572.7305 MY,0,22021,22450,368.7148,396.2781 MX,0,22053,22096,572.7305,583.1224 MX,0,22096,22139,583.1224,591.8949 MX,0,22139,22182,591.8949,598.9498 MX,0,22182,22225,598.9498,604.2292 MX,0,22225,22267,604.2292,607.7173 MX,0,22267,22300,607.7173,609.1722 V,0,22289,22514,1.865,1.865,1.5854,1.5854 MX,0,22300,22396,609.1722,607.9022 MX,0,22396,22439,607.9022,604.8849 MX,0,22439,22482,604.8849,600.5807 MY,0,22450,22557,396.2781,401.4752 MX,0,22482,22567,600.5807,588.8612 V,0,22514,22857,1.5854,1.5854,0.975,0.975 MY,0,22557,22739,401.4752,407.0873 MX,0,22567,22653,588.8612,574.3102 MX,0,22653,22825,574.3102,542.5684 MY,0,22739,22900,407.0873,409.2605 MX,0,22825,22910,542.5684,527.6808 V,0,22857,23339,0.975,0.975,0,0 MY,0,22900,23339,409.2605,410.0555 MX,0,22910,22996,527.6808,514.48 MX,0,22996,23082,514.48,503.4034 MX,0,23082,23167,503.4034,494.6959 MX,0,23167,23253,494.6959,488.4766 MX,0,23253,23339,488.4766,484.7935 F,0,23328,23339,1,0 R,0,23328,23339,0
Sprite,Background,Centre,"sb/b.png",320,240 F,0,21796,21807,0,1 R,0,21796,21807,0 MX,0,21796,21807,678.6875,679.2554 MY,0,21796,21882,385.3149,397.0872 V,0,21796,21882,0,0,1.3206,1.3206 C,0,21796,21967,189,172,162,0,0,0 R,2,21796,21968,4.9605,4.7995 MX,0,21807,21850,679.2554,677.955 MX,0,21850,21871,677.955,675.1393 MX,0,21871,21892,675.1393,670.8901 MY,0,21882,21967,397.0872,406.7967 V,0,21882,21967,1.3206,1.3206,2.7897,2.7897 MX,0,21892,21914,670.8901,665.2397 MX,0,21914,21935,665.2397,658.2401 MX,0,21935,21957,658.2401,649.9629 MX,0,21957,21978,649.9629,640.4985 MY,0,21967,22053,406.7967,412.9994 V,0,21967,22085,2.7897,2.7897,2.6539,2.6539 C,0,21967,23339,0,0,0,189,172,162 R,2,21968,23339,4.7995,4.9605 MX,0,21978,22021,640.4985,618.4497 MX,0,22021,22064,618.4497,593.1042 MY,0,22053,22096,412.9994,414.5565 MX,0,22064,22192,593.1042,508.6931 V,0,22085,22332,2.6539,2.6539,2.0557,2.0557 MY,0,22096,22139,414.5565,415.0887 MY,0,22139,22214,415.0887,413.8072 MX,0,22192,22235,508.6931,481.2875 MY,0,22214,22321,413.8072,408.3434 MX,0,22235,22278,481.2875,455.6058 MX,0,22278,22321,455.6058,432.1472 MX,0,22321,22364,432.1472,411.2053 MY,0,22321,22664,408.3434,383.954 V,0,22332,22525,2.0557,2.0557,1.5313,1.5313 MX,0,22364,22407,411.2053,392.8977 MX,0,22407,22450,392.8977,377.2025 MX,0,22450,22492,377.2025,363.9966 MX,0,22492,22535,363.9966,353.0889 V,0,22525,22696,1.5313,1.5313,1.1263,1.1263 MX,0,22535,22578,353.0889,344.2498 MX,0,22578,22621,344.2498,337.2315 MX,0,22621,22664,337.2315,331.785 MX,0,22664,22707,331.785,327.6695 MY,0,22664,22750,383.954,379.1237 V,0,22696,23039,1.1263,1.1263,0.4801,0.4801 MX,0,22707,22750,327.6695,324.6598 MX,0,22750,22803,324.6598,322.1407 MY,0,22750,22878,379.1237,373.4165 MX,0,22803,22932,322.1407,319.802 MY,0,22878,23060,373.4165,368.2142 MX,0,22932,23296,319.802,318.5923 V,0,23039,23339,0.4801,0.4801,0,0 MY,0,23060,23221,368.2142,365.9838 MY,0,23221,23339,365.9838,365.5609 MX,0,23296,23339,318.5923,317.7522 F,0,23328,23339,1,0 R,0,23328,23339,0
Sprite,Background,Centre,"sb/b.png",320,240 F,0,21796,21807,0,1 R,0,21796,21807,0 MX,0,21796,21882,498.3997,484.9629 C,0,21796,21967,63,54,45,0,0,0 V,0,21796,21967,0,0,2.7936,2.7936 R,2,21796,21968,4.0886,4.2147 MY,0,21796,22332,365.7229,356.6717 MX,0,21882,21967,484.9629,474.2527 MX,0,21967,22053,474.2527,466.7179 V,0,21967,22310,2.7936,2.7936,2,2 R,2,21968,23339,4.2147,4.0886 C,0,21989,22000,0,0,0,1,1,1 C,0,22010,22021,1,1,1,2,2,1 C,0,22021,22107,2,2,1,6,5,4 MX,0,22053,22096,466.7179,464.1236 MX,0,22096,22203,464.1236,460.654 C,0,22117,22128,6,5,4,7,6,5 C,0,22139,22150,7,6,5,8,7,5 C,0,22150,22257,8,7,5,13,11,9 MX,0,22203,22385,460.654,461.9093 C,0,22267,22278,13,11,9,14,12,10 C,0,22289,22300,14,12,10,15,13,10 C,0,22300,22407,15,13,10,20,17,14 V,0,22310,23339,2,2,0,0 MY,0,22332,22450,356.6717,355.5541 MX,0,22385,22825,461.9093,474.7343 C,0,22417,22428,20,17,14,21,18,15 C,0,22439,22450,21,18,15,22,18,15 C,0,22450,22535,22,18,15,26,22,18 MY,0,22450,23339,355.5541,355.4341 C,0,22546,22557,26,22,18,27,23,19 C,0,22567,22578,27,23,19,28,24,20 C,0,22589,22600,28,24,20,29,24,20 C,0,22600,22653,29,24,20,31,27,22 C,0,22664,22717,31,27,22,34,29,24 C,0,22728,22739,34,29,24,35,30,25 C,0,22750,22760,35,30,25,36,31,26 C,0,22771,22782,36,31,26,37,32,26 C,0,22782,22867,37,32,26,41,35,29 MX,0,22825,22985,474.7343,477.0704 C,0,22878,22889,41,35,29,42,36,30 C,0,22900,22910,42,36,30,43,37,30 C,0,22910,23017,43,37,30,48,41,34 MX,0,22985,23264,477.0704,475.8266 C,0,23028,23039,48,41,34,49,42,35 C,0,23050,23060,49,42,35,50,43,35 C,0,23060,23167,50,43,35,55,47,39 C,0,23178,23189,55,47,39,56,48,40 C,0,23200,23210,56,48,40,57,48,40 C,0,23210,23296,57,48,40,61,52,43 MX,0,23264,23339,475.8266,474.3484 C,0,23307,23317,61,52,43,62,53,44 F,0,23328,23339,1,0 R,0,23328,23339,0 C,0,23328,23339,62,53,44,63,54,45
Sprite,Background,Centre,"sb/b.png",320,240 F,0,21796,21807,0,1 R,0,21796,21807,0 MX,0,21796,21882,457.0852,471.8484 MY,0,21796,21882,353.4994,352.0462 C,0,21796,21967,63,54,45,0,0,0 V,0,21796,21967,0,0,1.9901,1.9901 R,2,21796,21968,4.8786,5.9137 MX,0,21882,22053,471.8484,504.9285 MY,0,21882,22107,352.0462,353.1858 V,0,21967,22450,1.9901,1.9901,1.3933,1.3933 R,2,21968,23339,5.9137,4.8786 C,0,21989,22000,0,0,0,1,1,1 C,0,22010,22021,1,1,1,2,2,1 C,0,22021,22107,2,2,1,6,5,4 MX,0,22053,22139,504.9285,520.0122 MY,0,22107,22664,353.1858,367.5755 C,0,22117,22128,6,5,4,7,6,5 C,0,22139,22150,7,6,5,8,7,5 MX,0,22139,22225,520.0122,532.7096 C,0,22150,22257,8,7,5,13,11,9 MX,0,22225,22310,532.7096,542.4565 C,0,22267,22278,13,11,9,14,12,10 C,0,22289,22300,14,12,10,15,13,10 C,0,22300,22407,15,13,10,20,17,14 MX,0,22310,22396,542.4565,549.0386 MX,0,22396,22450,549.0386,551.5728 C,0,22417,22428,20,17,14,21,18,15 C,0,22439,22450,21,18,15,22,18,15 C,0,22450,22535,22,18,15,26,22,18 MX,0,22450,22535,551.5728,553.3036 V,0,22450,22814,1.3933,1.3933,0.8716,0.8716 MX,0,22535,22642,553.3036,552.0595 C,0,22546,22557,26,22,18,27,23,19 C,0,22567,22578,27,23,19,28,24,20 C,0,22589,22600,28,24,20,29,24,20 C,0,22600,22653,29,24,20,31,27,22 MX,0,22642,22782,552.0595,546.4633 C,0,22664,22717,31,27,22,34,29,24 MY,0,22664,22964,367.5755,372.3868 C,0,22728,22739,34,29,24,35,30,25 C,0,22750,22760,35,30,25,36,31,26 C,0,22771,22782,36,31,26,37,32,26 C,0,22782,22867,37,32,26,41,35,29 MX,0,22782,23125,546.4633,527.2151 V,0,22814,23339,0.8716,0.8716,0,0 C,0,22878,22889,41,35,29,42,36,30 C,0,22900,22910,42,36,30,43,37,30 C,0,22910,23017,43,37,30,48,41,34 MY,0,22964,23339,372.3868,374.282 C,0,23028,23039,48,41,34,49,42,35 C,0,23050,23060,49,42,35,50,43,35 C,0,23060,23167,50,43,35,55,47,39 MX,0,23125,23264,527.2151,521.2931 C,0,23178,23189,55,47,39,56,48,40 C,0,23200,23210,56,48,40,57,48,40 C,0,23210,23296,57,48,40,61,52,43 MX,0,23264,23339,521.2931,519.0212 C,0,23307,23317,61,52,43,62,53,44 F,0,23328,23339,1,0 R,0,23328,23339,0 C,0,23328,23339,62,53,44,63,54,45
Sprite,Background,Centre,"sb/b.png",320,240 F,0,21796,21807,0,1 R,0,21796,21807,0 MX,0,21796,21828,320.5924,317.7285 MY,0,21796,21882,377.3112,365.0448 V,0,21796,21882,0,0,1.3275,1.3275 C,0,21796,21967,63,54,45,0,0,0 R,2,21796,21968,6.2176,0.8488 MX,0,21828,21871,317.7285,318.737 MX,0,21871,21914,318.737,324.2408 MY,0,21882,21967,365.0448,355.7277 V,0,21882,21967,1.3275,1.3275,2.4771,2.4771 MX,0,21914,21957,324.2408,333.2522 MX,0,21957,22000,333.2522,344.9339 MY,0,21967,22053,355.7277,349.2138 V,0,21967,22053,2.4771,2.4771,2.2055,2.2055 R,2,21968,23339,0.8488,6.2176 C,0,21989,22000,0,0,0,1,1,1 MX,0,22000,22042,344.9339,358.5933 C,0,22010,22021,1,1,1,2,2,1 C,0,22021,22107,2,2,1,6,5,4 MX,0,22042,22128,358.5933,389.6913 MY,0,22053,22096,349.2138,346.8887 V,0,22053,22203,2.2055,2.2055,1.855,1.855 MY,0,22096,22182,346.8887,343.8345 C,0,22117,22128,6,5,4,7,6,5 MX,0,22128,22300,389.6913,456.8906 C,0,22139,22150,7,6,5,8,7,5 C,0,22150,22257,8,7,5,13,11,9 MY,0,22182,22257,343.8345,342.6445 V,0,22203,22889,1.855,1.855,0.8281,0.8281 MY,0,22257,22428,342.6445,343.806 C,0,22267,22278,13,11,9,14,12,10 C,0,22289,22300,14,12,10,15,13,10 MX,0,22300,22385,456.8906,489.2944 C,0,22300,22407,15,13,10,20,17,14 MX,0,22385,22471,489.2944,519.3872 C,0,22417,22428,20,17,14,21,18,15 MY,0,22428,22610,343.806,348.7988 C,0,22439,22450,21,18,15,22,18,15 C,0,22450,22535,22,18,15,26,22,18 MX,0,22471,22557,519.3872,546.476 C,0,22546,22557,26,22,18,27,23,19 MX,0,22557,22642,546.476,570.1216 C,0,22567,22578,27,23,19,28,24,20 C,0,22589,22600,28,24,20,29,24,20 C,0,22600,22653,29,24,20,31,27,22 MY,0,22610,22953,348.7988,360.7597 MX,0,22642,22728,570.1216,590.1014 C,0,22664,22717,31,27,22,34,29,24 C,0,22728,22739,34,29,24,35,30,25 MX,0,22728,22814,590.1014,606.3838 C,0,22750,22760,35,30,25,36,31,26 C,0,22771,22782,36,31,26,37,32,26 C,0,22782,22867,37,32,26,41,35,29 MX,0,22814,22900,606.3838,619.0995 C,0,22878,22889,41,35,29,42,36,30 V,0,22889,23339,0.8281,0.8281,0,0 C,0,22900,22910,42,36,30,43,37,30 MX,0,22900,22985,619.0995,628.5016 C,0,22910,23017,43,37,30,48,41,34 MY,0,22953,23157,360.7597,365.6369 MX,0,22985,23071,628.5016,634.9152 C,0,23028,23039,48,41,34,49,42,35 C,0,23050,23060,49,42,35,50,43,35 C,0,23060,23167,50,43,35,55,47,39 MX,0,23071,23125,634.9152,637.5589 MX,0,23125,23200,637.5589,639.6707 MY,0,23157,23339,365.6369,367.2077 C,0,23178,23189,55,47,39,56,48,40 C,0,23200,23210,56,48,40,57,48,40 MX,0,23200,23339,639.6707,639.1784 C,0,23210,23296,57,48,40,61,52,43 C,0,23307,23317,61,52,43,62,53,44 F,0,23328,23339,1,0 R,0,23328,23339,0 C,0,23328,23339,62,53,44,63,54,45
Sprite,Background,Centre,"sb/b.png",320,240 R,0,21796,21807,0 F,0,21796,21967,0,0.9 MX,0,21796,21967,798.7681,504.1494 MY,0,21796,34117,383.5597,391.1146 V,0,21796,45378,36.8175,0.2209,37.0177,0.2221 C,0,21807,99025,25,25,25 MX,0,28985,43450,504.1494,502.1426 MY,0,34117,50028,391.1146,399.1565 MX,0,43450,56135,502.1426,498.1259 V,0,45389,57389,37.0177,0.2221,37.0977,0.2226 MY,0,50028,59971,399.1565,403.1746 MX,0,56135,72035,498.1259,490.0745 V,0,57400,64814,37.0977,0.2226,37.1377,0.2228 MY,0,59971,81700,403.1746,409.1946 V,0,64825,74542,37.1377,0.2228,37.1777,0.2231 MX,0,72035,83703,490.0745,482.0184 V,0,74564,98875,37.1777,0.2231,37.1127,0.2227 MY,0,81700,98478,409.1946,411.1968 MX,0,83703,98821,482.0184,468.8802 F,0,98339,98650,0.9,0.715 MY,0,98478,98885,411.1968,410.5424 F,0,98650,98885,0.715,0.3282 MX,0,98821,98864,468.8802,449.8405 MX,0,98864,98950,449.8405,301.4487 V,0,98875,99025,37.1127,0.2227,36.473,0.2188 F,0,98885,99025,0.3282,0 MY,0,98885,99025,410.5424,407.6949 MX,0,98950,99025,301.4487,174.2472 R,0,99014,99025,0
Sprite,Background,Centre,"sb/b.png",320,240 R,0,21796,21807,0 F,0,21796,21967,0,0.9 MX,0,21796,21967,504.2097,293.7075 V,0,21796,34503,26.308,0.1578,26.428,0.1586 MY,0,21796,77285,369.9354,401.6401 C,0,21807,99025,25,25,25 MX,0,21967,41307,293.7075,297.7162 V,0,34503,47135,26.428,0.1586,26.7485,0.1605 MX,0,41307,63850,297.7162,305.7531 V,0,47135,61760,26.7485,0.1605,27.3905,0.1643 V,0,61760,72014,27.3905,0.1643,28.0351,0.1682 MX,0,63850,79975,305.7531,313.7926 V,0,72014,80200,28.0351,0.1682,28.6814,0.1721 MY,0,77285,98242,401.6401,416.2519 MX,0,79975,98671,313.7926,325.8742 V,0,80200,87089,28.6814,0.1721,29.3278,0.176 V,0,87089,98703,29.3278,0.176,30.6644,0.184 MY,0,98242,98950,416.2519,415.1031 F,0,98339,98650,0.9,0.715 F,0,98650,98885,0.715,0.3282 MX,0,98671,98864,325.8742,310.494 V,0,98703,98875,30.6644,0.184,30.623,0.1837 MX,0,98864,98950,310.494,189.0946 V,0,98875,99025,30.623,0.1837,30.2052,0.1812 F,0,98885,99025,0.3282,0 MX,0,98950,99025,189.0946,84.6244 MY,0,98950,99025,415.1031,413.8558 R,0,99014,99025,0
Sprite,Background,Centre,"sb/b.png",320,240 R,0,21796,21807,0 F,0,21796,21957,0,0.4219 MX,0,21796,21967,918.7882,550.2939 MY,0,21796,32982,363.3817,370.946 V,0,21796,97728,46.0471,0.2763,46.8875,0.2813 C,0,21807,99025,25,25,25 F,0,21957,98607,0.4219,0.3813 MX,0,21967,37503,550.2939,551.2958 MY,0,32982,46728,370.946,378.9823 MX,0,37503,51442,551.2958,555.3122 MY,0,46728,63839,378.9823,387.0255 MX,0,51442,67053,555.3122,563.3592 MY,0,63839,74800,387.0255,391.0392 MX,0,67053,78175,563.3592,571.4075 MY,0,74800,97525,391.0392,396.5549 MX,0,78175,87314,571.4075,579.4794 MX,0,87314,98446,579.4794,591.1066 MY,0,97525,98907,396.5549,395.4753 V,0,97728,98864,46.8875,0.2813,46.8242,0.2809 MX,0,98446,98864,591.1066,567.4458 F,0,98607,99025,0.3813,0 MX,0,98864,98907,567.4458,472.968 V,0,98864,99025,46.8242,0.2809,45.7417,0.2745 MX,0,98907,98950,472.968,379.667 MY,0,98907,99025,395.4753,392.7196 MX,0,98950,99025,379.667,219.4643 R,0,99014,99025,0
Sprite,Background,Centre,"sb/b.png",320,240 F,0,98853,98864,0,1 R,0,98853,98864,0 MX,0,98853,98896,601.5296,595.2504 MY,0,98853,98939,398.8728,405.2236 V,0,98853,98939,0,0,1.2842,1.2842 C,0,98853,99024,63,54,45,0,0,0 R,2,98853,99025,4.8778,5.9459 MX,0,98896,98939,595.2504,586.0024 MX,0,98939,98982,586.0024,574.2051 MY,0,98939,98982,405.2236,407.646 V,0,98939,99024,1.2842,1.2842,2.6258,2.6258 MX,0,98982,99024,574.2051,560.3782 MY,0,98982,99089,407.646,411.0885 MX,0,99024,99110,560.3782,528.9696 V,0,99024,99196,2.6258,2.6258,2.3095,2.3095 R,2,99025,100396,5.9459,4.8778 C,0,99046,99057,0,0,0,1,1,1 C,0,99067,99078,1,1,1,2,2,1 C,0,99078,99164,2,2,1,6,5,4 MY,0,99089,99217,411.0885,410.5173 MX,0,99110,99196,528.9696,496.3614 C,0,99174,99185,6,5,4,7,6,5 C,0,99196,99207,7,6,5,8,7,5 MX,0,99196,99282,496.3614,466.2622 V,0,99196,99539,2.3095,2.3095,1.5247,1.5247 C,0,99207,99314,8,7,5,13,11,9 MY,0,99217,99314,410.5173,407.6275 MX,0,99282,99324,466.2622,452.9193 MY,0,99314,99657,407.6275,392.9055 C,0,99324,99335,13,11,9,14,12,10 MX,0,99324,99367,452.9193,440.9353 C,0,99346,99357,14,12,10,15,13,10 C,0,99357,99464,15,13,10,20,17,14 MX,0,99367,99410,440.9353,430.3746 MX,0,99410,99453,430.3746,421.2368 MX,0,99453,99496,421.2368,413.4723 C,0,99474,99485,20,17,14,21,18,15 C,0,99496,99507,21,18,15,22,18,15 MX,0,99496,99539,413.4723,406.9954 C,0,99507,99592,22,18,15,26,22,18 MX,0,99539,99582,406.9954,401.6969 V,0,99539,99882,1.5247,1.5247,0.847,0.847 MX,0,99582,99667,401.6969,394.1387 C,0,99603,99614,26,22,18,27,23,19 C,0,99624,99635,27,23,19,28,24,20 C,0,99646,99657,28,24,20,29,24,20 C,0,99657,99710,29,24,20,31,27,22 MY,0,99657,99828,392.9055,387.308 MX,0,99667,99710,394.1387,391.6218 MX,0,99710,99785,391.6218,388.7682 C,0,99721,99774,31,27,22,34,29,24 C,0,99785,99796,34,29,24,35,30,25 MX,0,99785,99839,388.7682,387.654 C,0,99807,99817,35,30,25,36,31,26 C,0,99828,99839,36,31,26,37,32,26 MY,0,99828,100085,387.308,382.5129 C,0,99839,99924,37,32,26,41,35,29 MX,0,99839,100278,387.654,386.5261 V,0,99882,100396,0.847,0.847,0,0 C,0,99935,99946,41,35,29,42,36,30 C,0,99957,99967,42,36,30,43,37,30 C,0,99967,100074,43,37,30,48,41,34 C,0,100085,100096,48,41,34,49,42,35 MY,0,100085,100214,382.5129,381.4736 C,0,100107,100117,49,42,35,50,43,35 C,0,100117,100224,50,43,35,55,47,39 MY,0,100214,100396,381.4736,381.2458 C,0,100235,100246,55,47,39,56,48,40 C,0,100257,100267,56,48,40,57,48,40 C,0,100267,100353,57,48,40,61,52,43 MX,0,100278,100396,386.5261,384.6246 C,0,100364,100374,61,52,43,62,53,44 F,0,100385,100396,1,0 R,0,100385,100396,0 C,0,100385,100396,62,53,44,63,54,45
Sprite,Background,Centre,"sb/b.png",320,240 F,0,98853,98864,0,1 R,0,98853,98864,0 MX,0,98853,98896,566.8216,574.5396 V,0,98853,98939,0,0,1.1577,1.1577 C,0,98853,99024,63,54,45,0,0,0 R,2,98853,99025,4.0952,6.2041 MY,0,98853,99110,348.3005,362.1519 MX,0,98896,98939,574.5396,580.2769 MX,0,98939,98982,580.2769,583.9152 V,0,98939,99024,1.1577,1.1577,2.398,2.398 MX,0,98982,99014,583.9152,585.2328 MX,0,99014,99089,585.2328,583.6584 V,0,99024,99271,2.398,2.398,2.1174,2.1174 R,2,99025,100396,6.2041,4.0952 C,0,99046,99057,0,0,0,1,1,1 C,0,99067,99078,1,1,1,2,2,1 C,0,99078,99164,2,2,1,6,5,4 MX,0,99089,99132,583.6584,579.9938 MY,0,99110,99260,362.1519,368.1341 MX,0,99132,99174,579.9938,574.5276 C,0,99174,99185,6,5,4,7,6,5 MX,0,99174,99217,574.5276,567.4871 C,0,99196,99207,7,6,5,8,7,5 C,0,99207,99314,8,7,5,13,11,9 MX,0,99217,99260,567.4871,559.1357 MX,0,99260,99346,559.1357,539.6407 MY,0,99260,99410,368.1341,371.0003 V,0,99271,100396,2.1174,2.1174,0,0 C,0,99324,99335,13,11,9,14,12,10 C,0,99346,99357,14,12,10,15,13,10 MX,0,99346,99517,539.6407,497.0369 C,0,99357,99464,15,13,10,20,17,14 MY,0,99410,99689,371.0003,369.8728 C,0,99474,99485,20,17,14,21,18,15 C,0,99496,99507,21,18,15,22,18,15 C,0,99507,99592,22,18,15,26,22,18 MX,0,99517,99603,497.0369,477.2752 C,0,99603,99614,26,22,18,27,23,19 MX,0,99603,99689,477.2752,459.831 C,0,99624,99635,27,23,19,28,24,20 C,0,99646,99657,28,24,20,29,24,20 C,0,99657,99710,29,24,20,31,27,22 MX,0,99689,99774,459.831,445.0291 MY,0,99689,100042,369.8728,365.3364 C,0,99721,99774,31,27,22,34,29,24 MX,0,99774,99860,445.0291,432.8385 C,0,99785,99796,34,29,24,35,30,25 C,0,99807,99817,35,30,25,36,31,26 C,0,99828,99839,36,31,26,37,32,26 C,0,99839,99924,37,32,26,41,35,29 MX,0,99860,99946,432.8385,423.0146 C,0,99935,99946,41,35,29,42,36,30 MX,0,99946,100032,423.0146,415.2152 C,0,99957,99967,42,36,30,43,37,30 C,0,99967,100074,43,37,30,48,41,34 MX,0,100032,100117,415.2152,409.0826 MY,0,100042,100192,365.3364,364.2192 C,0,100085,100096,48,41,34,49,42,35 C,0,100107,100117,49,42,35,50,43,35 MX,0,100117,100203,409.0826,404.2952 C,0,100117,100224,50,43,35,55,47,39 MY,0,100192,100396,364.2192,363.9727 MX,0,100203,100396,404.2952,397.2542 C,0,100235,100246,55,47,39,56,48,40 C,0,100257,100267,56,48,40,57,48,40 C,0,100267,100353,57,48,40,61,52,43 C,0,100364,100374,61,52,43,62,53,44 F,0,100385,100396,1,0 R,0,100385,100396,0 C,0,100385,100396,62,53,44,63,54,45
Sprite,Background,Centre,"sb/b.png",320,240 F,0,98853,98864,0,1 R,0,98853,98864,0 C,0,98853,99024,189,172,162,0,0,0 MX,0,98853,99024,486.8856,516.5599 MY,0,98853,99024,354.1296,355.9028 V,0,98853,99024,0,0,1.9929,1.9929 R,2,98853,99025,4.2514,4.2802 MX,0,99024,99110,516.5599,528.8939 V,0,99024,99517,1.9929,1.9929,1.4002,1.4002 MY,0,99024,99549,355.9028,370.6078 C,0,99024,100396,0,0,0,189,172,162 R,2,99025,100396,4.2802,4.2514 MX,0,99110,99196,528.8939,538.2527 MX,0,99196,99282,538.2527,544.2026 MX,0,99282,99346,544.2026,546.3881 MX,0,99346,99485,546.3881,545.0482 MX,0,99485,99592,545.0482,539.5302 V,0,99517,100396,1.4002,1.4002,0,0 MY,0,99549,99839,370.6078,375.5462 MX,0,99592,99764,539.5302,526.0786 MX,0,99764,99935,526.0786,511.1617 MY,0,99839,100149,375.5462,377.6697 MX,0,99935,100107,511.1617,498.1177 MX,0,100107,100192,498.1177,492.88 MY,0,100149,100396,377.6697,378.4561 MX,0,100192,100299,492.88,487.7609 MX,0,100299,100396,487.7609,484.5833 F,0,100385,100396,1,0 R,0,100385,100396,0
Sprite,Background,Centre,"sb/b.png",320,240 F,0,98853,98864,0,1 R,0,98853,98864,0 MX,0,98853,98896,581.9108,585.5555 V,0,98853,98939,0,0,1.1191,1.1191 C,0,98853,99024,189,172,162,0,0,0 MY,0,98853,99024,391.5258,404 R,2,98853,99025,2.7073,1.0359 MX,0,98896,98928,585.5555,586.7105 MX,0,98928,98982,586.7105,585.6332 V,0,98939,99024,1.1191,1.1191,2.313,2.313 MX,0,98982,99024,585.6332,582.1698 MX,0,99024,99067,582.1698,576.5782 MY,0,99024,99110,404,408.905 V,0,99024,99239,2.313,2.313,2.0481,2.0481 C,0,99024,100396,0,0,0,189,172,162 R,2,99025,100396,1.0359,2.7073 MX,0,99067,99110,576.5782,569.1043 MX,0,99110,99153,569.1043,560.0485 MY,0,99110,99185,408.905,411.9791 MX,0,99153,99239,560.0485,538.5502 MY,0,99185,99303,411.9791,414.3295 MX,0,99239,99410,538.5502,491.3275 V,0,99239,99924,2.0481,2.0481,0.7773,0.7773 MY,0,99303,99474,414.3295,413.24 MX,0,99410,99496,491.3275,469.7764 MY,0,99474,99849,413.24,404.0143 MX,0,99496,99582,469.7764,451.1681 MX,0,99582,99667,451.1681,435.8365 MX,0,99667,99753,435.8365,423.6563 MX,0,99753,99839,423.6563,414.236 MX,0,99839,99924,414.236,407.0699 MY,0,99849,100139,404.0143,399.1026 MX,0,99924,100010,407.0699,401.6406 V,0,99924,100396,0.7773,0.7773,0,0 MX,0,100010,100128,401.6406,396.162 MX,0,100128,100396,396.162,388.0964 MY,0,100139,100396,399.1026,398.1414 F,0,100385,100396,1,0 R,0,100385,100396,0
Sprite,Background,Centre,"sb/b.png",320,240 F,0,98853,98864,0,1 R,0,98853,98864,0 MX,0,98853,98896,594.1444,602.2241 V,0,98853,98939,0,0,1.0991,1.0991 C,0,98853,99024,189,172,162,0,0,0 R,2,98853,99025,3.8943,3.0367 MY,0,98853,99110,362.3212,381.7635 MX,0,98896,98939,602.2241,607.5747 MX,0,98939,98960,607.5747,609.181 V,0,98939,99024,1.0991,1.0991,2.2974,2.2974 MX,0,98960,98992,609.181,610.2296 MX,0,98992,99035,610.2296,609.0946 V,0,99024,99185,2.2974,2.2974,2.1603,2.1603 C,0,99024,100396,0,0,0,189,172,162 R,2,99025,100396,3.0367,3.8943 MX,0,99035,99078,609.0946,605.1517 MX,0,99078,99121,605.1517,598.5902 MY,0,99110,99196,381.7635,386.4849 MX,0,99121,99164,598.5902,589.6906 MX,0,99164,99207,589.6906,578.8075 V,0,99185,99367,2.1603,2.1603,1.8873,1.8873 MY,0,99196,99282,386.4849,389.5846 MX,0,99207,99249,578.8075,566.3462 MX,0,99249,99335,566.3462,538.4094 MY,0,99282,99399,389.5846,391.175 MX,0,99335,99421,538.4094,509.1736 V,0,99367,100053,1.8873,1.8873,0.5733,0.5733 MY,0,99399,99603,391.175,388.595 MX,0,99421,99507,509.1736,481.2944 MX,0,99507,99592,481.2944,456.4892 MX,0,99592,99635,456.4892,445.5208 MY,0,99603,99989,388.595,379.296 MX,0,99635,99678,445.5208,435.5612 MX,0,99678,99764,435.5612,418.6116 MX,0,99764,99849,418.6116,405.3006 MX,0,99849,99935,405.3006,395.0703 MX,0,99935,100021,395.0703,387.3039 MY,0,99989,100139,379.296,377.0198 MX,0,100021,100107,387.3039,381.4226 V,0,100053,100396,0.5733,0.5733,0,0 MX,0,100107,100203,381.4226,376.4556 MY,0,100139,100396,377.0198,375.8892 MX,0,100203,100396,376.4556,369.9446 F,0,100385,100396,1,0 R,0,100385,100396,0
Sprite,Background,Centre,"sb/b.png",320,240 F,0,98853,98864,0,1 R,0,98853,98864,0 MX,0,98853,98896,624.6195,643.7409 MY,0,98853,98939,355.1461,364.6863 V,0,98853,98939,0,0,1.1924,1.1924 C,0,98853,99024,165,158,139,0,0,0 R,2,98853,99025,4.4359,1.6945 MX,0,98896,98939,643.7409,659.7455 MX,0,98939,98982,659.7455,672.1571 V,0,98939,99024,1.1924,1.1924,2.5651,2.5651 MY,0,98939,99110,364.6863,386.3905 MX,0,98982,99003,672.1571,676.8825 MX,0,99003,99024,676.8825,680.5605 MX,0,99024,99046,680.5605,683.1543 V,0,99024,99260,2.5651,2.5651,2.4969,2.4969 C,0,99024,100396,0,0,0,165,158,139 R,2,99025,100396,1.6945,4.4359 MX,0,99046,99067,683.1543,684.6356 MX,0,99067,99121,684.6356,683.3729 MY,0,99110,99196,386.3905,396.312 MX,0,99121,99142,683.3729,680.8805 MX,0,99142,99164,680.8805,677.276 MX,0,99164,99185,677.276,672.5909 MX,0,99185,99228,672.5909,660.1652 MY,0,99196,99282,396.312,404.1459 MX,0,99228,99271,660.1652,644.0796 V,0,99260,99442,2.4969,2.4969,2.1956,2.1956 MX,0,99271,99314,644.0796,624.9563 MY,0,99282,99378,404.1459,409.6508 MX,0,99314,99357,624.9563,603.5148 MX,0,99357,99528,603.5148,509.3733 MY,0,99378,99453,409.6508,411.4256 V,0,99442,99785,2.1956,2.1956,1.3332,1.3332 MY,0,99453,99592,411.4256,409.9896 MX,0,99528,99571,509.3733,486.9044 MX,0,99571,99614,486.9044,465.7556 MY,0,99592,99935,409.9896,396.406 MX,0,99614,99657,465.7556,446.1677 MX,0,99657,99699,446.1677,428.277 MX,0,99699,99742,428.277,412.1335 MX,0,99742,99785,412.1335,397.7185 MX,0,99785,99828,397.7185,384.9634 V,0,99785,100128,1.3332,1.3332,0.5412,0.5412 MX,0,99828,99871,384.9634,373.7652 MX,0,99871,99914,373.7652,363.9998 MX,0,99914,99957,363.9998,355.5333 MY,0,99935,100107,396.406,390.9652 MX,0,99957,99999,355.5333,348.2295 MX,0,99999,100085,348.2295,336.5887 MX,0,100085,100171,336.5887,328.132 MY,0,100107,100235,390.9652,388.5642 V,0,100128,100396,0.5412,0.5412,0,0 MX,0,100171,100257,328.132,322.111 MY,0,100235,100396,388.5642,387.7502 MX,0,100257,100396,322.111,316.2664 F,0,100385,100396,1,0 R,0,100385,100396,0
Sprite,Background,Centre,"sb/b.png",320,240 F,0,98853,98864,0,1 R,0,98853,98864,0 MX,0,98853,98896,448.699,453.1345 MY,0,98853,98928,384.916,382.55 C,0,98853,99024,63,54,45,0,0,0 V,0,98853,99024,0,0,2.0421,2.0421 R,2,98853,99025,3.1409,3.4968 MX,0,98896,98982,453.1345,465.0199 MY,0,98928,99046,382.55,380.8113 MX,0,98982,99239,465.0199,507.8707 V,0,99024,99807,2.0421,2.0421,0.9641,0.9641 R,2,99025,100396,3.4968,3.1409 C,0,99046,99057,0,0,0,1,1,1 MY,0,99046,99217,380.8113,381.9674 C,0,99067,99078,1,1,1,2,2,1 C,0,99078,99164,2,2,1,6,5,4 C,0,99174,99185,6,5,4,7,6,5 C,0,99196,99207,7,6,5,8,7,5 C,0,99207,99314,8,7,5,13,11,9 MY,0,99217,99421,381.9674,386.9595 MX,0,99239,99324,507.8707,520.1573 C,0,99324,99335,13,11,9,14,12,10 MX,0,99324,99410,520.1573,530.1903 C,0,99346,99357,14,12,10,15,13,10 C,0,99357,99464,15,13,10,20,17,14 MX,0,99410,99496,530.1903,537.6989 MY,0,99421,99764,386.9595,397.2458 C,0,99474,99485,20,17,14,21,18,15 C,0,99496,99507,21,18,15,22,18,15 MX,0,99496,99592,537.6989,543.1208 C,0,99507,99592,22,18,15,26,22,18 MX,0,99592,99689,543.1208,545.621 C,0,99603,99614,26,22,18,27,23,19 C,0,99624,99635,27,23,19,28,24,20 C,0,99646,99657,28,24,20,29,24,20 C,0,99657,99710,29,24,20,31,27,22 MX,0,99689,99860,545.621,544.4825 C,0,99721,99774,31,27,22,34,29,24 MY,0,99764,99978,397.2458,402.0216 C,0,99785,99796,34,29,24,35,30,25 C,0,99807,99817,35,30,25,36,31,26 V,0,99807,100396,0.9641,0.9641,0,0 C,0,99828,99839,36,31,26,37,32,26 C,0,99839,99924,37,32,26,41,35,29 MX,0,99860,100396,544.4825,526.8149 C,0,99935,99946,41,35,29,42,36,30 C,0,99957,99967,42,36,30,43,37,30 C,0,99967,100074,43,37,30,48,41,34 MY,0,99978,100128,402.0216,404.256 C,0,100085,100096,48,41,34,49,42,35 C,0,100107,100117,49,42,35,50,43,35 C,0,100117,100224,50,43,35,55,47,39 MY,0,100128,100396,404.256,406.1909 C,0,100235,100246,55,47,39,56,48,40 C,0,100257,100267,56,48,40,57,48,40 C,0,100267,100353,57,48,40,61,52,43 C,0,100364,100374,61,52,43,62,53,44 F,0,100385,100396,1,0 R,0,100385,100396,0 C,0,100385,100396,62,53,44,63,54,45
Sprite,Background,Centre,"sb/b.png",320,240 F,0,98853,98864,0,1 R,0,98853,98864,0 MX,0,98853,98896,606.0939,620.6295 V,0,98853,98939,0,0,1.3281,1.3281 C,0,98853,99024,63,54,45,0,0,0 R,2,98853,99025,3.3475,0.3859 MY,0,98853,99110,352.5478,377.0225 MX,0,98896,98939,620.6295,632.287 MX,0,98939,98982,632.287,640.7383 V,0,98939,99024,1.3281,1.3281,2.818,2.818 MX,0,98982,99024,640.7383,645.7341 MX,0,99024,99057,645.7341,647.1198 V,0,99024,99228,2.818,2.818,2.6886,2.6886 R,2,99025,100396,0.3859,3.3475 C,0,99046,99057,0,0,0,1,1,1 MX,0,99057,99099,647.1198,645.7842 C,0,99067,99078,1,1,1,2,2,1 C,0,99078,99164,2,2,1,6,5,4 MX,0,99099,99142,645.7842,640.8834 MY,0,99110,99196,377.0225,384.2643 MX,0,99142,99185,640.8834,632.6229 C,0,99174,99185,6,5,4,7,6,5 MX,0,99185,99228,632.6229,621.3353 C,0,99196,99207,7,6,5,8,7,5 MY,0,99196,99282,384.2643,389.7828 C,0,99207,99314,8,7,5,13,11,9 MX,0,99228,99271,621.3353,607.4603 V,0,99228,99410,2.6886,2.6886,2.3694,2.3694 MX,0,99271,99314,607.4603,591.5159 MY,0,99282,99346,389.7828,392.5634 MX,0,99314,99399,591.5159,555.6625 C,0,99324,99335,13,11,9,14,12,10 C,0,99346,99357,14,12,10,15,13,10 MY,0,99346,99421,392.5634,394.3176 C,0,99357,99464,15,13,10,20,17,14 MX,0,99399,99485,555.6625,518.116 V,0,99410,99946,2.3694,2.3694,1.0024,1.0024 MY,0,99421,99603,394.3176,393.1809 C,0,99474,99485,20,17,14,21,18,15 MX,0,99485,99571,518.116,482.3892 C,0,99496,99507,21,18,15,22,18,15 C,0,99507,99592,22,18,15,26,22,18 MX,0,99571,99614,482.3892,465.9597 C,0,99603,99614,26,22,18,27,23,19 MY,0,99603,99957,393.1809,383.0026 MX,0,99614,99657,465.9597,450.7234 C,0,99624,99635,27,23,19,28,24,20 C,0,99646,99657,28,24,20,29,24,20 MX,0,99657,99699,450.7234,436.7686 C,0,99657,99710,29,24,20,31,27,22 MX,0,99699,99742,436.7686,424.1259 C,0,99721,99774,31,27,22,34,29,24 MX,0,99742,99785,424.1259,412.7794 C,0,99785,99796,34,29,24,35,30,25 MX,0,99785,99828,412.7794,402.6793 C,0,99807,99817,35,30,25,36,31,26 C,0,99828,99839,36,31,26,37,32,26 MX,0,99828,99871,402.6793,393.7522 C,0,99839,99924,37,32,26,41,35,29 MX,0,99871,99957,393.7522,379.0549 C,0,99935,99946,41,35,29,42,36,30 V,0,99946,100396,1.0024,1.0024,0,0 C,0,99957,99967,42,36,30,43,37,30 MX,0,99957,100042,379.0549,367.9188 MY,0,99957,100192,383.0026,378.4039 C,0,99967,100074,43,37,30,48,41,34 MX,0,100042,100128,367.9188,359.6 C,0,100085,100096,48,41,34,49,42,35 C,0,100107,100117,49,42,35,50,43,35 C,0,100117,100224,50,43,35,55,47,39 MX,0,100128,100214,359.6,353.4667 MY,0,100192,100396,378.4039,377.4566 MX,0,100214,100321,353.4667,348.1614 C,0,100235,100246,55,47,39,56,48,40 C,0,100257,100267,56,48,40,57,48,40 C,0,100267,100353,57,48,40,61,52,43 MX,0,100321,100396,348.1614,345.7259 C,0,100364,100374,61,52,43,62,53,44 F,0,100385,100396,1,0 R,0,100385,100396,0 C,0,100385,100396,62,53,44,63,54,45
Sprite,Background,Centre,"sb/b.png",320,240 F,0,98853,98864,0,1 R,0,98853,98864,0 MY,0,98853,98939,390.156,390.8171 C,0,98853,98949,144,130,117,63,56,51 MX,0,98853,99024,521.9914,497.6198 V,0,98853,99024,0,0,2.1762,2.1762 R,2,98853,99025,5.7337,2.8832 MY,0,98939,99228,390.8171,388.501 C,0,98949,98971,63,56,51,44,40,36 C,0,98971,98992,44,40,36,27,24,21 C,0,98992,99024,27,24,21,0,0,0 C,0,99024,99110,0,0,0,8,8,7 MX,0,99024,99110,497.6198,486.1999 V,0,99024,99710,2.1762,2.1762,1.0231,1.0231 R,2,99025,100396,2.8832,5.7337 C,0,99110,99196,8,8,7,18,16,14 MX,0,99110,99196,486.1999,476.4998 MX,0,99196,99282,476.4998,468.8728 C,0,99196,100396,18,16,14,144,130,117 MY,0,99228,99582,388.501,383.696 MX,0,99282,99367,468.8728,463.3229 MX,0,99367,99507,463.3229,458.0992 MX,0,99507,99571,458.0992,456.9128 MX,0,99571,100182,456.9128,455.8246 MY,0,99582,99721,383.696,382.5688 V,0,99710,100396,1.0231,1.0231,0,0 MY,0,99721,100396,382.5688,382.1597 MX,0,100182,100396,455.8246,452.4503 F,0,100385,100396,1,0 R,0,100385,100396,0
Sprite,Background,Centre,"sb/b.png",320,240 F,0,98853,98864,0,1 R,0,98853,98864,0 MX,0,98853,98896,398.008,410.7081 MY,0,98853,98896,359.1366,356.8519 C,0,98853,99024,189,172,162,0,0,0 V,0,98853,99024,0,0,2.068,2.068 R,2,98853,99025,2.6641,6.179 MX,0,98896,98939,410.7081,424.9035 MY,0,98896,98992,356.8519,353.8599 MX,0,98939,99024,424.9035,455.9373 MY,0,98992,99046,353.8599,353.3535 MX,0,99024,99110,455.9373,488.0983 V,0,99024,99228,2.068,2.068,1.7962,1.7962 C,0,99024,100396,0,0,0,189,172,162 R,2,99025,100396,6.179,2.6641 MY,0,99046,99164,353.3535,354.6632 MX,0,99110,99196,488.0983,519.2136 MY,0,99164,99249,354.6632,357.3139 MX,0,99196,99282,519.2136,547.6895 V,0,99228,99710,1.7962,1.7962,1.2509,1.2509 MY,0,99249,99464,357.3139,367.9 MX,0,99282,99324,547.6895,560.5621 MX,0,99324,99367,560.5621,572.3734 MX,0,99367,99410,572.3734,583.0392 MX,0,99410,99453,583.0392,592.4998 MX,0,99453,99496,592.4998,600.7188 MY,0,99464,99807,367.9,387.0717 MX,0,99496,99539,600.7188,607.6842 MX,0,99539,99582,607.6842,613.4074 MX,0,99582,99624,613.4074,617.9224 MX,0,99624,99667,617.9224,621.2844 MX,0,99667,99721,621.2844,623.9794 V,0,99710,100053,1.2509,1.2509,0.6797,0.6797 MX,0,99721,99774,623.9794,625.1677 MX,0,99774,99882,625.1677,623.8735 MY,0,99807,99957,387.0717,393.4117 MX,0,99882,99999,623.8735,618.6392 MY,0,99957,100139,393.4117,398.6215 MX,0,99999,100257,618.6392,603.9315 V,0,100053,100396,0.6797,0.6797,0,0 MY,0,100139,100289,398.6215,400.9683 MX,0,100257,100396,603.9315,598.5657 MY,0,100289,100396,400.9683,401.6646 F,0,100385,100396,1,0 R,0,100385,100396,0
Sprite,Background,Centre,"sb/b.png",320,240 R,0,98853,98864,0 F,0,98853,99024,0,0.9 MX,0,98853,99024,798.7681,504.1757 MY,0,98853,101564,383.5597,391.3569 V,0,98853,110178,36.8175,0.2209,37.1799,0.2231 C,0,98864,115224,25,25,25 MX,0,99024,102357,504.1757,503.1653 MY,0,101564,105035,391.3569,399.5581 MX,0,102357,105592,503.1653,499.1035 MY,0,105035,107210,399.5581,403.6241 MX,0,105592,109214,499.1035,490.8981 MY,0,107210,110071,403.6241,407.6886 MX,0,109214,111817,490.8981,482.5917 MY,0,110071,112139,407.6886,409.705 V,0,110178,115074,37.1799,0.2231,37.1146,0.2227 MX,0,111817,115032,482.5917,469.5615 MY,0,112139,115042,409.705,411.2116 F,0,114539,114849,0.9,0.7152 F,0,114849,115085,0.7152,0.3285 MX,0,115032,115064,469.5615,450.6671 MY,0,115042,115224,411.2116,407.6949 MX,0,115064,115149,450.6671,301.9571 V,0,115074,115224,37.1146,0.2227,36.473,0.2188 F,0,115085,115224,0.3285,0 MX,0,115149,115224,301.9571,174.2472 R,0,115214,115224,0
Sprite,Background,Centre,"sb/b.png",320,240 R,0,98853,98864,0 F,0,98853,99024,0,0.9 MX,0,98853,99024,504.2097,293.7957 V,0,98853,101564,26.308,0.1578,26.4294,0.1586 MY,0,98853,110799,369.9354,402.1978 C,0,98864,115224,25,25,25 MX,0,99024,103096,293.7957,297.8567 V,0,101564,104264,26.4294,0.1586,26.7547,0.1605 MX,0,103096,107885,297.8567,305.9962 V,0,104264,107403,26.7547,0.1605,27.4107,0.1645 V,0,107403,109621,27.4107,0.1645,28.0767,0.1685 MX,0,107885,111346,305.9962,314.2188 V,0,109621,111410,28.0767,0.1685,28.7542,0.1725 MY,0,110799,115032,402.1978,416.1768 MX,0,111346,114914,314.2188,325.0608 V,0,111410,112899,28.7542,0.1725,29.4267,0.1766 V,0,112899,115032,29.4267,0.1766,30.5884,0.1835 F,0,114539,114849,0.9,0.7152 F,0,114849,115085,0.7152,0.3285 MX,0,114914,115064,325.0608,310.297 MY,0,115032,115224,416.1768,413.8558 V,0,115032,115224,30.5884,0.1835,30.2052,0.1812 MX,0,115064,115149,310.297,189.2462 F,0,115085,115224,0.3285,0 MX,0,115149,115224,189.2462,84.6244 R,0,115214,115224,0
Sprite,Background,Centre,"sb/b.png",320,240 R,0,98853,98864,0 F,0,98853,99014,0,0.4219 MX,0,98853,99024,918.7882,550.264 MY,0,98853,101317,363.3817,371.1971 V,0,98853,114239,46.0471,0.2763,46.8531,0.2811 C,0,98864,115224,25,25,25 MX,0,99024,102153,550.264,551.2706 MY,0,101317,104328,371.1971,379.4438 MX,0,102153,105153,551.2706,555.3408 MY,0,104328,108099,379.4438,387.6619 MX,0,105153,108507,555.3408,563.5389 MY,0,108099,110553,387.6619,391.7516 MX,0,108507,110917,563.5389,571.8411 MY,0,110553,114528,391.7516,396.2937 MX,0,110917,112899,571.8411,580.1937 MX,0,112899,115032,580.1937,590.7318 V,0,114239,115074,46.8531,0.2811,46.7468,0.2805 MY,0,114528,115117,396.2937,395.1972 F,0,114710,114999,0.4219,0.2469 F,0,114999,115224,0.2469,0 MX,0,115032,115064,590.7318,567.0908 MX,0,115064,115107,567.0908,472.8029 V,0,115074,115224,46.7468,0.2805,45.7417,0.2745 MX,0,115107,115149,472.8029,379.6768 MY,0,115117,115224,395.1972,392.7196 MX,0,115149,115224,379.6768,219.4643 R,0,115214,115224,0
Sprite,Background,Centre,"sb/b.png",320,240 F,0,115053,115064,0,1 R,0,115053,115064,0 MX,0,115053,115096,391.1175,397.1895 MY,0,115053,115139,365.4648,359.9331 V,0,115053,115139,0,0,1.1585,1.1585 C,0,115053,115224,63,54,45,0,0,0 R,2,115053,115225,5.314,4.6302 MX,0,115096,115139,397.1895,405.5412 MX,0,115139,115182,405.5412,415.6465 MY,0,115139,115203,359.9331,357.1041 V,0,115139,115224,1.1585,1.1585,2.2524,2.2524 MX,0,115182,115267,415.6465,439.3433 MY,0,115203,115321,357.1041,354.5884 V,0,115224,115396,2.2524,2.2524,1.9362,1.9362 R,2,115225,116596,4.6302,5.314 C,0,115246,115257,0,0,0,1,1,1 C,0,115267,115278,1,1,1,2,2,1 MX,0,115267,115439,439.3433,491.4477 C,0,115278,115364,2,2,1,6,5,4 MY,0,115321,115482,354.5884,355.6633 C,0,115374,115385,6,5,4,7,6,5 C,0,115396,115407,7,6,5,8,7,5 V,0,115396,115814,1.9362,1.9362,1.3754,1.3754 C,0,115407,115514,8,7,5,13,11,9 MX,0,115439,115524,491.4477,516.1614 MY,0,115482,115664,355.6633,361.065 C,0,115524,115535,13,11,9,14,12,10 MX,0,115524,115610,516.1614,538.3834 C,0,115546,115557,14,12,10,15,13,10 C,0,115557,115664,15,13,10,20,17,14 MX,0,115610,115696,538.3834,557.4045 MY,0,115664,116007,361.065,375.1802 C,0,115674,115685,20,17,14,21,18,15 C,0,115696,115707,21,18,15,22,18,15 MX,0,115696,115782,557.4045,572.8437 C,0,115707,115792,22,18,15,26,22,18 MX,0,115782,115867,572.8437,584.6149 C,0,115803,115814,26,22,18,27,23,19 V,0,115814,116157,1.3754,1.3754,0.8409,0.8409 C,0,115824,115835,27,23,19,28,24,20 C,0,115846,115857,28,24,20,29,24,20 C,0,115857,115910,29,24,20,31,27,22 MX,0,115867,115953,584.6149,592.8893 C,0,115921,115974,31,27,22,34,29,24 MX,0,115953,116049,592.8893,598.4954 C,0,115985,115996,34,29,24,35,30,25 C,0,116007,116017,35,30,25,36,31,26 MY,0,116007,116178,375.1802,381.164 C,0,116028,116039,36,31,26,37,32,26 C,0,116039,116124,37,32,26,41,35,29 MX,0,116049,116092,598.4954,599.912 MX,0,116092,116178,599.912,601.1476 C,0,116135,116146,41,35,29,42,36,30 C,0,116157,116167,42,36,30,43,37,30 V,0,116157,116596,0.8409,0.8409,0,0 C,0,116167,116274,43,37,30,48,41,34 MX,0,116178,116317,601.1476,599.942 MY,0,116178,116382,381.164,385.9822 C,0,116285,116296,48,41,34,49,42,35 C,0,116307,116317,49,42,35,50,43,35 C,0,116317,116424,50,43,35,55,47,39 MX,0,116317,116596,599.942,593.1293 MY,0,116382,116596,385.9822,388.0902 C,0,116435,116446,55,47,39,56,48,40 C,0,116457,116467,56,48,40,57,48,40 C,0,116467,116553,57,48,40,61,52,43 C,0,116564,116574,61,52,43,62,53,44 F,0,116585,116596,1,0 R,0,116585,116596,0 C,0,116585,116596,62,53,44,63,54,45
Sprite,Background,Centre,"sb/b.png",320,240 F,0,115053,115064,0,1 R,0,115053,115064,0 MX,0,115053,115139,499.6699,521.8492 MY,0,115053,115139,372.0672,373.9088 C,0,115053,115224,165,158,139,0,0,0 V,0,115053,115224,0,0,2.0767,2.0767 R,2,115053,115225,2.8849,4.0463 MX,0,115139,115224,521.8492,541.4048 MY,0,115139,115289,373.9088,379.9209 MX,0,115224,115267,541.4048,549.7092 V,0,115224,115482,2.0767,2.0767,1.8244,1.8244 C,0,115224,116596,0,0,0,165,158,139 R,2,115225,116596,4.0463,2.8849 MX,0,115267,115310,549.7092,556.8408 MY,0,115289,115674,379.9209,399.0826 MX,0,115310,115353,556.8408,562.7009 MX,0,115353,115396,562.7009,567.227 MX,0,115396,115439,567.227,570.3925 MX,0,115439,115492,570.3925,572.4518 V,0,115482,115707,1.8244,1.8244,1.5423,1.5423 MX,0,115492,115578,572.4518,571.6013 MX,0,115578,115632,571.6013,568.7526 MX,0,115632,115717,568.7526,561.1828 MY,0,115674,115846,399.0826,404.5373 V,0,115707,116049,1.5423,1.5423,0.9833,0.9833 MX,0,115717,115803,561.1828,550.8966 MX,0,115803,116146,550.8966,503.2184 MY,0,115846,115985,404.5373,407.0552 MY,0,115985,116103,407.0552,408.1667 V,0,116049,116596,0.9833,0.9833,0,0 MY,0,116103,116596,408.1667,409.3625 MX,0,116146,116232,503.2184,493.227 MX,0,116232,116317,493.227,484.7378 MX,0,116317,116403,484.7378,477.8654 MX,0,116403,116489,477.8654,472.6542 MX,0,116489,116596,472.6542,468.4887 F,0,116585,116596,1,0 R,0,116585,116596,0
Sprite,Background,Centre,"sb/b.png",320,240 F,0,115053,115064,0,1 R,0,115053,115064,0 MX,0,115053,115074,319.7495,314.9747 MY,0,115053,115139,385.1774,371.6503 V,0,115053,115139,0,0,1.1886,1.1886 C,0,115053,115149,144,130,117,63,56,51 R,2,115053,115225,0.1623,4.005 MX,0,115074,115096,314.9747,311.903 MX,0,115096,115117,311.903,310.3803 MX,0,115117,115160,310.3803,311.381 MY,0,115139,115224,371.6503,361.0565 V,0,115139,115224,1.1886,1.1886,2.2015,2.2015 C,0,115149,115171,63,56,51,44,40,36 MX,0,115160,115203,311.381,316.8447 C,0,115171,115192,44,40,36,27,24,21 C,0,115192,115224,27,24,21,0,0,0 MX,0,115203,115246,316.8447,325.7804 C,0,115224,115310,0,0,0,8,8,7 MY,0,115224,115310,361.0565,353.412 V,0,115224,115310,2.2015,2.2015,1.9442,1.9442 R,2,115225,116596,4.005,0.1623 MX,0,115246,115289,325.7804,337.3523 MX,0,115289,115332,337.3523,350.8718 C,0,115310,115396,8,8,7,18,16,14 MY,0,115310,115396,353.412,348.3593 V,0,115310,115482,1.9442,1.9442,1.5745,1.5745 MX,0,115332,115417,350.8718,381.6214 MY,0,115396,115482,348.3593,345.4595 C,0,115396,116596,18,16,14,144,130,117 MX,0,115417,115589,381.6214,448.0102 MY,0,115482,115567,345.4595,344.3002 V,0,115482,116307,1.5745,1.5745,0.4627,0.4627 MY,0,115567,115717,344.3002,345.397 MX,0,115589,115674,448.0102,480.0411 MX,0,115674,115760,480.0411,509.8352 MY,0,115717,115910,345.397,350.4607 MX,0,115760,115846,509.8352,536.7296 MX,0,115846,115932,536.7296,560.3027 MY,0,115910,116253,350.4607,361.8253 MX,0,115932,116017,560.3027,580.3319 MX,0,116017,116103,580.3319,596.7658 MX,0,116103,116189,596.7658,609.6934 MX,0,116189,116274,609.6934,619.3074 MY,0,116253,116478,361.8253,366.5579 MX,0,116274,116360,619.3074,625.8583 V,0,116307,116596,0.4627,0.4627,0,0 MX,0,116360,116414,625.8583,628.5137 MX,0,116414,116489,628.5137,630.501 MY,0,116478,116596,366.5579,367.4553 MX,0,116489,116596,630.501,630.0499 F,0,116585,116596,1,0 R,0,116585,116596,0
Sprite,Background,Centre,"sb/b.png",320,240 F,0,115053,115064,0,1 R,0,115053,115064,0 MX,0,115053,115074,377.9839,373.4522 MY,0,115053,115139,369.4341,360.8966 V,0,115053,115139,0,0,1.3594,1.3594 C,0,115053,115224,189,172,162,0,0,0 R,2,115053,115225,1.4595,3.8523 MX,0,115074,115096,373.4522,370.0985 MX,0,115096,115117,370.0985,367.847 MX,0,115117,115149,367.847,366.3618 MY,0,115139,115224,360.8966,353.855 V,0,115139,115224,1.3594,1.3594,2.5731,2.5731 MX,0,115149,115192,366.3618,367.4878 MX,0,115192,115235,367.4878,371.5863 MY,0,115224,115310,353.855,348.5696 V,0,115224,115310,2.5731,2.5731,2.3088,2.3088 C,0,115224,116596,0,0,0,189,172,162 R,2,115225,116596,3.8523,1.4595 MX,0,115235,115278,371.5863,378.0737 MX,0,115278,115321,378.0737,386.4298 MY,0,115310,115374,348.5696,345.7279 V,0,115310,115449,2.3088,2.3088,1.9681,1.9681 MX,0,115321,115364,386.4298,396.2025 MX,0,115364,115449,396.2025,418.5081 MY,0,115374,115471,345.7279,343.075 MX,0,115449,115621,418.5081,466.6329 V,0,115449,116135,1.9681,1.9681,0.8378,0.8378 MY,0,115471,115567,343.075,342.0513 MY,0,115567,115803,342.0513,344.2953 MX,0,115621,115707,466.6329,489.5435 MX,0,115707,115792,489.5435,510.483 MX,0,115792,115878,510.483,528.9421 MY,0,115803,116317,344.2953,356.0144 MX,0,115878,115964,528.9421,544.6486 MX,0,115964,116049,544.6486,557.5204 MX,0,116049,116135,557.5204,567.6252 MX,0,116135,116221,567.6252,575.1371 V,0,116135,116596,0.8378,0.8378,0,0 MX,0,116221,116307,575.1371,580.2928 MX,0,116307,116392,580.2928,583.3464 MY,0,116317,116489,356.0144,358.2856 MX,0,116392,116478,583.3464,584.5297 MX,0,116478,116596,584.5297,583.4141 MY,0,116489,116596,358.2856,358.8893 F,0,116585,116596,1,0 R,0,116585,116596,0
Sprite,Background,Centre,"sb/b.png",320,240 F,0,115053,115064,0,1 R,0,115053,115064,0 MX,0,115053,115096,418.4012,431.9891 MY,0,115053,115139,349.9415,347.4771 C,0,115053,115149,144,130,117,63,56,51 V,0,115053,115224,0,0,2.1036,2.1036 R,2,115053,115225,1.3292,3.2941 MX,0,115096,115182,431.9891,461.9133 MY,0,115139,115192,347.4771,346.9524 C,0,115149,115171,63,56,51,44,40,36 C,0,115171,115192,44,40,36,27,24,21 MX,0,115182,115267,461.9133,493.022 C,0,115192,115224,27,24,21,0,0,0 MY,0,115192,115353,346.9524,349.2359 C,0,115224,115310,0,0,0,8,8,7 V,0,115224,115707,2.1036,2.1036,1.565,1.565 R,2,115225,116596,3.2941,1.3292 MX,0,115267,115353,493.022,523.0353 C,0,115310,115396,8,8,7,18,16,14 MX,0,115353,115439,523.0353,550.2632 MY,0,115353,115514,349.2359,355.7068 C,0,115396,116596,18,16,14,144,130,117 MX,0,115439,115482,550.2632,562.4322 MX,0,115482,115524,562.4322,573.4768 MY,0,115514,115953,355.7068,378.9547 MX,0,115524,115567,573.4768,583.3088 MX,0,115567,115610,583.3088,591.866 MX,0,115610,115653,591.866,599.1127 MX,0,115653,115696,599.1127,605.0398 MX,0,115696,115739,605.0398,609.6642 V,0,115707,115910,1.565,1.565,1.2956,1.2956 MX,0,115739,115782,609.6642,613.0278 MX,0,115782,115857,613.0278,616.0864 MX,0,115857,115974,616.0864,614.7305 V,0,115910,116253,1.2956,1.2956,0.6961,0.6961 MY,0,115953,116124,378.9547,385.5812 MX,0,115974,116071,614.7305,609.5381 MX,0,116071,116414,609.5381,582.8052 MY,0,116124,116328,385.5812,390.5428 V,0,116253,116596,0.6961,0.6961,0,0 MY,0,116328,116596,390.5428,393.1532 MX,0,116414,116499,582.8052,577.8565 MX,0,116499,116596,577.8565,574.1401 F,0,116585,116596,1,0 R,0,116585,116596,0
Sprite,Background,Centre,"sb/b.png",320,240 F,0,115053,115064,0,1 R,0,115053,115064,0 MY,0,115053,115192,356.6441,357.1798 C,0,115053,115224,189,172,162,0,0,0 MX,0,115053,115224,485.7504,507.8358 V,0,115053,115224,0,0,1.9746,1.9746 R,2,115053,115225,2.3527,4.4678 MY,0,115192,115460,357.1798,362.2459 MX,0,115224,115310,507.8358,517.5045 V,0,115224,115707,1.9746,1.9746,1.3687,1.3687 C,0,115224,116596,0,0,0,189,172,162 R,2,115225,116596,4.4678,2.3527 MX,0,115310,115396,517.5045,525.1002 MX,0,115396,115492,525.1002,530.6633 MY,0,115460,115653,362.2459,366.7893 MX,0,115492,115567,530.6633,532.7291 MX,0,115567,115717,532.7291,531.5062 MY,0,115653,115921,366.7893,371.6732 V,0,115707,116596,1.3687,1.3687,0,0 MX,0,115717,115846,531.5062,526.1269 MX,0,115846,116189,526.1269,504.4858 MY,0,115921,116124,371.6732,373.8649 MY,0,116124,116596,373.8649,376.0496 MX,0,116189,116360,504.4858,494.8207 MX,0,116360,116499,494.8207,488.8925 MX,0,116499,116596,488.8925,485.9596 F,0,116585,116596,1,0 R,0,116585,116596,0
Sprite,Background,Centre,"sb/b.png",320,240 F,0,115053,115064,0,1 R,0,115053,115064,0 MX,0,115053,115074,409.1439,401.1785 V,0,115053,115139,0,0,1.4002,1.4002 C,0,115053,115224,189,172,162,0,0,0 MY,0,115053,115224,383.4584,367.3951 R,2,115053,115225,3.4015,2.5868 MX,0,115074,115096,401.1785,394.3413 MX,0,115096,115117,394.3413,388.6046 MX,0,115117,115139,388.6046,383.9282 MX,0,115139,115182,383.9282,377.55 V,0,115139,115224,1.4002,1.4002,2.652,2.652 MX,0,115182,115203,377.55,375.7307 MX,0,115203,115235,375.7307,374.5363 MY,0,115224,115310,367.3951,361.0051 V,0,115224,115407,2.652,2.652,2.1016,2.1016 C,0,115224,116596,0,0,0,189,172,162 R,2,115225,116596,2.5868,3.4015 MX,0,115235,115289,374.5363,376.103 MX,0,115289,115332,376.103,380.0004 MY,0,115310,115396,361.0051,356.1383 MX,0,115332,115374,380.0004,385.753 MX,0,115374,115417,385.753,392.9547 MY,0,115396,115471,356.1383,353.0924 V,0,115407,115578,2.1016,2.1016,1.7212,1.7212 MX,0,115417,115503,392.9547,410.3329 MY,0,115471,115567,353.0924,350.6518 MX,0,115503,115760,410.3329,469.211 MY,0,115567,115685,350.6518,349.5157 V,0,115578,116596,1.7212,1.7212,0,0 MY,0,115685,115964,349.5157,351.9066 MX,0,115760,115846,469.211,487.1041 MX,0,115846,115932,487.1041,503.0345 MX,0,115932,116017,503.0345,516.7095 MY,0,115964,116382,351.9066,358.5949 MX,0,116017,116103,516.7095,528.0029 MX,0,116103,116189,528.0029,536.9114 MX,0,116189,116274,536.9114,543.5151 MX,0,116274,116382,543.5151,548.7217 MX,0,116382,116457,548.7217,550.4832 MY,0,116382,116596,358.5949,360.1356 MX,0,116457,116596,550.4832,549.9181 F,0,116585,116596,1,0 R,0,116585,116596,0
Sprite,Background,Centre,"sb/b.png",320,240 F,0,115053,115064,0,1 R,0,115053,115064,0 MX,0,115053,115139,484.6991,471.9705 C,0,115053,115224,165,158,139,0,0,0 V,0,115053,115224,0,0,2.3292,2.3292 R,2,115053,115225,3.1181,2.6758 MY,0,115053,115407,391.9784,383.0255 MX,0,115139,115182,471.9705,467.1478 MX,0,115182,115224,467.1478,463.3746 MX,0,115224,115267,463.3746,460.6138 V,0,115224,115567,2.3292,2.3292,1.6628,1.6628 C,0,115224,116596,0,0,0,165,158,139 R,2,115225,116596,2.6758,3.1181 MX,0,115267,115353,460.6138,457.8411 MX,0,115353,115482,457.8411,459.0902 MY,0,115407,115557,383.0255,380.7006 MX,0,115482,115621,459.0902,464.8813 MY,0,115557,115760,380.7006,379.6174 V,0,115567,116596,1.6628,1.6628,0,0 MX,0,115621,115878,464.8813,478.4283 MY,0,115760,116596,379.6174,383.6642 MX,0,115878,116039,478.4283,484.972 MX,0,116039,116124,484.972,487.3808 MX,0,116124,116296,487.3808,489.8175 MX,0,116296,116510,489.8175,488.699 MX,0,116510,116596,488.699,487.0706 F,0,116585,116596,1,0 R,0,116585,116596,0
Sprite,Background,Centre,"sb/b.png",320,240 F,0,115053,115064,0,1 R,0,115053,115064,0 MX,0,115053,115096,548.131,563.368 MY,0,115053,115139,367.7658,373.0722 V,0,115053,115139,0,0,1.1054,1.1054 C,0,115053,115224,189,172,162,0,0,0 R,2,115053,115225,1.3592,1.4996 MX,0,115096,115139,563.368,577.0961 MX,0,115139,115182,577.0961,589.0344 V,0,115139,115224,1.1054,1.1054,2.3059,2.3059 MY,0,115139,115482,373.0722,400.725 MX,0,115182,115224,589.0344,598.9437 MX,0,115224,115267,598.9437,606.6328 V,0,115224,115428,2.3059,2.3059,2.1737,2.1737 C,0,115224,116596,0,0,0,189,172,162 R,2,115225,116596,1.4996,1.3592 MX,0,115267,115310,606.6328,611.9669 MX,0,115310,115364,611.9669,615.2206 MX,0,115364,115428,615.2206,614.156 MX,0,115428,115471,614.156,610.5878 V,0,115428,115642,2.1737,2.1737,1.9065,1.9065 MX,0,115471,115514,610.5878,604.9377 MY,0,115482,115567,400.725,406.2468 MX,0,115514,115557,604.9377,597.4439 MX,0,115557,115599,597.4439,588.3857 MY,0,115567,115685,406.2468,411.5634 MX,0,115599,115685,588.3857,566.8074 V,0,115642,116596,1.9065,1.9065,0,0 MY,0,115685,115824,411.5634,414.4616 MX,0,115685,115857,566.8074,518.1927 MY,0,115824,116092,414.4616,413.3212 MX,0,115857,115942,518.1927,495.0241 MX,0,115942,116028,495.0241,474.2255 MX,0,116028,116114,474.2255,456.3162 MY,0,116092,116382,413.3212,410.0006 MX,0,116114,116199,456.3162,441.4216 MX,0,116199,116285,441.4216,429.426 MX,0,116285,116371,429.426,420.1004 MX,0,116371,116457,420.1004,413.1968 MY,0,116382,116596,410.0006,409.4235 MX,0,116457,116553,413.1968,408.0729 MX,0,116553,116596,408.0729,406.647 F,0,116585,116596,1,0 R,0,116585,116596,0
Sprite,Background,Centre,"sb/b.png",320,240 F,0,115053,115064,0,1 R,0,115053,115064,0 MX,0,115053,115074,640.4631,644.1622 V,0,115053,115139,0,0,1.3046,1.3046 C,0,115053,115224,189,172,162,0,0,0 MY,0,115053,115224,367.5572,385.7723 R,2,115053,115225,2.3441,6.1758 MX,0,115074,115096,644.1622,646.8464 MX,0,115096,115117,646.8464,648.4854 MX,0,115117,115139,648.4854,649.0582 MX,0,115139,115171,649.0582,647.8983 V,0,115139,115224,1.3046,1.3046,2.7565,2.7565 MX,0,115171,115192,647.8983,645.7839 MX,0,115192,115214,645.7839,642.6163 MX,0,115214,115257,642.6163,633.2539 MY,0,115224,115310,385.7723,392.8619 V,0,115224,115364,2.7565,2.7565,2.6295,2.6295 C,0,115224,116596,0,0,0,189,172,162 R,2,115225,116596,6.1758,2.3441 MX,0,115257,115299,633.2539,620.1904 MX,0,115299,115342,620.1904,603.9706 MY,0,115310,115353,392.8619,395.503 MX,0,115342,115385,603.9706,585.2633 MY,0,115353,115417,395.503,398.187 V,0,115364,115535,2.6295,2.6295,2.2995,2.2995 MX,0,115385,115471,585.2633,543.3606 MY,0,115417,115471,398.187,399.2506 MX,0,115471,115557,543.3606,500.2505 MY,0,115471,115599,399.2506,398.05 V,0,115535,115878,2.2995,2.2995,1.4321,1.4321 MX,0,115557,115599,500.2505,479.7352 MX,0,115599,115642,479.7352,460.4783 MY,0,115599,115771,398.05,391.3971 MX,0,115642,115685,460.4783,442.7493 MX,0,115685,115728,442.7493,426.7051 MX,0,115728,115771,426.7051,412.4072 MX,0,115771,115814,412.4072,399.8404 MY,0,115771,116028,391.3971,379.8658 MX,0,115814,115857,399.8404,388.9329 MX,0,115857,115899,388.9329,379.5732 V,0,115878,116221,1.4321,1.4321,0.6851,0.6851 MX,0,115899,115942,379.5732,371.6252 MX,0,115942,115985,371.6252,364.9399 MX,0,115985,116071,364.9399,354.7471 MY,0,116028,116199,379.8658,374.3068 MX,0,116071,116157,354.7471,347.8262 MX,0,116157,116253,347.8262,342.6888 MY,0,116199,116307,374.3068,371.9723 V,0,116221,116596,0.6851,0.6851,0,0 MX,0,116253,116424,342.6888,337.1942 MY,0,116307,116596,371.9723,369.8111 MX,0,116424,116596,337.1942,333.1065 F,0,116585,116596,1,0 R,0,116585,116596,0
Sprite,Background,Centre,"sb/b.png",320,240 R,0,115053,115064,0 F,0,115053,115224,0,0.9 MX,0,115053,115224,798.7681,504.1755 MY,0,115053,117774,383.5597,391.3482 V,0,115053,126399,36.8175,0.2209,37.1793,0.2231 C,0,115064,131510,25,25,25 MX,0,115224,118567,504.1755,503.1711 MY,0,117774,121257,391.3482,399.5363 MX,0,118567,121814,503.1711,499.1268 MY,0,121257,123442,399.5363,403.6053 MX,0,121814,125457,499.1268,490.9286 MY,0,123442,126303,403.6053,407.6582 MX,0,125457,128060,490.9286,482.6786 MY,0,126303,128371,407.6582,409.6759 V,0,126399,131360,37.1793,0.2231,37.1115,0.2227 MX,0,128060,131296,482.6786,469.6503 MY,0,128371,131221,409.6759,411.1841 F,0,130824,131135,0.9,0.7144 F,0,131135,131371,0.7144,0.327 MY,0,131221,131403,411.1841,409.8733 MX,0,131296,131339,469.6503,468.2058 MX,0,131339,131424,468.2058,319.1525 V,0,131360,131510,37.1115,0.2227,36.473,0.2188 F,0,131371,131510,0.327,0 MY,0,131403,131510,409.8733,407.6949 MX,0,131424,131510,319.1525,174.2472 R,0,131499,131510,0
Sprite,Background,Centre,"sb/b.png",320,240 R,0,115053,115064,0 F,0,115053,115224,0,0.9 MX,0,115053,115224,504.2097,293.7951 V,0,115053,117774,26.308,0.1578,26.4291,0.1586 MY,0,115053,127021,369.9354,402.077 C,0,115064,131510,25,25,25 MX,0,115224,119307,293.7951,297.8418 V,0,117774,120485,26.4291,0.1586,26.7537,0.1605 MX,0,119307,124128,297.8418,305.9878 V,0,120485,123635,26.7537,0.1605,27.4075,0.1644 V,0,123635,125864,27.4075,0.1644,28.0722,0.1684 MX,0,124128,127599,305.9878,314.1887 V,0,125864,127653,28.0722,0.1684,28.7449,0.1725 MY,0,127021,131285,402.077,416.0647 MX,0,127599,131189,314.1887,325.0322 V,0,127653,129153,28.7449,0.1725,29.4174,0.1765 V,0,129153,131296,29.4174,0.1765,30.5765,0.1835 F,0,130824,131135,0.9,0.7144 F,0,131135,131371,0.7144,0.327 MX,0,131189,131339,325.0322,324.5258 MY,0,131285,131510,416.0647,413.8558 V,0,131296,131435,30.5765,0.1835,30.377,0.1823 MX,0,131339,131424,324.5258,203.2877 F,0,131371,131510,0.327,0 MX,0,131424,131510,203.2877,84.6244 V,0,131435,131510,30.377,0.1823,30.2052,0.1812 R,0,131499,131510,0
Sprite,Background,Centre,"sb/b.png",320,240 R,0,115053,115064,0 F,0,115053,115214,0,0.4219 MX,0,115053,115224,918.7882,550.2641 MY,0,115053,117528,363.3817,371.1911 V,0,115053,130503,46.0471,0.2763,46.8524,0.2811 C,0,115064,131510,25,25,25 F,0,115214,131092,0.4219,0.381 MX,0,115224,118374,550.2641,551.2742 MY,0,117528,120539,371.1911,379.4001 MX,0,118374,121385,551.2742,555.3397 MY,0,120539,124310,379.4001,387.5924 MX,0,121385,124749,555.3397,563.5171 MY,0,124310,126764,387.5924,391.6783 MX,0,124749,127182,563.5171,571.8474 MY,0,126764,130739,391.6783,396.2353 MX,0,127182,129174,571.8474,580.2031 MX,0,129174,131317,580.2031,590.7408 V,0,130503,131360,46.8524,0.2811,46.742,0.2805 MY,0,130739,131403,396.2353,395.1807 F,0,131092,131510,0.381,0 MX,0,131317,131339,590.7408,589.2646 MX,0,131339,131382,589.2646,494.7025 V,0,131360,131510,46.742,0.2805,45.7417,0.2745 MX,0,131382,131424,494.7025,401.3051 MY,0,131403,131510,395.1807,392.7196 MX,0,131424,131467,401.3051,309.0602 MX,0,131467,131510,309.0602,219.4643 R,0,131499,131510,0
Sprite,Background,Centre,"sb/b.png",320,240 F,0,131338,131349,0,1 R,0,131338,131349,0 MX,0,131338,131370,331.2059,327.9158 MY,0,131338,131424,371.3224,360.2512 V,0,131338,131424,0,0,1.3326,1.3326 C,0,131338,131509,63,54,45,0,0,0 R,2,131338,131510,0.2587,1.3497 MX,0,131370,131424,327.9158,328.9542 MX,0,131424,131467,328.9542,334.5169 MY,0,131424,131509,360.2512,351.7753 V,0,131424,131509,1.3326,1.3326,2.4946,2.4946 MX,0,131467,131509,334.5169,343.3112 MX,0,131509,131552,343.3112,354.575 MY,0,131509,131595,351.7753,345.829 V,0,131509,131595,2.4946,2.4946,2.2256,2.2256 R,2,131510,132881,1.3497,0.2587 C,0,131531,131542,0,0,0,1,1,1 C,0,131552,131563,1,1,1,2,2,1 MX,0,131552,131595,354.575,367.6729 C,0,131563,131649,2,2,1,6,5,4 MY,0,131595,131649,345.829,343.2594 MX,0,131595,131681,367.6729,397.3732 V,0,131595,131745,2.2256,2.2256,1.8747,1.8747 MY,0,131649,131788,343.2594,339.9771 C,0,131659,131670,6,5,4,7,6,5 C,0,131681,131692,7,6,5,8,7,5 MX,0,131681,131852,397.3732,461.2679 C,0,131692,131799,8,7,5,13,11,9 V,0,131745,132431,1.8747,1.8747,0.831,0.831 MY,0,131788,131970,339.9771,341.1318 C,0,131809,131820,13,11,9,14,12,10 C,0,131831,131842,14,12,10,15,13,10 C,0,131842,131949,15,13,10,20,17,14 MX,0,131852,131938,461.2679,491.934 MX,0,131938,132024,491.934,520.2927 C,0,131959,131970,20,17,14,21,18,15 MY,0,131970,132163,341.1318,346.2998 C,0,131981,131992,21,18,15,22,18,15 C,0,131992,132077,22,18,15,26,22,18 MX,0,132024,132109,520.2927,545.6882 C,0,132088,132099,26,22,18,27,23,19 C,0,132109,132120,27,23,19,28,24,20 MX,0,132109,132195,545.6882,567.7183 C,0,132131,132142,28,24,20,29,24,20 C,0,132142,132195,29,24,20,31,27,22 MY,0,132163,132506,346.2998,357.7192 MX,0,132195,132281,567.7183,586.1972 C,0,132206,132259,31,27,22,34,29,24 C,0,132270,132281,34,29,24,35,30,25 MX,0,132281,132367,586.1972,601.127 C,0,132292,132302,35,30,25,36,31,26 C,0,132313,132324,36,31,26,37,32,26 C,0,132324,132409,37,32,26,41,35,29 MX,0,132367,132452,601.127,612.6637 C,0,132420,132431,41,35,29,42,36,30 V,0,132431,132881,0.831,0.831,0,0 C,0,132442,132452,42,36,30,43,37,30 MX,0,132452,132538,612.6637,621.0752 C,0,132452,132559,43,37,30,48,41,34 MY,0,132506,132720,357.7192,362.4968 MX,0,132538,132624,621.0752,626.6894 C,0,132570,132581,48,41,34,49,42,35 C,0,132592,132602,49,42,35,50,43,35 C,0,132602,132709,50,43,35,55,47,39 MX,0,132624,132699,626.6894,629.5706 MX,0,132699,132752,629.5706,630.5851 C,0,132720,132731,55,47,39,56,48,40 MY,0,132720,132881,362.4968,363.8582 C,0,132742,132752,56,48,40,57,48,40 C,0,132752,132838,57,48,40,61,52,43 MX,0,132752,132881,630.5851,629.8204 C,0,132849,132859,61,52,43,62,53,44 F,0,132870,132881,1,0 R,0,132870,132881,0 C,0,132870,132881,62,53,44,63,54,45
Sprite,Background,Centre,"sb/b.png",320,240 F,0,131338,131349,0,1 R,0,131338,131349,0 MX,0,131338,131381,535.3461,552.5701 MY,0,131338,131424,362.7775,367.3909 V,0,131338,131424,0,0,0.9737,0.9737 C,0,131338,131434,144,130,117,63,56,51 R,2,131338,131510,0.6717,1.2276 MX,0,131381,131424,552.5701,568.5607 MX,0,131424,131467,568.5607,583.0128 V,0,131424,131509,0.9737,0.9737,2.0296,2.0296 MY,0,131424,131595,367.3909,380.6907 C,0,131434,131456,63,56,51,44,40,36 C,0,131456,131477,44,40,36,27,24,21 MX,0,131467,131509,583.0128,595.6539 C,0,131477,131509,27,24,21,0,0,0 MX,0,131509,131552,595.6539,606.2501 C,0,131509,131595,0,0,0,8,8,7 V,0,131509,131745,2.0296,2.0296,1.9038,1.9038 R,2,131510,132881,1.2276,0.6717 MX,0,131552,131595,606.2501,614.6123 MX,0,131595,131638,614.6123,620.6043 C,0,131595,131681,8,8,7,18,16,14 MY,0,131595,131767,380.6907,395.425 MX,0,131638,131681,620.6043,624.15 MX,0,131681,131713,624.15,625.1953 C,0,131681,132881,18,16,14,144,130,117 MX,0,131713,131767,625.1953,623.9312 V,0,131745,131992,1.9038,1.9038,1.6273,1.6273 MX,0,131767,131809,623.9312,620.351 MY,0,131767,131852,395.425,401.8378 MX,0,131809,131852,620.351,614.6868 MX,0,131852,131895,614.6868,607.178 MY,0,131852,131938,401.8378,407.032 MX,0,131895,131938,607.178,598.1041 MX,0,131938,132024,598.1041,576.4846 MY,0,131938,132077,407.032,412.4683 V,0,131992,132881,1.6273,1.6273,0,0 MX,0,132024,132195,576.4846,527.6838 MY,0,132077,132174,412.4683,414.2001 MY,0,132174,132495,414.2001,413.0942 MX,0,132195,132281,527.6838,504.361 MX,0,132281,132367,504.361,483.3954 MX,0,132367,132452,483.3954,465.3521 MX,0,132452,132538,465.3521,450.4152 MY,0,132495,132763,413.0942,411.0291 MX,0,132538,132624,450.4152,438.5355 MX,0,132624,132709,438.5355,429.5545 MX,0,132709,132795,429.5545,423.2961 MY,0,132763,132881,411.0291,410.9488 MX,0,132795,132881,423.2961,419.627 F,0,132870,132881,1,0 R,0,132870,132881,0
Sprite,Background,Centre,"sb/b.png",320,240 F,0,131338,131349,0,1 R,0,131338,131349,0 MX,0,131338,131370,578.4582,579.4822 V,0,131338,131424,0,0,1.1986,1.1986 C,0,131338,131434,144,130,117,63,56,51 MY,0,131338,131509,385.6085,395.9067 R,2,131338,131510,6.2202,0.3316 MX,0,131370,131424,579.4822,578.3296 MX,0,131424,131467,578.3296,574.9343 V,0,131424,131509,1.1986,1.1986,2.4638,2.4638 C,0,131434,131456,63,56,51,44,40,36 C,0,131456,131477,44,40,36,27,24,21 MX,0,131467,131509,574.9343,569.5224 C,0,131477,131509,27,24,21,0,0,0 MX,0,131509,131552,569.5224,562.3345 MY,0,131509,131584,395.9067,399.1042 C,0,131509,131595,0,0,0,8,8,7 V,0,131509,131702,2.4638,2.4638,2.187,2.187 R,2,131510,132881,0.3316,6.2202 MX,0,131552,131595,562.3345,553.6633 MY,0,131584,131724,399.1042,402.1218 C,0,131595,131681,8,8,7,18,16,14 MX,0,131595,131681,553.6633,533.1876 MX,0,131681,131852,533.1876,488.6551 C,0,131681,132881,18,16,14,144,130,117 V,0,131702,132388,2.187,2.187,0.8454,0.8454 MY,0,131724,131906,402.1218,401.0438 MX,0,131852,131938,488.6551,468.5643 MY,0,131906,132292,401.0438,391.8823 MX,0,131938,132024,468.5643,451.3845 MX,0,132024,132109,451.3845,437.3989 MX,0,132109,132195,437.3989,426.4528 MX,0,132195,132281,426.4528,418.1401 MX,0,132281,132367,418.1401,411.9492 MY,0,132292,132592,391.8823,386.963 MX,0,132367,132452,411.9492,407.3601 V,0,132388,132881,0.8454,0.8454,0,0 MX,0,132452,132624,407.3601,401.175 MY,0,132592,132881,386.963,385.8069 MX,0,132624,132881,401.175,394.7394 F,0,132870,132881,1,0 R,0,132870,132881,0
Sprite,Background,Centre,"sb/b.png",320,240 F,0,131338,131349,0,1 R,0,131338,131349,0 MX,0,131338,131381,417.3688,423.1833 MY,0,131338,131445,375.8292,370.6787 C,0,131338,131509,189,172,162,0,0,0 V,0,131338,131509,0,0,2.0971,2.0971 R,2,131338,131510,1.5403,1.2409 MX,0,131381,131424,423.1833,430.7107 MX,0,131424,131509,430.7107,449.3134 MY,0,131445,131563,370.6787,368.0999 MX,0,131509,131681,449.3134,491.9867 V,0,131509,131681,2.0971,2.0971,1.8229,1.8229 C,0,131509,132881,0,0,0,189,172,162 R,2,131510,132881,1.2409,1.5403 MY,0,131563,131745,368.0999,369.2963 MX,0,131681,131767,491.9867,512.438 V,0,131681,132131,1.8229,1.8229,1.2453,1.2453 MY,0,131745,131927,369.2963,374.5912 MX,0,131767,131852,512.438,530.7083 MX,0,131852,131938,530.7083,546.1024 MY,0,131927,132270,374.5912,387.5761 MX,0,131938,132024,546.1024,558.2615 MX,0,132024,132109,558.2615,567.1229 MX,0,132109,132195,567.1229,572.8724 V,0,132131,132474,1.2453,1.2453,0.7219,0.7219 MX,0,132195,132302,572.8724,576.2714 MY,0,132270,132442,387.5761,392.8392 MX,0,132302,132495,576.2714,574.8887 MY,0,132442,132688,392.8392,397.5928 V,0,132474,132881,0.7219,0.7219,0,0 MX,0,132495,132881,574.8887,563.3114 MY,0,132688,132881,397.5928,398.9784 F,0,132870,132881,1,0 R,0,132870,132881,0
Sprite,Background,Centre,"sb/b.png",320,240 F,0,131338,131349,0,1 R,0,131338,131349,0 MX,0,131338,131381,647.4464,659.3178 V,0,131338,131424,0,0,1.3645,1.3645 C,0,131338,131509,189,172,162,0,0,0 MY,0,131338,131509,371.5832,393.4637 R,2,131338,131510,1.5841,5.5041 MX,0,131381,131402,659.3178,663.7239 MX,0,131402,131424,663.7239,667.0456 MX,0,131424,131456,667.0456,669.9124 V,0,131424,131509,1.3645,1.3645,2.9168,2.9168 MX,0,131456,131509,669.9124,668.861 MX,0,131509,131531,668.861,666.3847 MY,0,131509,131595,393.4637,403.2228 V,0,131509,131649,2.9168,2.9168,2.8451,2.8451 C,0,131509,132881,0,0,0,189,172,162 R,2,131510,132881,5.5041,1.5841 MX,0,131531,131552,666.3847,662.7544 MX,0,131552,131574,662.7544,658.0019 MX,0,131574,131595,658.0019,652.1724 MX,0,131595,131638,652.1724,637.5247 MY,0,131595,131681,403.2228,410.5608 MX,0,131638,131681,637.5247,619.4064 V,0,131649,131745,2.8451,2.8451,2.704,2.704 MX,0,131681,131724,619.4064,598.5536 MY,0,131681,131724,410.5608,413.0807 MX,0,131724,131767,598.5536,575.7827 MY,0,131724,131809,413.0807,415.7 V,0,131745,131992,2.704,2.704,2.0931,2.0931 MX,0,131767,131852,575.7827,527.7696 MY,0,131809,131927,415.7,414.6441 MX,0,131852,131938,527.7696,481.2014 MY,0,131927,132067,414.6441,408.8948 MX,0,131938,131981,481.2014,459.7843 MX,0,131981,132024,459.7843,440.0455 V,0,131992,132163,2.0931,2.0931,1.6079,1.6079 MX,0,132024,132067,440.0455,422.1517 MX,0,132067,132109,422.1517,406.1649 MY,0,132067,132324,408.8948,395.3845 MX,0,132109,132152,406.1649,392.0645 MX,0,132152,132195,392.0645,379.7688 V,0,132163,132431,1.6079,1.6079,0.9313,0.9313 MX,0,132195,132238,379.7688,369.1544 MX,0,132238,132281,369.1544,360.0725 MX,0,132281,132324,360.0725,352.3614 MX,0,132324,132367,352.3614,345.8565 MY,0,132324,132484,395.3845,388.8237 MX,0,132367,132452,345.8565,335.8311 V,0,132431,132881,0.9313,0.9313,0,0 MX,0,132452,132538,335.8311,328.83 MY,0,132484,132688,388.8237,383.8779 MX,0,132538,132624,328.83,323.8926 MX,0,132624,132784,323.8926,317.8029 MY,0,132688,132881,383.8779,382.6227 MX,0,132784,132881,317.8029,315.1847 F,0,132870,132881,1,0 R,0,132870,132881,0
Sprite,Background,Centre,"sb/b.png",320,240 F,0,131338,131349,0,1 R,0,131338,131349,0 MX,0,131338,131381,340.3128,348.891 MY,0,131338,131424,357.5909,349.7218 V,0,131338,131424,0,0,1.12,1.12 C,0,131338,131509,165,158,139,0,0,0 R,2,131338,131510,4.5182,1.4127 MX,0,131381,131424,348.891,360.5398 MX,0,131424,131467,360.5398,374.49 MY,0,131424,131509,349.7218,344.5774 V,0,131424,131509,1.12,1.12,2.1445,2.1445 MX,0,131467,131509,374.49,390.1067 MX,0,131509,131595,390.1067,424.3599 MY,0,131509,131606,344.5774,341.5889 V,0,131509,131681,2.1445,2.1445,1.8147,1.8147 C,0,131509,132881,0,0,0,165,158,139 R,2,131510,132881,1.4127,4.5182 MX,0,131595,131767,424.3599,495.4643 MY,0,131606,131649,341.5889,341.0719 MY,0,131649,131788,341.0719,342.1658 V,0,131681,132152,1.8147,1.8147,1.2467,1.2467 MX,0,131767,131852,495.4643,528.7124 MY,0,131788,131884,342.1658,344.8701 MX,0,131852,131938,528.7124,558.8654 MY,0,131884,132131,344.8701,355.9265 MX,0,131938,131981,558.8654,572.5389 MX,0,131981,132024,572.5389,585.1845 MX,0,132024,132067,585.1845,596.7554 MX,0,132067,132109,596.7554,607.2225 MX,0,132109,132152,607.2225,616.5742 MY,0,132131,132420,355.9265,370.0471 MX,0,132152,132195,616.5742,624.8165 V,0,132152,132517,1.2467,1.2467,0.7001,0.7001 MX,0,132195,132238,624.8165,631.972 MX,0,132238,132324,631.972,643.189 MX,0,132324,132409,643.189,650.6868 MX,0,132409,132452,650.6868,653.2294 MY,0,132420,132592,370.0471,376.2453 MX,0,132452,132527,653.2294,656.0671 V,0,132517,132881,0.7001,0.7001,0,0 MX,0,132527,132602,656.0671,657.251 MY,0,132592,132688,376.2453,378.6371 MX,0,132602,132774,657.251,655.9756 MY,0,132688,132881,378.6371,380.8133 MX,0,132774,132881,655.9756,653.6227 F,0,132870,132881,1,0 R,0,132870,132881,0
Sprite,Background,Centre,"sb/b.png",320,240 F,0,131338,131349,0,1 R,0,131338,131349,0 MX,0,131338,131424,514.4261,536.2526 V,0,131338,131424,0,0,1.2145,1.2145 MY,0,131338,131499,361.591,367.1647 C,0,131338,131509,63,54,45,0,0,0 R,2,131338,131510,4.5844,5.9705 MX,0,131424,131467,536.2526,545.8238 V,0,131424,131509,1.2145,1.2145,2.4883,2.4883 MX,0,131467,131509,545.8238,554.2394 MY,0,131499,131917,367.1647,386.9935 MX,0,131509,131552,554.2394,561.3513 V,0,131509,131767,2.4883,2.4883,2.1984,2.1984 R,2,131510,132881,5.9705,4.5844 C,0,131531,131542,0,0,0,1,1,1 C,0,131552,131563,1,1,1,2,2,1 MX,0,131552,131595,561.3513,567.0509 C,0,131563,131649,2,2,1,6,5,4 MX,0,131595,131638,567.0509,571.2703 MX,0,131638,131681,571.2703,573.9821 C,0,131659,131670,6,5,4,7,6,5 C,0,131681,131692,7,6,5,8,7,5 MX,0,131681,131734,573.9821,575.2754 C,0,131692,131799,8,7,5,13,11,9 MX,0,131734,131820,575.2754,572.7941 V,0,131767,131938,2.1984,2.1984,1.9421,1.9421 C,0,131809,131820,13,11,9,14,12,10 MX,0,131820,131863,572.7941,569.678 C,0,131831,131842,14,12,10,15,13,10 C,0,131842,131949,15,13,10,20,17,14 MX,0,131863,131949,569.678,560.4081 MY,0,131917,132109,386.9935,392.0865 V,0,131938,132281,1.9421,1.9421,1.2774,1.2774 MX,0,131949,132034,560.4081,548.1807 C,0,131959,131970,20,17,14,21,18,15 C,0,131981,131992,21,18,15,22,18,15 C,0,131992,132077,22,18,15,26,22,18 MX,0,132034,132292,548.1807,506.0604 C,0,132088,132099,26,22,18,27,23,19 C,0,132109,132120,27,23,19,28,24,20 MY,0,132109,132249,392.0865,393.6853 C,0,132131,132142,28,24,20,29,24,20 C,0,132142,132195,29,24,20,31,27,22 C,0,132206,132259,31,27,22,34,29,24 MY,0,132249,132881,393.6853,393.7354 C,0,132270,132281,34,29,24,35,30,25 V,0,132281,132881,1.2774,1.2774,0,0 C,0,132292,132302,35,30,25,36,31,26 MX,0,132292,132377,506.0604,493.2402 C,0,132313,132324,36,31,26,37,32,26 C,0,132324,132409,37,32,26,41,35,29 MX,0,132377,132463,493.2402,481.8946 C,0,132420,132431,41,35,29,42,36,30 C,0,132442,132452,42,36,30,43,37,30 C,0,132452,132559,43,37,30,48,41,34 MX,0,132463,132549,481.8946,472.2192 MX,0,132549,132634,472.2192,464.2779 C,0,132570,132581,48,41,34,49,42,35 C,0,132592,132602,49,42,35,50,43,35 C,0,132602,132709,50,43,35,55,47,39 MX,0,132634,132720,464.2779,458.0601 C,0,132720,132731,55,47,39,56,48,40 MX,0,132720,132817,458.0601,453.0757 C,0,132742,132752,56,48,40,57,48,40 C,0,132752,132838,57,48,40,61,52,43 MX,0,132817,132881,453.0757,450.9107 C,0,132849,132859,61,52,43,62,53,44 F,0,132870,132881,1,0 R,0,132870,132881,0 C,0,132870,132881,62,53,44,63,54,45
Sprite,Background,Centre,"sb/b.png",320,240 F,0,131338,131349,0,1 R,0,131338,131349,0 MX,0,131338,131424,514.5255,498.0135 C,0,131338,131509,63,54,45,0,0,0 V,0,131338,131509,0,0,2.221,2.221 R,2,131338,131510,1.5441,5.0307 MY,0,131338,131542,366.7898,364.9875 MX,0,131424,131509,498.0135,482.9345 MX,0,131509,131595,482.9345,470.5527 V,0,131509,131852,2.221,2.221,1.5817,1.5817 R,2,131510,132881,5.0307,1.5441 C,0,131531,131542,0,0,0,1,1,1 MY,0,131542,131938,364.9875,357.7981 C,0,131552,131563,1,1,1,2,2,1 C,0,131563,131649,2,2,1,6,5,4 MX,0,131595,131681,470.5527,461.3948 C,0,131659,131670,6,5,4,7,6,5 C,0,131681,131692,7,6,5,8,7,5 MX,0,131681,131767,461.3948,455.4117 C,0,131692,131799,8,7,5,13,11,9 MX,0,131767,131831,455.4117,452.7702 C,0,131809,131820,13,11,9,14,12,10 C,0,131831,131842,14,12,10,15,13,10 MX,0,131831,131884,452.7702,451.5863 C,0,131842,131949,15,13,10,20,17,14 V,0,131852,132881,1.5817,1.5817,0,0 MX,0,131884,132088,451.5863,452.8056 MY,0,131938,132174,357.7981,355.5658 C,0,131959,131970,20,17,14,21,18,15 C,0,131981,131992,21,18,15,22,18,15 C,0,131992,132077,22,18,15,26,22,18 C,0,132088,132099,26,22,18,27,23,19 MX,0,132088,132281,452.8056,457.524 C,0,132109,132120,27,23,19,28,24,20 C,0,132131,132142,28,24,20,29,24,20 C,0,132142,132195,29,24,20,31,27,22 MY,0,132174,132313,355.5658,355.0516 C,0,132206,132259,31,27,22,34,29,24 C,0,132270,132281,34,29,24,35,30,25 MX,0,132281,132570,457.524,462.6296 C,0,132292,132302,35,30,25,36,31,26 C,0,132313,132324,36,31,26,37,32,26 MY,0,132313,132881,355.0516,355.5708 C,0,132324,132409,37,32,26,41,35,29 C,0,132420,132431,41,35,29,42,36,30 C,0,132442,132452,42,36,30,43,37,30 C,0,132452,132559,43,37,30,48,41,34 C,0,132570,132581,48,41,34,49,42,35 MX,0,132570,132827,462.6296,461.3757 C,0,132592,132602,49,42,35,50,43,35 C,0,132602,132709,50,43,35,55,47,39 C,0,132720,132731,55,47,39,56,48,40 C,0,132742,132752,56,48,40,57,48,40 C,0,132752,132838,57,48,40,61,52,43 MX,0,132827,132881,461.3757,460.3091 C,0,132849,132859,61,52,43,62,53,44 F,0,132870,132881,1,0 R,0,132870,132881,0 C,0,132870,132881,62,53,44,63,54,45
Sprite,Background,Centre,"sb/b.png",320,240 F,0,131338,131349,0,1 R,0,131338,131349,0 MX,0,131338,131349,397.6578,397.1046 MY,0,131338,131424,358.5115,352.625 V,0,131338,131424,0,0,1.0368,1.0368 C,0,131338,131434,144,130,117,63,56,51 R,2,131338,131510,3.6566,3.0059 MX,0,131349,131413,397.1046,397.8405 MX,0,131413,131456,397.8405,401.6226 V,0,131424,131509,1.0368,1.0368,1.9979,1.9979 MY,0,131424,131520,352.625,347.6853 C,0,131434,131456,63,56,51,44,40,36 C,0,131456,131477,44,40,36,27,24,21 MX,0,131456,131499,401.6226,407.4793 C,0,131477,131509,27,24,21,0,0,0 MX,0,131499,131542,407.4793,414.9734 C,0,131509,131595,0,0,0,8,8,7 V,0,131509,131681,1.9979,1.9979,1.6765,1.6765 R,2,131510,132881,3.0059,3.6566 MY,0,131520,131606,347.6853,344.8339 MX,0,131542,131627,414.9734,433.3592 C,0,131595,131681,8,8,7,18,16,14 MY,0,131606,131724,344.8339,343.034 MX,0,131627,131884,433.3592,496.2642 V,0,131681,132517,1.6765,1.6765,0.5664,0.5664 C,0,131681,132881,18,16,14,144,130,117 MY,0,131724,131917,343.034,344.1419 MX,0,131884,131970,496.2642,515.1481 MY,0,131917,132506,344.1419,358.1114 MX,0,131970,132056,515.1481,531.6825 MX,0,132056,132142,531.6825,545.5396 MX,0,132142,132227,545.5396,556.6254 MX,0,132227,132313,556.6254,565.0332 MX,0,132313,132399,565.0332,570.9981 MX,0,132399,132452,570.9981,573.6277 MX,0,132452,132538,573.6277,576.3354 MY,0,132506,132645,358.1114,360.484 V,0,132517,132881,0.5664,0.5664,0,0 MX,0,132538,132613,576.3354,577.4404 MX,0,132613,132817,577.4404,576.2038 MY,0,132645,132881,360.484,362.3665 MX,0,132817,132881,576.2038,574.8676 F,0,132870,132881,1,0 R,0,132870,132881,0
Sprite,Background,Centre,"sb/b.png",320,240 F,0,131338,131349,0,1 R,0,131338,131349,0 MX,0,131338,131359,655.545,662.4011 V,0,131338,131424,0,0,1.1739,1.1739 C,0,131338,131509,189,172,162,0,0,0 MY,0,131338,131509,378.5813,402.8467 R,2,131338,131510,3.1372,0.9198 MX,0,131359,131381,662.4011,668.23 MX,0,131381,131402,668.23,672.9715 MX,0,131402,131424,672.9715,676.5728 MX,0,131424,131445,676.5728,678.9885 V,0,131424,131509,1.1739,1.1739,2.5189,2.5189 MX,0,131445,131477,678.9885,680.3159 MX,0,131477,131509,680.3159,678.8299 MX,0,131509,131531,678.8299,676.2715 MY,0,131509,131595,402.8467,413.7329 C,0,131509,132881,0,0,0,189,172,162 R,2,131510,132881,0.9198,3.1372 MX,0,131531,131552,676.2715,672.476 V,0,131542,131724,2.5189,2.5189,2.3818,2.3818 MX,0,131552,131574,672.476,667.4747 MX,0,131574,131595,667.4747,661.3134 MX,0,131595,131617,661.3134,654.0523 MY,0,131595,131681,413.7329,421.915 MX,0,131617,131659,654.0523,636.5363 MX,0,131659,131702,636.5363,615.6472 MY,0,131681,131724,421.915,424.7089 MX,0,131702,131745,615.6472,592.2352 MY,0,131724,131809,424.7089,427.5526 V,0,131724,131895,2.3818,2.3818,2.0493,2.0493 MX,0,131745,131917,592.2352,490.9427 MY,0,131809,131927,427.5526,426.1895 V,0,131895,132238,2.0493,2.0493,1.2124,1.2124 MX,0,131917,131959,490.9427,467.3989 MY,0,131927,132045,426.1895,420.7658 MX,0,131959,132002,467.3989,445.5635 MX,0,132002,132045,445.5635,425.675 MX,0,132045,132088,425.675,407.8446 MY,0,132045,132217,420.7658,410.3711 MX,0,132088,132131,407.8446,392.0819 MX,0,132131,132174,392.0819,378.3185 MX,0,132174,132217,378.3185,366.4326 MX,0,132217,132259,366.4326,356.2678 MY,0,132217,132388,410.3711,400.9834 V,0,132238,132581,1.2124,1.2124,0.5162,0.5162 MX,0,132259,132302,356.2678,347.6492 MX,0,132302,132345,347.6492,340.3957 MX,0,132345,132388,340.3957,334.3284 MX,0,132388,132474,334.3284,325.0826 MY,0,132388,132549,400.9834,394.671 MX,0,132474,132559,325.0826,318.7055 MY,0,132549,132645,394.671,392.1639 MX,0,132559,132656,318.7055,313.7661 V,0,132581,132881,0.5162,0.5162,0,0 MY,0,132645,132881,392.1639,389.9276 MX,0,132656,132881,313.7661,306.6584 F,0,132870,132881,1,0 R,0,132870,132881,0
Sprite,Background,Centre,"sb/b.png",320,240 R,0,131338,131349,0 F,0,131338,131509,0,0.9 MX,0,131338,131509,798.7681,504.1674 MY,0,131338,134970,383.5597,391.2506 V,0,131338,146713,36.8175,0.2209,37.1794,0.2231 C,0,131349,153625,25,25,25 MX,0,131509,136117,504.1674,503.16 MY,0,134970,139642,391.2506,399.3904 MX,0,136117,140488,503.16,499.1342 MY,0,139642,142556,399.3904,403.4273 MX,0,140488,145384,499.1342,491.0165 MY,0,142556,146370,403.4273,407.4781 MX,0,145384,148899,491.0165,482.8212 MY,0,146370,152499,407.4781,411.002 V,0,146713,153474,37.1794,0.2231,37.1172,0.2227 MX,0,148899,153409,482.8212,469.4033 MY,0,152499,153495,411.002,410.3422 F,0,152938,153249,0.9,0.7161 F,0,153249,153484,0.7161,0.33 MX,0,153409,153463,469.4033,451.7241 MX,0,153463,153549,451.7241,303.0946 V,0,153474,153625,37.1172,0.2227,36.473,0.2188 F,0,153484,153625,0.33,0 MY,0,153495,153625,410.3422,407.6949 MX,0,153549,153625,303.0946,174.2472 R,0,153624,153625,0
Sprite,Background,Centre,"sb/b.png",320,240 R,0,131338,131349,0 F,0,131338,131509,0,0.9 MX,0,131338,131509,504.2097,293.7656 V,0,131338,135013,26.308,0.1578,26.4285,0.1586 MY,0,131338,147645,369.9354,402.2919 C,0,131349,153625,25,25,25 MX,0,131509,137059,293.7656,297.804 V,0,135013,138677,26.4285,0.1586,26.7517,0.1605 MX,0,137059,143595,297.804,305.9376 V,0,138677,142942,26.7517,0.1605,27.4039,0.1644 V,0,142942,145942,27.4039,0.1644,28.0629,0.1684 MX,0,143595,148277,305.9376,314.0865 V,0,145942,148342,28.0629,0.1684,28.7266,0.1724 MY,0,147645,153367,402.2919,416.1809 MX,0,148277,153313,314.0865,325.3419 V,0,148342,150367,28.7266,0.1724,29.3936,0.1764 V,0,150367,153420,29.3936,0.1764,30.6143,0.1837 F,0,152938,153249,0.9,0.7161 F,0,153249,153484,0.7161,0.33 MX,0,153313,153463,325.3419,311.4485 MY,0,153367,153625,416.1809,413.8558 V,0,153420,153625,30.6143,0.1837,30.2052,0.1812 MX,0,153463,153549,311.4485,190.2655 F,0,153484,153625,0.33,0 MX,0,153549,153625,190.2655,84.6244 R,0,153624,153625,0
Sprite,Background,Centre,"sb/b.png",320,240 R,0,131338,131349,0 F,0,131338,131499,0,0.4219 MX,0,131338,131509,918.7882,550.2734 MY,0,131338,134649,363.3817,371.11 V,0,131338,153388,46.0471,0.2763,46.8924,0.2814 C,0,131349,153625,25,25,25 F,0,131499,153206,0.4219,0.3817 MX,0,131509,135849,550.2734,551.2821 MY,0,134649,138688,371.11,379.2593 MX,0,135849,139899,551.2821,555.3196 MY,0,138688,143724,379.2593,387.3821 MX,0,139899,144463,555.3196,563.5024 MY,0,143724,146959,387.3821,391.4128 MX,0,144463,147720,563.5024,571.7249 MY,0,146959,152970,391.4128,396.4545 MX,0,147720,150409,571.7249,580.0264 MX,0,150409,153420,580.0264,590.9598 MY,0,152970,153517,396.4545,395.2232 F,0,153206,153625,0.3817,0 V,0,153388,153463,46.8924,0.2814,46.8264,0.281 MX,0,153420,153463,590.9598,568.899 MX,0,153463,153506,568.899,474.5265 V,0,153463,153625,46.8264,0.281,45.7417,0.2745 MX,0,153506,153549,474.5265,381.321 MY,0,153517,153625,395.2232,392.7196 MX,0,153549,153625,381.321,219.4643 R,0,153624,153625,0
Sprite,Background,Centre,"sb/b.png",320,240 F,0,153453,153464,0,1 R,0,153453,153464,0 MX,0,153453,153496,395.1681,388.3768 MY,0,153453,153539,388.9576,380.5526 V,0,153453,153539,0,0,1.3182,1.3182 C,0,153453,153624,189,172,162,0,0,0 R,2,153453,153625,3.9674,6.1518 MX,0,153496,153517,388.3768,386.4082 MX,0,153517,153549,386.4082,385.0667 MY,0,153539,153624,380.5526,373.5562 V,0,153539,153624,1.3182,1.3182,2.515,2.515 MX,0,153549,153603,385.0667,386.5901 MX,0,153603,153646,386.5901,390.6208 MY,0,153624,153710,373.5562,368.2658 V,0,153624,153710,2.515,2.515,2.2713,2.2713 C,0,153624,154996,0,0,0,189,172,162 R,2,153625,154996,6.1518,3.9674 MX,0,153646,153689,390.6208,396.635 MX,0,153689,153732,396.635,404.2046 MY,0,153710,153774,368.2658,365.4112 V,0,153710,153882,2.2713,2.2713,1.8859,1.8859 MX,0,153732,153817,404.2046,422.5491 MY,0,153774,153871,365.4112,362.7511 MX,0,153817,154074,422.5491,484.8492 MY,0,153871,153967,362.7511,361.7481 V,0,153882,154567,1.8859,1.8859,0.7739,0.7739 MY,0,153967,154192,361.7481,363.9194 MX,0,154074,154160,484.8492,503.7032 MX,0,154160,154246,503.7032,520.4021 MY,0,154192,154707,363.9194,375.7205 MX,0,154246,154332,520.4021,534.6393 MX,0,154332,154417,534.6393,546.3082 MX,0,154417,154503,546.3082,555.4582 MX,0,154503,154589,555.4582,562.2499 V,0,154567,154996,0.7739,0.7739,0,0 MX,0,154589,154685,562.2499,567.3577 MX,0,154685,154824,567.3577,570.7004 MY,0,154707,154878,375.7205,377.9831 MX,0,154824,154996,570.7004,569.4517 MY,0,154878,154996,377.9831,378.5955 F,0,154985,154996,1,0 R,0,154985,154996,0
Sprite,Background,Centre,"sb/b.png",320,240 F,0,153453,153464,0,1 R,0,153453,153464,0 MX,0,153453,153474,667.9114,675.2617 V,0,153453,153539,0,0,1.415,1.415 C,0,153453,153549,144,130,117,63,56,51 MY,0,153453,153624,364.2394,387.9487 R,2,153453,153625,3.6064,2.3139 MX,0,153474,153496,675.2617,681.5149 MX,0,153496,153517,681.5149,686.602 MX,0,153517,153539,686.602,690.4609 MX,0,153539,153560,690.4609,693.038 V,0,153539,153624,1.415,1.415,3.0518,3.0518 C,0,153549,153571,63,56,51,44,40,36 MX,0,153560,153592,693.038,694.4094 C,0,153571,153592,44,40,36,27,24,21 C,0,153592,153624,27,24,21,0,0,0 MX,0,153592,153624,694.4094,692.7112 MX,0,153624,153646,692.7112,689.8616 C,0,153624,153710,0,0,0,8,8,7 MY,0,153624,153710,387.9487,398.6021 V,0,153624,153785,3.0518,3.0518,2.9839,2.9839 R,2,153625,154996,2.3139,3.6064 MX,0,153646,153667,689.8616,685.6533 MX,0,153667,153689,685.6533,680.1177 MX,0,153689,153710,680.1177,673.3039 MX,0,153710,153732,673.3039,665.2776 C,0,153710,153796,8,8,7,18,16,14 MY,0,153710,153796,398.6021,406.5438 MX,0,153732,153753,665.2776,656.1198 MX,0,153753,153796,656.1198,634.8035 V,0,153785,153882,2.9839,2.9839,2.8227,2.8227 MX,0,153796,153839,634.8035,610.2495 MY,0,153796,153839,406.5438,409.2052 C,0,153796,154996,18,16,14,144,130,117 MX,0,153839,153882,610.2495,583.4654 MY,0,153839,153924,409.2052,411.7602 MX,0,153882,154010,583.4654,499.6864 V,0,153882,154449,2.8227,2.8227,1.1982,1.1982 MY,0,153924,154021,411.7602,410.6937 MX,0,154010,154053,499.6864,473.402 MY,0,154021,154139,410.6937,405.5039 MX,0,154053,154096,473.402,448.9207 MX,0,154096,154139,448.9207,426.5655 MX,0,154139,154182,426.5655,406.5033 MY,0,154139,154482,405.5039,385.4496 MX,0,154182,154224,406.5033,388.7726 MX,0,154224,154267,388.7726,373.3138 MX,0,154267,154310,373.3138,359.9977 MX,0,154310,154353,359.9977,348.6508 MX,0,154353,154396,348.6508,339.0748 MX,0,154396,154439,339.0748,331.0621 MX,0,154439,154482,331.0621,324.4069 V,0,154449,154792,1.1982,1.1982,0.4118,0.4118 MX,0,154482,154567,324.4069,314.395 MY,0,154482,154632,385.4496,379.2678 MX,0,154567,154653,314.395,307.6441 MY,0,154632,154717,379.2678,376.7723 MX,0,154653,154749,307.6441,302.564 MY,0,154717,154846,376.7723,374.4003 MX,0,154749,154996,302.564,294.9129 V,0,154792,154996,0.4118,0.4118,0,0 MY,0,154846,154996,374.4003,373.614 F,0,154985,154996,1,0 R,0,154985,154996,0
Sprite,Background,Centre,"sb/b.png",320,240 F,0,153453,153464,0,1 R,0,153453,153464,0 MX,0,153453,153496,466.7054,450.4245 V,0,153453,153539,0,0,1.3566,1.3566 C,0,153453,153624,189,172,162,0,0,0 R,2,153453,153625,0.0532,1.8935 MY,0,153453,153807,374.5928,355.3601 MX,0,153496,153539,450.4245,436.674 MX,0,153539,153582,436.674,425.5998 V,0,153539,153624,1.3566,1.3566,2.615,2.615 MX,0,153582,153624,425.5998,417.1854 MX,0,153624,153667,417.1854,411.2952 V,0,153624,153828,2.615,2.615,2.0532,2.0532 C,0,153624,154996,0,0,0,189,172,162 R,2,153625,154996,1.8935,0.0532 MX,0,153667,153710,411.2952,407.715 MX,0,153710,153742,407.715,406.391 MX,0,153742,153817,406.391,407.1314 MY,0,153807,153978,355.3601,349.6076 MX,0,153817,153871,407.1314,410.2994 V,0,153828,153999,2.0532,2.0532,1.6754,1.6754 MX,0,153871,153957,410.2994,418.5782 MX,0,153957,154042,418.5782,429.3195 MY,0,153978,154139,349.6076,347.0764 V,0,153999,154996,1.6754,1.6754,0,0 MX,0,154042,154299,429.3195,464.4333 MY,0,154139,154235,347.0764,346.5727 MY,0,154235,154996,346.5727,350.2104 MX,0,154299,154385,464.4333,474.644 MX,0,154385,154471,474.644,483.4376 MX,0,154471,154557,483.4376,490.6447 MX,0,154557,154642,490.6447,496.1947 MX,0,154642,154696,496.1947,498.8176 MX,0,154696,154782,498.8176,501.6798 MX,0,154782,154857,501.6798,502.8658 MX,0,154857,154996,502.8658,501.8994 F,0,154985,154996,1,0 R,0,154985,154996,0
Sprite,Background,Centre,"sb/b.png",320,240 F,0,153453,153464,0,1 R,0,153453,153464,0 MX,0,153453,153496,627.2171,635.9423 V,0,153453,153539,0,0,1.1172,1.1172 C,0,153453,153624,189,172,162,0,0,0 MY,0,153453,153624,378.0702,396.9967 R,2,153453,153625,4.7945,5.3216 MX,0,153496,153539,635.9423,640.9918 MX,0,153539,153571,640.9918,642.2473 V,0,153539,153624,1.1172,1.1172,2.3611,2.3611 MX,0,153571,153614,642.2473,640.4896 MX,0,153614,153657,640.4896,634.8784 MY,0,153624,153710,396.9967,405.0504 V,0,153624,153796,2.3611,2.3611,2.2296,2.2296 C,0,153624,154996,0,0,0,189,172,162 R,2,153625,154996,5.3216,4.7945 MX,0,153657,153699,634.8784,625.6389 MX,0,153699,153742,625.6389,613.1495 MY,0,153710,153796,405.0504,410.9044 MX,0,153742,153785,613.1495,597.918 MX,0,153785,153828,597.918,580.545 MY,0,153796,153860,410.9044,413.568 V,0,153796,153978,2.2296,2.2296,1.9264,1.9264 MX,0,153828,153914,580.545,541.9702 MY,0,153860,153914,413.568,414.6477 MX,0,153914,153999,541.9702,502.3833 MY,0,153914,154053,414.6477,413.3372 V,0,153978,154321,1.9264,1.9264,1.1901,1.1901 MX,0,153999,154042,502.3833,483.4803 MX,0,154042,154085,483.4803,465.6543 MY,0,154053,154224,413.3372,406.8023 MX,0,154085,154128,465.6543,449.1395 MX,0,154128,154171,449.1395,434.0767 MX,0,154171,154214,434.0767,420.5268 MX,0,154214,154257,420.5268,408.4862 MY,0,154224,154396,406.8023,399.0905 MX,0,154257,154299,408.4862,397.9022 MX,0,154299,154342,397.9022,388.6877 V,0,154321,154664,1.1901,1.1901,0.5427,0.5427 MX,0,154342,154385,388.6877,380.7326 MX,0,154385,154428,380.7326,373.9145 MY,0,154396,154567,399.0905,392.7166 MX,0,154428,154514,373.9145,363.18 MX,0,154514,154599,363.18,355.4976 MY,0,154567,154771,392.7166,387.9902 MX,0,154599,154685,355.4976,349.9961 V,0,154664,154996,0.5427,0.5427,0,0 MX,0,154685,154814,349.9961,344.3325 MY,0,154771,154996,387.9902,386.4762 MX,0,154814,154996,344.3325,339.0008 F,0,154985,154996,1,0 R,0,154985,154996,0
Sprite,Background,Centre,"sb/b.png",320,240 F,0,153453,153464,0,1 R,0,153453,153464,0 MX,0,153453,153496,373.2121,378.4786 MY,0,153453,153539,351.468,345.3443 V,0,153453,153539,0,0,0.9445,0.9445 C,0,153453,153549,144,130,117,63,56,51 R,2,153453,153625,4.2122,3.5965 MX,0,153496,153539,378.4786,386.5189 MX,0,153539,153582,386.5189,396.7127 V,0,153539,153624,0.9445,0.9445,1.8217,1.8217 MY,0,153539,153657,345.3443,340.1399 C,0,153549,153571,63,56,51,44,40,36 C,0,153571,153592,44,40,36,27,24,21 MX,0,153582,153624,396.7127,408.5226 C,0,153592,153624,27,24,21,0,0,0 C,0,153624,153710,0,0,0,8,8,7 MX,0,153624,153710,408.5226,435.2285 V,0,153624,153796,1.8217,1.8217,1.5476,1.5476 R,2,153625,154996,3.5965,4.2122 MY,0,153657,153753,340.1399,338.3288 C,0,153710,153796,8,8,7,18,16,14 MX,0,153710,153882,435.2285,492.082 MY,0,153753,153935,338.3288,339.5091 V,0,153796,154310,1.5476,1.5476,0.9853,0.9853 C,0,153796,154996,18,16,14,144,130,117 MX,0,153882,153967,492.082,518.7429 MY,0,153935,154117,339.5091,344.619 MX,0,153967,154053,518.7429,542.7359 MX,0,154053,154139,542.7359,563.4044 MY,0,154117,154460,344.619,357.3731 MX,0,154139,154224,563.4044,580.3988 MX,0,154224,154310,580.3988,593.6467 MX,0,154310,154396,593.6467,603.3199 V,0,154310,154717,0.9853,0.9853,0.4386,0.4386 MX,0,154396,154482,603.3199,609.7876 MY,0,154460,154632,357.3731,362.5984 MX,0,154482,154535,609.7876,612.4229 MX,0,154535,154632,612.4229,614.9517 MY,0,154632,154739,362.5984,365.0096 MX,0,154632,154857,614.9517,613.7608 V,0,154717,154996,0.4386,0.4386,0,0 MY,0,154739,154899,365.0096,367.2231 MX,0,154857,154996,613.7608,610.6942 MY,0,154899,154996,367.2231,367.7154 F,0,154985,154996,1,0 R,0,154985,154996,0
Sprite,Background,Centre,"sb/b.png",320,240 F,0,153453,153464,0,1 R,0,153453,153464,0 MX,0,153453,153496,572.5113,591.5733 MY,0,153453,153539,362.9429,369.9669 V,0,153453,153539,0,0,1.1243,1.1243 C,0,153453,153624,165,158,139,0,0,0 R,2,153453,153625,0.0573,6.0986 MX,0,153496,153539,591.5733,608.6848 MX,0,153539,153582,608.6848,623.4807 V,0,153539,153624,1.1243,1.1243,2.3798,2.3798 MY,0,153539,153882,369.9669,405.694 MX,0,153582,153624,623.4807,635.6311 MX,0,153624,153667,635.6311,644.8538 V,0,153624,153828,2.3798,2.3798,2.3132,2.3132 C,0,153624,154996,0,0,0,165,158,139 R,2,153625,154996,6.0986,0.0573 MX,0,153667,153710,644.8538,650.9329 MX,0,153710,153732,650.9329,652.748 MX,0,153732,153764,652.748,653.9163 MX,0,153764,153807,653.9163,652.5824 MX,0,153807,153849,652.5824,648.0395 V,0,153828,154053,2.3132,2.3132,2.0413,2.0413 MX,0,153849,153892,648.0395,640.4933 MY,0,153882,153967,405.694,412.4982 MX,0,153892,153935,640.4933,630.2483 MX,0,153935,153978,630.2483,617.6903 MY,0,153967,154064,412.4982,417.7251 MX,0,153978,154021,617.6903,603.2629 MX,0,154021,154107,603.2629,570.6956 V,0,154053,154996,2.0413,2.0413,0,0 MY,0,154064,154160,417.7251,420.3435 MX,0,154107,154192,570.6956,536.2108 MY,0,154160,154374,420.3435,419.2067 MX,0,154192,154278,536.2108,502.827 MX,0,154278,154364,502.827,472.5765 MX,0,154364,154407,472.5765,458.9889 MY,0,154374,154814,419.2067,409.9924 MX,0,154407,154449,458.9889,446.514 MX,0,154449,154492,446.514,435.1669 MX,0,154492,154535,435.1669,424.9327 MX,0,154535,154578,424.9327,415.7749 MX,0,154578,154664,415.7749,400.4758 MX,0,154664,154749,400.4758,388.7903 MX,0,154749,154835,388.7903,380.2416 MY,0,154814,154996,409.9924,409.0624 MX,0,154835,154921,380.2416,374.4435 MX,0,154921,154996,374.4435,371.4277 F,0,154985,154996,1,0 R,0,154985,154996,0
Sprite,Background,Centre,"sb/b.png",320,240 F,0,153453,153464,0,1 R,0,153453,153464,0 MX,0,153453,153496,617.1667,629.4399 V,0,153453,153539,0,0,1.2904,1.2904 C,0,153453,153624,63,54,45,0,0,0 R,2,153453,153625,2.9144,3.8026 MY,0,153453,153710,350.3204,373.8421 MX,0,153496,153539,629.4399,638.4587 MX,0,153539,153582,638.4587,643.9366 V,0,153539,153624,1.2904,1.2904,2.7359,2.7359 MX,0,153582,153603,643.9366,645.2861 MX,0,153603,153657,645.2861,644.5251 V,0,153624,153807,2.7359,2.7359,2.6095,2.6095 R,2,153625,154996,3.8026,2.9144 C,0,153646,153657,0,0,0,1,1,1 MX,0,153657,153699,644.5251,639.7153 C,0,153667,153678,1,1,1,2,2,1 C,0,153678,153764,2,2,1,6,5,4 MX,0,153699,153742,639.7153,631.3742 MY,0,153710,153796,373.8421,380.0274 MX,0,153742,153785,631.3742,619.8391 C,0,153774,153785,6,5,4,7,6,5 MX,0,153785,153828,619.8391,605.5686 C,0,153796,153807,7,6,5,8,7,5 MY,0,153796,153914,380.0274,385.286 C,0,153807,153914,8,7,5,13,11,9 V,0,153807,153989,2.6095,2.6095,2.2888,2.2888 MX,0,153828,153871,605.5686,589.1108 MX,0,153871,153957,589.1108,552.0355 MY,0,153914,153967,385.286,386.3455 C,0,153924,153935,13,11,9,14,12,10 C,0,153946,153957,14,12,10,15,13,10 MX,0,153957,154042,552.0355,513.2801 C,0,153957,154064,15,13,10,20,17,14 MY,0,153967,154139,386.3455,385.1371 V,0,153989,154332,2.2888,2.2888,1.435,1.435 MX,0,154042,154128,513.2801,476.6166 C,0,154074,154085,20,17,14,21,18,15 C,0,154096,154107,21,18,15,22,18,15 C,0,154107,154192,22,18,15,26,22,18 MX,0,154128,154171,476.6166,459.8666 MY,0,154139,154482,385.1371,374.2445 MX,0,154171,154214,459.8666,444.416 C,0,154203,154214,26,22,18,27,23,19 MX,0,154214,154257,444.416,430.3504 C,0,154224,154235,27,23,19,28,24,20 C,0,154246,154257,28,24,20,29,24,20 MX,0,154257,154299,430.3504,417.6923 C,0,154257,154310,29,24,20,31,27,22 MX,0,154299,154342,417.6923,406.4147 C,0,154321,154374,31,27,22,34,29,24 V,0,154332,154674,1.435,1.435,0.6466,0.6466 MX,0,154342,154385,406.4147,396.4544 C,0,154385,154396,34,29,24,35,30,25 MX,0,154385,154428,396.4544,387.7234 C,0,154407,154417,35,30,25,36,31,26 C,0,154428,154439,36,31,26,37,32,26 MX,0,154428,154471,387.7234,380.1184 C,0,154439,154524,37,32,26,41,35,29 MX,0,154471,154557,380.1184,367.8428 MY,0,154482,154674,374.2445,369.3051 C,0,154535,154546,41,35,29,42,36,30 C,0,154557,154567,42,36,30,43,37,30 MX,0,154557,154642,367.8428,358.7497 C,0,154567,154674,43,37,30,48,41,34 MX,0,154642,154728,358.7497,352.0493 MY,0,154674,154835,369.3051,366.9868 V,0,154674,154996,0.6466,0.6466,0,0 C,0,154685,154696,48,41,34,49,42,35 C,0,154707,154717,49,42,35,50,43,35 C,0,154717,154824,50,43,35,55,47,39 MX,0,154728,154814,352.0493,347.0992 MX,0,154814,154996,347.0992,340.4505 C,0,154835,154846,55,47,39,56,48,40 MY,0,154835,154996,366.9868,366.3983 C,0,154857,154867,56,48,40,57,48,40 C,0,154867,154953,57,48,40,61,52,43 C,0,154964,154974,61,52,43,62,53,44 F,0,154985,154996,1,0 R,0,154985,154996,0 C,0,154985,154996,62,53,44,63,54,45
Sprite,Background,Centre,"sb/b.png",320,240 F,0,153453,153464,0,1 R,0,153453,153464,0 MX,0,153453,153496,390.3716,403.8799 MY,0,153453,153496,348.9293,346.614 C,0,153453,153549,144,130,117,63,56,51 V,0,153453,153624,0,0,2.0744,2.0744 R,2,153453,153625,6.1304,3.9645 MX,0,153496,153539,403.8799,418.9485 MY,0,153496,153614,346.614,343.1962 MX,0,153539,153624,418.9485,451.8443 C,0,153549,153571,63,56,51,44,40,36 C,0,153571,153592,44,40,36,27,24,21 C,0,153592,153624,27,24,21,0,0,0 MY,0,153614,153785,343.1962,344.5095 C,0,153624,153710,0,0,0,8,8,7 MX,0,153624,153710,451.8443,485.946 V,0,153624,153828,2.0744,2.0744,1.8013,1.8013 R,2,153625,154996,3.9645,6.1304 C,0,153710,153796,8,8,7,18,16,14 MX,0,153710,153796,485.946,519.0296 MY,0,153785,153957,344.5095,350.9652 MX,0,153796,153882,519.0296,549.4642 C,0,153796,154996,18,16,14,144,130,117 V,0,153828,154321,1.8013,1.8013,1.2516,1.2516 MX,0,153882,153924,549.4642,563.2991 MX,0,153924,153967,563.2991,576.053 MY,0,153957,154299,350.9652,369.7385 MX,0,153967,154010,576.053,587.6346 MX,0,154010,154053,587.6346,597.9766 MX,0,154053,154096,597.9766,607.035 MX,0,154096,154139,607.035,614.7903 MX,0,154139,154182,614.7903,621.2472 MX,0,154182,154224,621.2472,626.4339 MX,0,154224,154267,626.4339,630.4008 MX,0,154267,154310,630.4008,633.2192 MY,0,154299,154524,369.7385,380.206 MX,0,154310,154396,633.2192,635.7794 V,0,154321,154664,1.2516,1.2516,0.6722,0.6722 MX,0,154396,154492,635.7794,634.689 MX,0,154492,154621,634.689,629.0323 MY,0,154524,154696,380.206,385.5343 MX,0,154621,154878,629.0323,614.5839 V,0,154664,154996,0.6722,0.6722,0,0 MY,0,154696,154835,385.5343,388.1275 MY,0,154835,154996,388.1275,389.3445 MX,0,154878,154996,614.5839,610.1948 F,0,154985,154996,1,0 R,0,154985,154996,0
Sprite,Background,Centre,"sb/b.png",320,240 F,0,153453,153464,0,1 R,0,153453,153464,0 MX,0,153453,153496,612.1437,621.5091 V,0,153453,153539,0,0,1.3304,1.3304 C,0,153453,153624,189,172,162,0,0,0 MY,0,153453,153624,379.0466,396.6211 R,2,153453,153625,1.6361,5.2644 MX,0,153496,153539,621.5091,627.6609 MX,0,153539,153560,627.6609,629.4681 V,0,153539,153624,1.3304,1.3304,2.8023,2.8023 MX,0,153560,153592,629.4681,630.5522 MX,0,153592,153635,630.5522,628.9515 MY,0,153624,153710,396.6211,404.4549 V,0,153624,153785,2.8023,2.8023,2.6608,2.6608 C,0,153624,154996,0,0,0,189,172,162 R,2,153625,154996,5.2644,1.6361 MX,0,153635,153678,628.9515,623.9537 MX,0,153678,153721,623.9537,615.7745 MY,0,153710,153796,404.4549,410.4907 MX,0,153721,153764,615.7745,604.7527 MX,0,153764,153807,604.7527,591.3292 V,0,153785,153957,2.6608,2.6608,2.3519,2.3519 MY,0,153796,153849,410.4907,413.1217 MX,0,153807,153849,591.3292,576.0159 MX,0,153849,153935,576.0159,541.9128 MY,0,153849,153957,413.1217,415.6442 MX,0,153935,154021,541.9128,506.6308 MY,0,153957,154096,415.6442,414.3154 V,0,153957,154299,2.3519,2.3519,1.5024,1.5024 MX,0,154021,154107,506.6308,473.4828 MY,0,154096,154439,414.3154,402.0749 MX,0,154107,154149,473.4828,458.3977 MX,0,154149,154192,458.3977,444.5124 MX,0,154192,154235,444.5124,431.896 MX,0,154235,154278,431.896,420.5625 MX,0,154278,154321,420.5625,410.4828 V,0,154299,154642,1.5024,1.5024,0.7119,0.7119 MX,0,154321,154364,410.4828,401.5961 MX,0,154364,154407,401.5961,393.8199 MX,0,154407,154492,393.8199,381.2095 MY,0,154439,154610,402.0749,396.713 MX,0,154492,154578,381.2095,371.838 MX,0,154578,154664,371.838,364.9238 MY,0,154610,154717,396.713,394.3456 V,0,154642,154996,0.7119,0.7119,0,0 MX,0,154664,154749,364.9238,359.7952 MY,0,154717,154996,394.3456,392.0462 MX,0,154749,154889,359.7952,353.9673 MX,0,154889,154996,353.9673,350.8538 F,0,154985,154996,1,0 R,0,154985,154996,0
Sprite,Background,Centre,"sb/b.png",320,240 F,0,153453,153464,0,1 R,0,153453,153464,0 MX,0,153453,153496,656.6577,676.4863 MY,0,153453,153539,362.3946,374.2841 V,0,153453,153539,0,0,1.1988,1.1988 C,0,153453,153549,144,130,117,63,56,51 R,2,153453,153625,0.0211,0.6821 MX,0,153496,153517,676.4863,684.9841 MX,0,153517,153539,684.9841,692.4347 MX,0,153539,153560,692.4347,698.7648 V,0,153539,153624,1.1988,1.1988,2.6064,2.6064 MY,0,153539,153710,374.2841,400.3646 C,0,153549,153571,63,56,51,44,40,36 MX,0,153560,153582,698.7648,703.9058 C,0,153571,153592,44,40,36,27,24,21 MX,0,153582,153603,703.9058,707.7965 C,0,153592,153624,27,24,21,0,0,0 MX,0,153603,153624,707.7965,710.3836 MX,0,153624,153657,710.3836,711.7297 V,0,153624,153699,2.6064,2.6064,2.6351,2.6351 C,0,153624,153710,0,0,0,8,8,7 R,2,153625,154996,0.6821,0.0211 MX,0,153657,153689,711.7297,709.9584 MX,0,153689,153710,709.9584,707.0333 V,0,153699,153849,2.6351,2.6351,2.571,2.571 MX,0,153710,153732,707.0333,702.7272 C,0,153710,153796,8,8,7,18,16,14 MY,0,153710,153796,400.3646,411.5453 MX,0,153732,153753,702.7272,697.0715 MX,0,153753,153774,697.0715,690.1139 MX,0,153774,153796,690.1139,681.9189 MX,0,153796,153817,681.9189,672.5666 MY,0,153796,153882,411.5453,419.5971 C,0,153796,154996,18,16,14,144,130,117 MX,0,153817,153860,672.5666,650.7774 V,0,153849,153946,2.571,2.571,2.4279,2.4279 MX,0,153860,153903,650.7774,625.6296 MY,0,153882,153924,419.5971,422.2009 MX,0,153903,153946,625.6296,598.1207 MY,0,153924,153999,422.2009,424.4362 MX,0,153946,154074,598.1207,511.3619 V,0,153946,154374,2.4279,2.4279,1.3253,1.3253 MY,0,153999,154107,424.4362,423.1786 MX,0,154074,154117,511.3619,483.8418 MY,0,154107,154224,423.1786,417.7683 MX,0,154117,154160,483.8418,458.0312 MX,0,154160,154203,458.0312,434.2759 MX,0,154203,154246,434.2759,412.7665 MY,0,154224,154396,417.7683,407.292 MX,0,154246,154289,412.7665,393.564 MX,0,154289,154332,393.564,376.6305 MX,0,154332,154374,376.6305,361.8558 MX,0,154374,154417,361.8558,349.0826 V,0,154374,154717,1.3253,1.3253,0.5387,0.5387 MY,0,154396,154567,407.292,397.9463 MX,0,154417,154460,349.0826,338.1264 MX,0,154460,154503,338.1264,328.791 MX,0,154503,154546,328.791,320.8803 MX,0,154546,154589,320.8803,314.2055 MY,0,154567,154739,397.9463,391.5953 MX,0,154589,154674,314.2055,303.8768 MX,0,154674,154760,303.8768,296.5997 V,0,154717,154996,0.5387,0.5387,0,0 MY,0,154739,154846,391.5953,389.326 MX,0,154760,154846,296.5997,291.4571 MX,0,154846,154996,291.4571,285.8512 MY,0,154846,154996,389.326,388.3271 F,0,154985,154996,1,0 R,0,154985,154996,0
Sprite,Background,Centre,"sb/b.png",320,240 R,0,153453,153464,0 F,0,153453,153624,0,0.9 MX,0,153453,153624,798.7681,504.1649 MY,0,153453,157503,383.5597,391.2509 V,0,153453,170510,36.8175,0.2209,37.1785,0.2231 C,0,153464,178310,25,25,25 MX,0,153624,158778,504.1649,503.1624 MY,0,157503,162699,391.2509,399.3711 MX,0,158778,163674,503.1624,499.1157 MY,0,162699,165957,399.3711,403.4184 MX,0,163674,169139,499.1157,490.9806 MY,0,165957,170199,403.4184,407.4619 MX,0,169139,173060,490.9806,482.7711 MY,0,170199,176960,407.4619,410.9762 V,0,170510,178160,37.1785,0.2231,37.111,0.2227 MX,0,173060,178064,482.7711,469.421 MY,0,176960,178182,410.9762,410.3121 F,0,177624,177935,0.9,0.7144 F,0,177935,178171,0.7144,0.327 MX,0,178064,178139,469.421,467.9451 MX,0,178139,178224,467.9451,319.0246 V,0,178160,178310,37.111,0.2227,36.473,0.2188 F,0,178171,178310,0.327,0 MY,0,178182,178310,410.3121,407.6949 MX,0,178224,178310,319.0246,174.2472 R,0,178299,178310,0
Sprite,Background,Centre,"sb/b.png",320,240 R,0,153453,153464,0 F,0,153453,153624,0,0.9 MX,0,153453,153624,504.2097,293.7571 V,0,153453,157557,26.308,0.1578,26.4288,0.1586 MY,0,153453,171507,369.9354,402.0267 C,0,153464,178310,25,25,25 MX,0,153624,159828,293.7571,297.7986 V,0,157557,161639,26.4288,0.1586,26.7517,0.1605 MX,0,159828,167082,297.7986,305.8802 V,0,161639,166385,26.7517,0.1605,27.4023,0.1644 V,0,166385,169717,27.4023,0.1644,28.0577,0.1683 MX,0,167082,172310,305.8802,314.024 V,0,169717,172385,28.0577,0.1683,28.7178,0.1723 MY,0,171507,178107,402.0267,416.3855 MX,0,172310,177935,314.024,325.2809 V,0,172385,174635,28.7178,0.1723,29.3806,0.1763 V,0,174635,178128,29.3806,0.1763,30.633,0.1838 F,0,177624,177935,0.9,0.7144 MX,0,177935,178139,325.2809,324.7233 F,0,177935,178171,0.7144,0.327 MY,0,178107,178310,416.3855,413.8558 V,0,178128,178310,30.633,0.1838,30.2052,0.1812 MX,0,178139,178224,324.7233,203.319 F,0,178171,178310,0.327,0 MX,0,178224,178310,203.319,84.6244 R,0,178299,178310,0
Sprite,Background,Centre,"sb/b.png",320,240 R,0,153453,153464,0 F,0,153453,153614,0,0.4219 MX,0,153453,153624,918.7882,550.2762 MY,0,153453,157128,363.3817,371.0781 V,0,153453,178010,46.0471,0.2763,46.8913,0.2813 C,0,153464,178310,25,25,25 F,0,153614,177892,0.4219,0.381 MX,0,153624,158489,550.2762,551.2848 MY,0,157128,161649,371.0781,379.2587 MX,0,158489,163010,551.2848,555.3309 MY,0,161649,167274,379.2587,387.391 MX,0,163010,168067,555.3309,563.4543 MY,0,167274,170885,387.391,391.4204 MX,0,168067,171699,563.4543,571.6619 MY,0,170885,177614,391.4204,396.4684 MX,0,171699,174678,571.6619,579.8896 MX,0,174678,178032,579.8896,590.7842 MY,0,177614,178192,396.4684,395.4442 F,0,177892,178310,0.381,0 V,0,178010,178149,46.8913,0.2813,46.8171,0.2809 MX,0,178032,178139,590.7842,589.571 MX,0,178139,178182,589.571,494.9246 V,0,178149,178310,46.8171,0.2809,45.7417,0.2745 MX,0,178182,178224,494.9246,401.45 MY,0,178192,178310,395.4442,392.7196 MX,0,178224,178267,401.45,309.1317 MX,0,178267,178310,309.1317,219.4643 R,0,178299,178310,0
//Storyboard Layer 1 (Fail)
//Storyboard Layer 2 (Pass)
//Storyboard Layer 3 (Foreground)
Sprite,Foreground,Centre,"sb/font/004c.png",320,240 R,0,21796,21807,0 V,0,21796,21807,0.3681,0.3681 MY,0,21796,21860,387.226,385.2028 F,0,21796,21967,0,0.7 MX,0,21796,99025,452.2005,415.9323 V,0,21828,99025,0.3681,0.3681,0.3707,0.3707 MY,0,21860,21903,385.2028,381.5618 MY,0,21903,21967,381.5618,372.6593 C,0,21967,21978,255,255,255,254,254,254 MY,0,21967,36753,372.6593,380.7036 C,0,22021,22032,254,254,254,253,253,253 C,0,22075,22085,253,253,253,252,252,252 C,0,22128,22139,252,252,252,251,251,251 C,0,22182,22192,251,251,251,250,250,250 C,0,22235,22246,250,250,250,249,249,249 C,0,22289,22300,249,249,249,248,248,248 C,0,22342,22353,248,248,248,247,247,247 C,0,22396,22407,247,247,247,246,246,246 C,0,22450,22460,246,246,246,245,245,245 C,0,22503,22514,245,245,245,244,244,244 C,0,22557,22567,244,244,244,243,243,243 C,0,22610,22621,243,243,243,242,242,242 C,0,22664,22675,242,242,242,241,241,241 C,0,22717,22728,241,241,241,240,240,240 C,0,22771,22782,240,240,240,239,239,239 C,0,22825,22835,239,239,239,238,238,238 C,0,22878,22889,238,238,238,237,237,237 C,0,22932,22942,237,237,237,236,236,236 C,0,22985,22996,236,236,236,235,235,235 C,0,23039,23050,235,235,235,234,234,234 C,0,23092,23103,234,234,234,233,233,233 C,0,23146,23157,233,233,233,232,232,232 C,0,23200,23210,232,232,232,231,231,231 C,0,23253,23264,231,231,231,230,230,230 C,0,23307,23317,230,230,230,229,229,229 MY,0,36753,56307,380.7036,388.735 MY,0,56307,70792,388.735,392.7477 MY,0,70792,82300,392.7477,394.7509 MY,0,82300,98885,394.7509,396.3107 F,0,98842,99025,0.7,0 MY,0,98885,98939,396.3107,399.4982 MY,0,98939,98982,399.4982,404.1289 MY,0,98982,99025,404.1289,410.5838 R,0,99014,99025,0
Sprite,Foreground,Centre,"sb/font/0069.png",320,240 R,0,21796,21807,0 V,0,21796,21807,0.3681,0.3681 MY,0,21796,21860,387.226,385.2029 F,0,21796,21967,0,0.7 MX,0,21796,99025,472.0858,436.0905 V,0,21828,99025,0.3681,0.3681,0.3713,0.3713 MY,0,21860,21903,385.2029,381.5621 MY,0,21903,21967,381.5621,372.6598 C,0,21967,21978,255,255,255,254,254,254 MY,0,21967,36678,372.6598,380.7062 C,0,22021,22032,254,254,254,253,253,253 C,0,22075,22085,253,253,253,252,252,252 C,0,22128,22139,252,252,252,251,251,251 C,0,22182,22192,251,251,251,250,250,250 C,0,22235,22246,250,250,250,249,249,249 C,0,22289,22300,249,249,249,248,248,248 C,0,22342,22353,248,248,248,247,247,247 C,0,22396,22407,247,247,247,246,246,246 C,0,22450,22460,246,246,246,245,245,245 C,0,22503,22514,245,245,245,244,244,244 C,0,22557,22567,244,244,244,243,243,243 C,0,22610,22621,243,243,243,242,242,242 C,0,22664,22675,242,242,242,241,241,241 C,0,22717,22728,241,241,241,240,240,240 C,0,22771,22782,240,240,240,239,239,239 C,0,22825,22835,239,239,239,238,238,238 C,0,22878,22889,238,238,238,237,237,237 C,0,22932,22942,237,237,237,236,236,236 C,0,22985,22996,236,236,236,235,235,235 C,0,23039,23050,235,235,235,234,234,234 C,0,23092,23103,234,234,234,233,233,233 C,0,23146,23157,233,233,233,232,232,232 C,0,23200,23210,232,232,232,231,231,231 C,0,23253,23264,231,231,231,230,230,230 C,0,23307,23317,230,230,230,229,229,229 MY,0,36678,56071,380.7062,388.7489 MY,0,56071,70257,388.7489,392.7628 MY,0,70257,81164,392.7628,394.7664 MY,0,81164,98885,394.7664,396.5319 F,0,98842,99025,0.7,0 MY,0,98885,98939,396.5319,399.7239 MY,0,98939,98982,399.7239,404.3611 MY,0,98982,99025,404.3611,410.8248 R,0,99014,99025,0
Sprite,Foreground,Centre,"sb/font/0069.png",320,240 R,0,21796,21807,0 V,0,21796,21807,0.3681,0.3681 MY,0,21796,21860,387.226,385.203 F,0,21796,21967,0,0.7 MX,0,21796,99025,480.1872,444.3187 V,0,21828,99025,0.3681,0.3681,0.3715,0.3715 MY,0,21860,21903,385.203,381.5622 MY,0,21903,21967,381.5622,372.66 C,0,21967,21978,255,255,255,254,254,254 MY,0,21967,36678,372.66,380.7222 C,0,22021,22032,254,254,254,253,253,253 C,0,22075,22085,253,253,253,252,252,252 C,0,22128,22139,252,252,252,251,251,251 C,0,22182,22192,251,251,251,250,250,250 C,0,22235,22246,250,250,250,249,249,249 C,0,22289,22300,249,249,249,248,248,248 C,0,22342,22353,248,248,248,247,247,247 C,0,22396,22407,247,247,247,246,246,246 C,0,22450,22460,246,246,246,245,245,245 C,0,22503,22514,245,245,245,244,244,244 C,0,22557,22567,244,244,244,243,243,243 C,0,22610,22621,243,243,243,242,242,242 C,0,22664,22675,242,242,242,241,241,241 C,0,22717,22728,241,241,241,240,240,240 C,0,22771,22782,240,240,240,239,239,239 C,0,22825,22835,239,239,239,238,238,238 C,0,22878,22889,238,238,238,237,237,237 C,0,22932,22942,237,237,237,236,236,236 C,0,22985,22996,236,236,236,235,235,235 C,0,23039,23050,235,235,235,234,234,234 C,0,23092,23103,234,234,234,233,233,233 C,0,23146,23157,233,233,233,232,232,232 C,0,23200,23210,232,232,232,231,231,231 C,0,23253,23264,231,231,231,230,230,230 C,0,23307,23317,230,230,230,229,229,229 MY,0,36678,55975,380.7222,388.7539 MY,0,55975,70032,388.7539,392.7659 MY,0,70032,80714,392.7659,394.7697 MY,0,80714,98875,394.7697,396.331 F,0,98842,99025,0.7,0 MY,0,98875,98928,396.331,398.9456 MY,0,98928,98971,398.9456,403.1221 MY,0,98971,99025,403.1221,410.9232 R,0,99014,99025,0
Sprite,Foreground,Centre,"sb/font/0072.png",320,240 R,0,21796,21807,0 V,0,21796,21807,0.3681,0.3681 MY,0,21796,21860,387.226,385.2031 F,0,21796,21967,0,0.7 MX,0,21796,99025,494.1805,458.5527 V,0,21828,99025,0.3681,0.3681,0.3718,0.3718 MY,0,21860,21903,385.2031,381.5624 MY,0,21903,21967,381.5624,372.6602 C,0,21967,21978,255,255,255,254,254,254 MY,0,21967,36582,372.6602,380.7021 C,0,22021,22032,254,254,254,253,253,253 C,0,22075,22085,253,253,253,252,252,252 C,0,22128,22139,252,252,252,251,251,251 C,0,22182,22192,251,251,251,250,250,250 C,0,22235,22246,250,250,250,249,249,249 C,0,22289,22300,249,249,249,248,248,248 C,0,22342,22353,248,248,248,247,247,247 C,0,22396,22407,247,247,247,246,246,246 C,0,22450,22460,246,246,246,245,245,245 C,0,22503,22514,245,245,245,244,244,244 C,0,22557,22567,244,244,244,243,243,243 C,0,22610,22621,243,243,243,242,242,242 C,0,22664,22675,242,242,242,241,241,241 C,0,22717,22728,241,241,241,240,240,240 C,0,22771,22782,240,240,240,239,239,239 C,0,22825,22835,239,239,239,238,238,238 C,0,22878,22889,238,238,238,237,237,237 C,0,22932,22942,237,237,237,236,236,236 C,0,22985,22996,236,236,236,235,235,235 C,0,23039,23050,235,235,235,234,234,234 C,0,23092,23103,234,234,234,233,233,233 C,0,23146,23157,233,233,233,232,232,232 C,0,23200,23210,232,232,232,231,231,231 C,0,23253,23264,231,231,231,230,230,230 C,0,23307,23317,230,230,230,229,229,229 MY,0,36582,55771,380.7021,388.7493 MY,0,55771,69592,388.7493,392.7572 MY,0,69592,79878,392.7572,394.7602 MY,0,79878,98864,394.7602,396.3114 F,0,98842,99025,0.7,0 MY,0,98864,98928,396.3114,399.1041 MY,0,98928,98971,399.1041,403.2848 MY,0,98971,99025,403.2848,411.0933 R,0,99014,99025,0
Sprite,Foreground,Centre,"sb/font/0061.png",320,240 R,0,21796,21807,0 V,0,21796,21807,0.3681,0.3681 MY,0,21796,21860,387.226,385.2033 F,0,21796,21967,0,0.7 MX,0,21796,57346,515.5389,499.9598 V,0,21828,99025,0.3681,0.3681,0.3724,0.3724 MY,0,21860,21903,385.2033,381.5627 MY,0,21903,21967,381.5627,372.6607 C,0,21967,21978,255,255,255,254,254,254 MY,0,21967,36517,372.6607,380.712 C,0,22021,22032,254,254,254,253,253,253 C,0,22075,22085,253,253,253,252,252,252 C,0,22128,22139,252,252,252,251,251,251 C,0,22182,22192,251,251,251,250,250,250 C,0,22235,22246,250,250,250,249,249,249 C,0,22289,22300,249,249,249,248,248,248 C,0,22342,22353,248,248,248,247,247,247 C,0,22396,22407,247,247,247,246,246,246 C,0,22450,22460,246,246,246,245,245,245 C,0,22503,22514,245,245,245,244,244,244 C,0,22557,22567,244,244,244,243,243,243 C,0,22610,22621,243,243,243,242,242,242 C,0,22664,22675,242,242,242,241,241,241 C,0,22717,22728,241,241,241,240,240,240 C,0,22771,22782,240,240,240,239,239,239 C,0,22825,22835,239,239,239,238,238,238 C,0,22878,22889,238,238,238,237,237,237 C,0,22932,22942,237,237,237,236,236,236 C,0,22985,22996,236,236,236,235,235,235 C,0,23039,23050,235,235,235,234,234,234 C,0,23092,23103,234,234,234,233,233,233 C,0,23146,23157,233,233,233,232,232,232 C,0,23200,23210,232,232,232,231,231,231 C,0,23253,23264,231,231,231,230,230,230 C,0,23307,23317,230,230,230,229,229,229 MY,0,36517,55492,380.712,388.7512 MY,0,55492,69025,388.7512,392.7627 MX,0,57346,99025,499.9598,480.3306 MY,0,69025,78817,392.7627,394.7643 MY,0,78817,98885,394.7643,397.0175 F,0,98842,99025,0.7,0 MY,0,98885,98939,397.0175,400.2193 MY,0,98939,98982,400.2193,404.8705 MY,0,98982,99025,404.8705,411.3536 R,0,99014,99025,0
Sprite,Foreground,Centre,"sb/font/0079.png",320,240 R,0,21796,21807,0 V,0,21796,21807,0.3681,0.3681 MY,0,21796,21860,387.226,385.2035 F,0,21796,21967,0,0.7 MX,0,21796,58032,537.6337,522.0549 V,0,21828,99025,0.3681,0.3681,0.3729,0.3729 MY,0,21860,21903,385.2035,381.563 MY,0,21903,21967,381.563,372.6612 C,0,21967,21978,255,255,255,254,254,254 MY,0,21967,36432,372.6612,380.7122 C,0,22021,22032,254,254,254,253,253,253 C,0,22075,22085,253,253,253,252,252,252 C,0,22128,22139,252,252,252,251,251,251 C,0,22182,22192,251,251,251,250,250,250 C,0,22235,22246,250,250,250,249,249,249 C,0,22289,22300,249,249,249,248,248,248 C,0,22342,22353,248,248,248,247,247,247 C,0,22396,22407,247,247,247,246,246,246 C,0,22450,22460,246,246,246,245,245,245 C,0,22503,22514,245,245,245,244,244,244 C,0,22557,22567,244,244,244,243,243,243 C,0,22610,22621,243,243,243,242,242,242 C,0,22664,22675,242,242,242,241,241,241 C,0,22717,22728,241,241,241,240,240,240 C,0,22771,22782,240,240,240,239,239,239 C,0,22825,22835,239,239,239,238,238,238 C,0,22878,22889,238,238,238,237,237,237 C,0,22932,22942,237,237,237,236,236,236 C,0,22985,22996,236,236,236,235,235,235 C,0,23039,23050,235,235,235,234,234,234 C,0,23092,23103,234,234,234,233,233,233 C,0,23146,23157,233,233,233,232,232,232 C,0,23200,23210,232,232,232,231,231,231 C,0,23253,23264,231,231,231,230,230,230 C,0,23307,23317,230,230,230,229,229,229 MY,0,36432,55203,380.7122,388.7505 MY,0,55203,77832,388.7505,394.772 MX,0,58032,99025,522.0549,502.9264 MY,0,77832,98864,394.772,396.7968 F,0,98842,99025,0.7,0 MY,0,98864,98928,396.7968,399.5983 MY,0,98928,98971,399.5983,403.7916 MY,0,98971,99025,403.7916,411.6237 R,0,99014,99025,0
Sprite,Foreground,Centre,"sb/font/0065.png",320,240 R,0,21796,21807,0 V,0,21796,21807,0.3681,0.3681 MY,0,21796,21860,387.226,385.2037 F,0,21796,21967,0,0.7 MX,0,21796,58685,556.4142,540.8367 V,0,21828,99025,0.3681,0.3681,0.3734,0.3734 MY,0,21860,21903,385.2037,381.5633 MY,0,21903,21967,381.5633,372.6616 C,0,21967,21978,255,255,255,254,254,254 MY,0,21967,36335,372.6616,380.7 C,0,22021,22032,254,254,254,253,253,253 C,0,22075,22085,253,253,253,252,252,252 C,0,22128,22139,252,252,252,251,251,251 C,0,22182,22192,251,251,251,250,250,250 C,0,22235,22246,250,250,250,249,249,249 C,0,22289,22300,249,249,249,248,248,248 C,0,22342,22353,248,248,248,247,247,247 C,0,22396,22407,247,247,247,246,246,246 C,0,22450,22460,246,246,246,245,245,245 C,0,22503,22514,245,245,245,244,244,244 C,0,22557,22567,244,244,244,243,243,243 C,0,22610,22621,243,243,243,242,242,242 C,0,22664,22675,242,242,242,241,241,241 C,0,22717,22728,241,241,241,240,240,240 C,0,22771,22782,240,240,240,239,239,239 C,0,22825,22835,239,239,239,238,238,238 C,0,22878,22889,238,238,238,237,237,237 C,0,22932,22942,237,237,237,236,236,236 C,0,22985,22996,236,236,236,235,235,235 C,0,23039,23050,235,235,235,234,234,234 C,0,23092,23103,234,234,234,233,233,233 C,0,23146,23157,233,233,233,232,232,232 C,0,23200,23210,232,232,232,231,231,231 C,0,23253,23264,231,231,231,230,230,230 C,0,23307,23317,230,230,230,229,229,229 MY,0,36335,54914,380.7,388.7325 MY,0,54914,76889,388.7325,394.748 MX,0,58685,99025,540.8367,522.1866 MY,0,76889,98885,394.748,397.4768 F,0,98842,99025,0.7,0 MY,0,98885,98939,397.4768,400.6879 MY,0,98939,98982,400.6879,405.3524 MY,0,98982,99025,405.3524,411.8539 R,0,99014,99025,0
Sprite,Foreground,Centre,"sb/font/004c.png",320,240 R,0,21796,21807,0 V,0,21796,21807,0.3681,0.3681 MY,0,21796,21860,387.226,385.2028 F,0,21796,21967,0,0.7 MX,0,21796,99025,452.2005,415.9323 P,0,21807,99025,A V,0,21828,99025,0.3681,0.3681,0.3707,0.3707 MY,0,21860,21903,385.2028,381.5618 MY,0,21903,21967,381.5618,372.6593 C,0,21967,21978,255,255,255,254,254,254 MY,0,21967,36753,372.6593,380.7036 C,0,22021,22032,254,254,254,253,253,253 C,0,22075,22085,253,253,253,252,252,252 C,0,22128,22139,252,252,252,251,251,251 C,0,22182,22192,251,251,251,250,250,250 C,0,22235,22246,250,250,250,249,249,249 C,0,22289,22300,249,249,249,248,248,248 C,0,22342,22353,248,248,248,247,247,247 C,0,22396,22407,247,247,247,246,246,246 C,0,22450,22460,246,246,246,245,245,245 C,0,22503,22514,245,245,245,244,244,244 C,0,22557,22567,244,244,244,243,243,243 C,0,22610,22621,243,243,243,242,242,242 C,0,22664,22675,242,242,242,241,241,241 C,0,22717,22728,241,241,241,240,240,240 C,0,22771,22782,240,240,240,239,239,239 C,0,22825,22835,239,239,239,238,238,238 C,0,22878,22889,238,238,238,237,237,237 C,0,22932,22942,237,237,237,236,236,236 C,0,22985,22996,236,236,236,235,235,235 C,0,23039,23050,235,235,235,234,234,234 C,0,23092,23103,234,234,234,233,233,233 C,0,23146,23157,233,233,233,232,232,232 C,0,23200,23210,232,232,232,231,231,231 C,0,23253,23264,231,231,231,230,230,230 C,0,23307,23317,230,230,230,229,229,229 MY,0,36753,56307,380.7036,388.735 MY,0,56307,70792,388.735,392.7477 MY,0,70792,82300,392.7477,394.7509 MY,0,82300,98885,394.7509,396.3107 F,0,98842,99025,0.7,0 MY,0,98885,98939,396.3107,399.4982 MY,0,98939,98982,399.4982,404.1289 MY,0,98982,99025,404.1289,410.5838 R,0,99014,99025,0
Sprite,Foreground,Centre,"sb/font/0069.png",320,240 R,0,21796,21807,0 V,0,21796,21807,0.3681,0.3681 MY,0,21796,21860,387.226,385.2029 F,0,21796,21967,0,0.7 MX,0,21796,99025,472.0858,436.0905 P,0,21807,99025,A V,0,21828,99025,0.3681,0.3681,0.3713,0.3713 MY,0,21860,21903,385.2029,381.5621 MY,0,21903,21967,381.5621,372.6598 C,0,21967,21978,255,255,255,254,254,254 MY,0,21967,36678,372.6598,380.7062 C,0,22021,22032,254,254,254,253,253,253 C,0,22075,22085,253,253,253,252,252,252 C,0,22128,22139,252,252,252,251,251,251 C,0,22182,22192,251,251,251,250,250,250 C,0,22235,22246,250,250,250,249,249,249 C,0,22289,22300,249,249,249,248,248,248 C,0,22342,22353,248,248,248,247,247,247 C,0,22396,22407,247,247,247,246,246,246 C,0,22450,22460,246,246,246,245,245,245 C,0,22503,22514,245,245,245,244,244,244 C,0,22557,22567,244,244,244,243,243,243 C,0,22610,22621,243,243,243,242,242,242 C,0,22664,22675,242,242,242,241,241,241 C,0,22717,22728,241,241,241,240,240,240 C,0,22771,22782,240,240,240,239,239,239 C,0,22825,22835,239,239,239,238,238,238 C,0,22878,22889,238,238,238,237,237,237 C,0,22932,22942,237,237,237,236,236,236 C,0,22985,22996,236,236,236,235,235,235 C,0,23039,23050,235,235,235,234,234,234 C,0,23092,23103,234,234,234,233,233,233 C,0,23146,23157,233,233,233,232,232,232 C,0,23200,23210,232,232,232,231,231,231 C,0,23253,23264,231,231,231,230,230,230 C,0,23307,23317,230,230,230,229,229,229 MY,0,36678,56071,380.7062,388.7489 MY,0,56071,70257,388.7489,392.7628 MY,0,70257,81164,392.7628,394.7664 MY,0,81164,98885,394.7664,396.5319 F,0,98842,99025,0.7,0 MY,0,98885,98939,396.5319,399.7239 MY,0,98939,98982,399.7239,404.3611 MY,0,98982,99025,404.3611,410.8248 R,0,99014,99025,0
Sprite,Foreground,Centre,"sb/font/0069.png",320,240 R,0,21796,21807,0 V,0,21796,21807,0.3681,0.3681 MY,0,21796,21860,387.226,385.203 F,0,21796,21967,0,0.7 MX,0,21796,99025,480.1872,444.3187 P,0,21807,99025,A V,0,21828,99025,0.3681,0.3681,0.3715,0.3715 MY,0,21860,21903,385.203,381.5622 MY,0,21903,21967,381.5622,372.66 C,0,21967,21978,255,255,255,254,254,254 MY,0,21967,36678,372.66,380.7222 C,0,22021,22032,254,254,254,253,253,253 C,0,22075,22085,253,253,253,252,252,252 C,0,22128,22139,252,252,252,251,251,251 C,0,22182,22192,251,251,251,250,250,250 C,0,22235,22246,250,250,250,249,249,249 C,0,22289,22300,249,249,249,248,248,248 C,0,22342,22353,248,248,248,247,247,247 C,0,22396,22407,247,247,247,246,246,246 C,0,22450,22460,246,246,246,245,245,245 C,0,22503,22514,245,245,245,244,244,244 C,0,22557,22567,244,244,244,243,243,243 C,0,22610,22621,243,243,243,242,242,242 C,0,22664,22675,242,242,242,241,241,241 C,0,22717,22728,241,241,241,240,240,240 C,0,22771,22782,240,240,240,239,239,239 C,0,22825,22835,239,239,239,238,238,238 C,0,22878,22889,238,238,238,237,237,237 C,0,22932,22942,237,237,237,236,236,236 C,0,22985,22996,236,236,236,235,235,235 C,0,23039,23050,235,235,235,234,234,234 C,0,23092,23103,234,234,234,233,233,233 C,0,23146,23157,233,233,233,232,232,232 C,0,23200,23210,232,232,232,231,231,231 C,0,23253,23264,231,231,231,230,230,230 C,0,23307,23317,230,230,230,229,229,229 MY,0,36678,55975,380.7222,388.7539 MY,0,55975,70032,388.7539,392.7659 MY,0,70032,80714,392.7659,394.7697 MY,0,80714,98875,394.7697,396.331 F,0,98842,99025,0.7,0 MY,0,98875,98928,396.331,398.9456 MY,0,98928,98971,398.9456,403.1221 MY,0,98971,99025,403.1221,410.9232 R,0,99014,99025,0
Sprite,Foreground,Centre,"sb/font/0072.png",320,240 R,0,21796,21807,0 V,0,21796,21807,0.3681,0.3681 MY,0,21796,21860,387.226,385.2031 F,0,21796,21967,0,0.7 MX,0,21796,99025,494.1805,458.5527 P,0,21807,99025,A V,0,21828,99025,0.3681,0.3681,0.3718,0.3718 MY,0,21860,21903,385.2031,381.5624 MY,0,21903,21967,381.5624,372.6602 C,0,21967,21978,255,255,255,254,254,254 MY,0,21967,36582,372.6602,380.7021 C,0,22021,22032,254,254,254,253,253,253 C,0,22075,22085,253,253,253,252,252,252 C,0,22128,22139,252,252,252,251,251,251 C,0,22182,22192,251,251,251,250,250,250 C,0,22235,22246,250,250,250,249,249,249 C,0,22289,22300,249,249,249,248,248,248 C,0,22342,22353,248,248,248,247,247,247 C,0,22396,22407,247,247,247,246,246,246 C,0,22450,22460,246,246,246,245,245,245 C,0,22503,22514,245,245,245,244,244,244 C,0,22557,22567,244,244,244,243,243,243 C,0,22610,22621,243,243,243,242,242,242 C,0,22664,22675,242,242,242,241,241,241 C,0,22717,22728,241,241,241,240,240,240 C,0,22771,22782,240,240,240,239,239,239 C,0,22825,22835,239,239,239,238,238,238 C,0,22878,22889,238,238,238,237,237,237 C,0,22932,22942,237,237,237,236,236,236 C,0,22985,22996,236,236,236,235,235,235 C,0,23039,23050,235,235,235,234,234,234 C,0,23092,23103,234,234,234,233,233,233 C,0,23146,23157,233,233,233,232,232,232 C,0,23200,23210,232,232,232,231,231,231 C,0,23253,23264,231,231,231,230,230,230 C,0,23307,23317,230,230,230,229,229,229 MY,0,36582,55771,380.7021,388.7493 MY,0,55771,69592,388.7493,392.7572 MY,0,69592,79878,392.7572,394.7602 MY,0,79878,98864,394.7602,396.3114 F,0,98842,99025,0.7,0 MY,0,98864,98928,396.3114,399.1041 MY,0,98928,98971,399.1041,403.2848 MY,0,98971,99025,403.2848,411.0933 R,0,99014,99025,0
Sprite,Foreground,Centre,"sb/font/0061.png",320,240 R,0,21796,21807,0 V,0,21796,21807,0.3681,0.3681 MY,0,21796,21860,387.226,385.2033 F,0,21796,21967,0,0.7 MX,0,21796,57346,515.5389,499.9598 P,0,21807,99025,A V,0,21828,99025,0.3681,0.3681,0.3724,0.3724 MY,0,21860,21903,385.2033,381.5627 MY,0,21903,21967,381.5627,372.6607 C,0,21967,21978,255,255,255,254,254,254 MY,0,21967,36517,372.6607,380.712 C,0,22021,22032,254,254,254,253,253,253 C,0,22075,22085,253,253,253,252,252,252 C,0,22128,22139,252,252,252,251,251,251 C,0,22182,22192,251,251,251,250,250,250 C,0,22235,22246,250,250,250,249,249,249 C,0,22289,22300,249,249,249,248,248,248 C,0,22342,22353,248,248,248,247,247,247 C,0,22396,22407,247,247,247,246,246,246 C,0,22450,22460,246,246,246,245,245,245 C,0,22503,22514,245,245,245,244,244,244 C,0,22557,22567,244,244,244,243,243,243 C,0,22610,22621,243,243,243,242,242,242 C,0,22664,22675,242,242,242,241,241,241 C,0,22717,22728,241,241,241,240,240,240 C,0,22771,22782,240,240,240,239,239,239 C,0,22825,22835,239,239,239,238,238,238 C,0,22878,22889,238,238,238,237,237,237 C,0,22932,22942,237,237,237,236,236,236 C,0,22985,22996,236,236,236,235,235,235 C,0,23039,23050,235,235,235,234,234,234 C,0,23092,23103,234,234,234,233,233,233 C,0,23146,23157,233,233,233,232,232,232 C,0,23200,23210,232,232,232,231,231,231 C,0,23253,23264,231,231,231,230,230,230 C,0,23307,23317,230,230,230,229,229,229 MY,0,36517,55492,380.712,388.7512 MY,0,55492,69025,388.7512,392.7627 MX,0,57346,99025,499.9598,480.3306 MY,0,69025,78817,392.7627,394.7643 MY,0,78817,98885,394.7643,397.0175 F,0,98842,99025,0.7,0 MY,0,98885,98939,397.0175,400.2193 MY,0,98939,98982,400.2193,404.8705 MY,0,98982,99025,404.8705,411.3536 R,0,99014,99025,0
Sprite,Foreground,Centre,"sb/font/0079.png",320,240 R,0,21796,21807,0 V,0,21796,21807,0.3681,0.3681 MY,0,21796,21860,387.226,385.2035 F,0,21796,21967,0,0.7 MX,0,21796,58032,537.6337,522.0549 P,0,21807,99025,A V,0,21828,99025,0.3681,0.3681,0.3729,0.3729 MY,0,21860,21903,385.2035,381.563 MY,0,21903,21967,381.563,372.6612 C,0,21967,21978,255,255,255,254,254,254 MY,0,21967,36432,372.6612,380.7122 C,0,22021,22032,254,254,254,253,253,253 C,0,22075,22085,253,253,253,252,252,252 C,0,22128,22139,252,252,252,251,251,251 C,0,22182,22192,251,251,251,250,250,250 C,0,22235,22246,250,250,250,249,249,249 C,0,22289,22300,249,249,249,248,248,248 C,0,22342,22353,248,248,248,247,247,247 C,0,22396,22407,247,247,247,246,246,246 C,0,22450,22460,246,246,246,245,245,245 C,0,22503,22514,245,245,245,244,244,244 C,0,22557,22567,244,244,244,243,243,243 C,0,22610,22621,243,243,243,242,242,242 C,0,22664,22675,242,242,242,241,241,241 C,0,22717,22728,241,241,241,240,240,240 C,0,22771,22782,240,240,240,239,239,239 C,0,22825,22835,239,239,239,238,238,238 C,0,22878,22889,238,238,238,237,237,237 C,0,22932,22942,237,237,237,236,236,236 C,0,22985,22996,236,236,236,235,235,235 C,0,23039,23050,235,235,235,234,234,234 C,0,23092,23103,234,234,234,233,233,233 C,0,23146,23157,233,233,233,232,232,232 C,0,23200,23210,232,232,232,231,231,231 C,0,23253,23264,231,231,231,230,230,230 C,0,23307,23317,230,230,230,229,229,229 MY,0,36432,55203,380.7122,388.7505 MY,0,55203,77832,388.7505,394.772 MX,0,58032,99025,522.0549,502.9264 MY,0,77832,98864,394.772,396.7968 F,0,98842,99025,0.7,0 MY,0,98864,98928,396.7968,399.5983 MY,0,98928,98971,399.5983,403.7916 MY,0,98971,99025,403.7916,411.6237 R,0,99014,99025,0
Sprite,Foreground,Centre,"sb/font/0065.png",320,240 R,0,21796,21807,0 V,0,21796,21807,0.3681,0.3681 MY,0,21796,21860,387.226,385.2037 F,0,21796,21967,0,0.7 MX,0,21796,58685,556.4142,540.8367 P,0,21807,99025,A V,0,21828,99025,0.3681,0.3681,0.3734,0.3734 MY,0,21860,21903,385.2037,381.5633 MY,0,21903,21967,381.5633,372.6616 C,0,21967,21978,255,255,255,254,254,254 MY,0,21967,36335,372.6616,380.7 C,0,22021,22032,254,254,254,253,253,253 C,0,22075,22085,253,253,253,252,252,252 C,0,22128,22139,252,252,252,251,251,251 C,0,22182,22192,251,251,251,250,250,250 C,0,22235,22246,250,250,250,249,249,249 C,0,22289,22300,249,249,249,248,248,248 C,0,22342,22353,248,248,248,247,247,247 C,0,22396,22407,247,247,247,246,246,246 C,0,22450,22460,246,246,246,245,245,245 C,0,22503,22514,245,245,245,244,244,244 C,0,22557,22567,244,244,244,243,243,243 C,0,22610,22621,243,243,243,242,242,242 C,0,22664,22675,242,242,242,241,241,241 C,0,22717,22728,241,241,241,240,240,240 C,0,22771,22782,240,240,240,239,239,239 C,0,22825,22835,239,239,239,238,238,238 C,0,22878,22889,238,238,238,237,237,237 C,0,22932,22942,237,237,237,236,236,236 C,0,22985,22996,236,236,236,235,235,235 C,0,23039,23050,235,235,235,234,234,234 C,0,23092,23103,234,234,234,233,233,233 C,0,23146,23157,233,233,233,232,232,232 C,0,23200,23210,232,232,232,231,231,231 C,0,23253,23264,231,231,231,230,230,230 C,0,23307,23317,230,230,230,229,229,229 MY,0,36335,54914,380.7,388.7325 MY,0,54914,76889,388.7325,394.748 MX,0,58685,99025,540.8367,522.1866 MY,0,76889,98885,394.748,397.4768 F,0,98842,99025,0.7,0 MY,0,98885,98939,397.4768,400.6879 MY,0,98939,98982,400.6879,405.3524 MY,0,98982,99025,405.3524,411.8539 R,0,99014,99025,0
Sprite,Foreground,Centre,"sb/font/0053.png",320,240 R,0,98853,98864,0 V,0,98853,98864,0.3681,0.3681 MY,0,98853,98896,387.226,386.432 F,0,98853,99024,0,0.7 MX,0,98853,115224,454.41,418.1693 V,0,98874,115224,0.3681,0.3681,0.3708,0.3708 MY,0,98896,98949,386.432,382.8603 MY,0,98949,98992,382.8603,377.9382 MY,0,98992,99024,377.9382,373.041 C,0,99024,99035,255,255,255,254,254,254 MY,0,99024,102260,373.041,381.247 C,0,99078,99089,254,254,254,253,253,253 C,0,99132,99142,253,253,253,252,252,252 C,0,99185,99196,252,252,252,251,251,251 C,0,99239,99249,251,251,251,250,250,250 C,0,99292,99303,250,250,250,249,249,249 C,0,99346,99357,249,249,249,248,248,248 C,0,99399,99410,248,248,248,247,247,247 C,0,99453,99464,247,247,247,246,246,246 C,0,99507,99517,246,246,246,245,245,245 C,0,99560,99571,245,245,245,244,244,244 C,0,99614,99624,244,244,244,243,243,243 C,0,99667,99678,243,243,243,242,242,242 C,0,99721,99732,242,242,242,241,241,241 C,0,99774,99785,241,241,241,240,240,240 C,0,99828,99839,240,240,240,239,239,239 C,0,99882,99892,239,239,239,238,238,238 C,0,99935,99946,238,238,238,237,237,237 C,0,99989,99999,237,237,237,236,236,236 C,0,100042,100053,236,236,236,235,235,235 C,0,100096,100107,235,235,235,234,234,234 C,0,100149,100160,234,234,234,233,233,233 C,0,100203,100214,233,233,233,232,232,232 C,0,100257,100267,232,232,232,231,231,231 C,0,100310,100321,231,231,231,230,230,230 C,0,100364,100374,230,230,230,229,229,229 MY,0,102260,106599,381.247,389.4086 MY,0,106599,109953,389.4086,393.4576 MY,0,109953,115074,393.4576,396.0391 F,0,115053,115224,0.7,0 MY,0,115074,115128,396.0391,398.6425 MY,0,115128,115171,398.6425,402.8062 MY,0,115171,115224,402.8062,410.6106 R,0,115214,115224,0
Sprite,Foreground,Centre,"sb/font/0068.png",320,240 R,0,98853,98864,0 V,0,98853,98864,0.3681,0.3681 MY,0,98853,98896,387.226,386.4328 F,0,98853,99024,0,0.7 MX,0,98853,106332,480.5555,464.704 V,0,98874,115224,0.3681,0.3681,0.3715,0.3715 MY,0,98896,98949,386.4328,382.8619 MY,0,98949,98992,382.8619,377.9404 MY,0,98992,99024,377.9404,373.0437 C,0,99024,99035,255,255,255,254,254,254 MY,0,99024,102239,373.0437,381.2539 C,0,99078,99089,254,254,254,253,253,253 C,0,99132,99142,253,253,253,252,252,252 C,0,99185,99196,252,252,252,251,251,251 C,0,99239,99249,251,251,251,250,250,250 C,0,99292,99303,250,250,250,249,249,249 C,0,99346,99357,249,249,249,248,248,248 C,0,99399,99410,248,248,248,247,247,247 C,0,99453,99464,247,247,247,246,246,246 C,0,99507,99517,246,246,246,245,245,245 C,0,99560,99571,245,245,245,244,244,244 C,0,99614,99624,244,244,244,243,243,243 C,0,99667,99678,243,243,243,242,242,242 C,0,99721,99732,242,242,242,241,241,241 C,0,99774,99785,241,241,241,240,240,240 C,0,99828,99839,240,240,240,239,239,239 C,0,99882,99892,239,239,239,238,238,238 C,0,99935,99946,238,238,238,237,237,237 C,0,99989,99999,237,237,237,236,236,236 C,0,100042,100053,236,236,236,235,235,235 C,0,100096,100107,235,235,235,234,234,234 C,0,100149,100160,234,234,234,233,233,233 C,0,100203,100214,233,233,233,232,232,232 C,0,100257,100267,232,232,232,231,231,231 C,0,100310,100321,231,231,231,230,230,230 C,0,100364,100374,230,230,230,229,229,229 MY,0,102239,106514,381.2539,389.4084 MX,0,106332,115224,464.704,444.693 MY,0,106514,109749,389.4084,393.4559 MY,0,109749,115085,393.4559,396.6175 F,0,115053,115224,0.7,0 MY,0,115085,115139,396.6175,399.8057 MY,0,115139,115182,399.8057,404.4406 MY,0,115182,115224,404.4406,410.9276 R,0,115214,115224,0
Sprite,Foreground,Centre,"sb/font/0069.png",320,240 R,0,98853,98864,0 MY,0,98853,98896,387.226,386.4332 F,0,98853,99024,0,0.7 MX,0,98853,106428,495.2853,479.3889 V,0,98853,115224,0.3681,0.3681,0.3718,0.3718 MY,0,98896,98949,386.4332,382.8629 MY,0,98949,98992,382.8629,377.9418 MY,0,98992,99024,377.9418,373.0453 C,0,99024,99035,255,255,255,254,254,254 MY,0,99024,102217,373.0453,381.236 C,0,99078,99089,254,254,254,253,253,253 C,0,99132,99142,253,253,253,252,252,252 C,0,99185,99196,252,252,252,251,251,251 C,0,99239,99249,251,251,251,250,250,250 C,0,99292,99303,250,250,250,249,249,249 C,0,99346,99357,249,249,249,248,248,248 C,0,99399,99410,248,248,248,247,247,247 C,0,99453,99464,247,247,247,246,246,246 C,0,99507,99517,246,246,246,245,245,245 C,0,99560,99571,245,245,245,244,244,244 C,0,99614,99624,244,244,244,243,243,243 C,0,99667,99678,243,243,243,242,242,242 C,0,99721,99732,242,242,242,241,241,241 C,0,99774,99785,241,241,241,240,240,240 C,0,99828,99839,240,240,240,239,239,239 C,0,99882,99892,239,239,239,238,238,238 C,0,99935,99946,238,238,238,237,237,237 C,0,99989,99999,237,237,237,236,236,236 C,0,100042,100053,236,236,236,235,235,235 C,0,100096,100107,235,235,235,234,234,234 C,0,100149,100160,234,234,234,233,233,233 C,0,100203,100214,233,233,233,232,232,232 C,0,100257,100267,232,232,232,231,231,231 C,0,100310,100321,231,231,231,230,230,230 C,0,100364,100374,230,230,230,229,229,229 MY,0,102217,106471,381.236,389.4148 MX,0,106428,115224,479.3889,459.6776 MY,0,106471,109632,389.4148,393.4455 MY,0,109632,112278,393.4455,395.467 MY,0,112278,115074,395.467,396.4902 F,0,115053,115224,0.7,0 MY,0,115074,115128,396.4902,399.1024 MY,0,115128,115171,399.1024,403.2789 MY,0,115171,115224,403.2789,411.1068 R,0,115214,115224,0
Sprite,Foreground,Centre,"sb/font/006c.png",320,240 R,0,98853,98864,0 MY,0,98853,98896,387.226,386.4334 F,0,98853,99024,0,0.7 MX,0,98853,106471,503.3868,487.4952 V,0,98853,115224,0.3681,0.3681,0.372,0.372 MY,0,98896,98949,386.4334,382.8634 MY,0,98949,98992,382.8634,377.9424 MY,0,98992,99024,377.9424,373.0461 C,0,99024,99035,255,255,255,254,254,254 MY,0,99024,102217,373.0461,381.2531 C,0,99078,99089,254,254,254,253,253,253 C,0,99132,99142,253,253,253,252,252,252 C,0,99185,99196,252,252,252,251,251,251 C,0,99239,99249,251,251,251,250,250,250 C,0,99292,99303,250,250,250,249,249,249 C,0,99346,99357,249,249,249,248,248,248 C,0,99399,99410,248,248,248,247,247,247 C,0,99453,99464,247,247,247,246,246,246 C,0,99507,99517,246,246,246,245,245,245 C,0,99560,99571,245,245,245,244,244,244 C,0,99614,99624,244,244,244,243,243,243 C,0,99667,99678,243,243,243,242,242,242 C,0,99721,99732,242,242,242,241,241,241 C,0,99774,99785,241,241,241,240,240,240 C,0,99828,99839,240,240,240,239,239,239 C,0,99882,99892,239,239,239,238,238,238 C,0,99935,99946,238,238,238,237,237,237 C,0,99989,99999,237,237,237,236,236,236 C,0,100042,100053,236,236,236,235,235,235 C,0,100096,100107,235,235,235,234,234,234 C,0,100149,100160,234,234,234,233,233,233 C,0,100203,100214,233,233,233,232,232,232 C,0,100257,100267,232,232,232,231,231,231 C,0,100310,100321,231,231,231,230,230,230 C,0,100364,100374,230,230,230,229,229,229 MY,0,102217,106449,381.2531,389.4213 MY,0,106449,109610,389.4213,393.4815 MX,0,106471,115224,487.4952,467.9319 MY,0,109610,112214,393.4815,395.5052 MY,0,112214,115074,395.5052,396.5799 F,0,115053,115224,0.7,0 MY,0,115074,115128,396.5799,399.1939 MY,0,115128,115171,399.1939,403.3729 MY,0,115171,115224,403.3729,411.2054 R,0,115214,115224,0
Sprite,Foreground,Centre,"sb/font/006b.png",320,240 R,0,98853,98864,0 MY,0,98853,98896,387.226,386.4338 F,0,98853,99024,0,0.7 MX,0,98853,106535,517.3801,501.5305 V,0,98853,115224,0.3681,0.3681,0.3724,0.3724 MY,0,98896,98949,386.4338,382.8643 MY,0,98949,98992,382.8643,377.9437 MY,0,98992,99024,377.9437,373.0475 C,0,99024,99035,255,255,255,254,254,254 MY,0,99024,102217,373.0475,381.2825 C,0,99078,99089,254,254,254,253,253,253 C,0,99132,99142,253,253,253,252,252,252 C,0,99185,99196,252,252,252,251,251,251 C,0,99239,99249,251,251,251,250,250,250 C,0,99292,99303,250,250,250,249,249,249 C,0,99346,99357,249,249,249,248,248,248 C,0,99399,99410,248,248,248,247,247,247 C,0,99453,99464,247,247,247,246,246,246 C,0,99507,99517,246,246,246,245,245,245 C,0,99560,99571,245,245,245,244,244,244 C,0,99614,99624,244,244,244,243,243,243 C,0,99667,99678,243,243,243,242,242,242 C,0,99721,99732,242,242,242,241,241,241 C,0,99774,99785,241,241,241,240,240,240 C,0,99828,99839,240,240,240,239,239,239 C,0,99882,99892,239,239,239,238,238,238 C,0,99935,99946,238,238,238,237,237,237 C,0,99989,99999,237,237,237,236,236,236 C,0,100042,100053,236,236,236,235,235,235 C,0,100096,100107,235,235,235,234,234,234 C,0,100149,100160,234,234,234,233,233,233 C,0,100203,100214,233,233,233,232,232,232 C,0,100257,100267,232,232,232,231,231,231 C,0,100310,100321,231,231,231,230,230,230 C,0,100364,100374,230,230,230,229,229,229 MY,0,102217,106428,381.2825,389.4562 MY,0,106428,109557,389.4562,393.5262 MX,0,106535,115224,501.5305,482.211 MY,0,109557,112053,393.5262,395.5388 MY,0,112053,115064,395.5388,396.56 F,0,115053,115224,0.7,0 MY,0,115064,115128,396.56,399.3521 MY,0,115128,115171,399.3521,403.5356 MY,0,115171,115224,403.5356,411.3761 R,0,115214,115224,0
Sprite,Foreground,Centre,"sb/font/0065.png",320,240 R,0,98853,98864,0 MY,0,98853,98896,387.226,386.4343 F,0,98853,99024,0,0.7 MX,0,98853,106642,535.4242,519.5984 V,0,98853,115224,0.3681,0.3681,0.3729,0.3729 MY,0,98896,98949,386.4343,382.8654 MY,0,98949,98992,382.8654,377.9453 MY,0,98992,99024,377.9453,373.0495 C,0,99024,99035,255,255,255,254,254,254 MY,0,99024,102196,373.0495,381.2708 C,0,99078,99089,254,254,254,253,253,253 C,0,99132,99142,253,253,253,252,252,252 C,0,99185,99196,252,252,252,251,251,251 C,0,99239,99249,251,251,251,250,250,250 C,0,99292,99303,250,250,250,249,249,249 C,0,99346,99357,249,249,249,248,248,248 C,0,99399,99410,248,248,248,247,247,247 C,0,99453,99464,247,247,247,246,246,246 C,0,99507,99517,246,246,246,245,245,245 C,0,99560,99571,245,245,245,244,244,244 C,0,99614,99624,244,244,244,243,243,243 C,0,99667,99678,243,243,243,242,242,242 C,0,99721,99732,242,242,242,241,241,241 C,0,99774,99785,241,241,241,240,240,240 C,0,99828,99839,240,240,240,239,239,239 C,0,99882,99892,239,239,239,238,238,238 C,0,99935,99946,238,238,238,237,237,237 C,0,99989,99999,237,237,237,236,236,236 C,0,100042,100053,236,236,236,235,235,235 C,0,100096,100107,235,235,235,234,234,234 C,0,100149,100160,234,234,234,233,233,233 C,0,100203,100214,233,233,233,232,232,232 C,0,100257,100267,232,232,232,231,231,231 C,0,100310,100321,231,231,231,230,230,230 C,0,100364,100374,230,230,230,229,229,229 MY,0,102196,106353,381.2708,389.425 MY,0,106353,109407,389.425,393.4961 MX,0,106642,115224,519.5984,500.6638 MY,0,109407,115085,393.4961,397.2272 F,0,115053,115224,0.7,0 MY,0,115085,115139,397.2272,400.4295 MY,0,115139,115182,400.4295,405.0836 MY,0,115182,115224,405.0836,411.5966 R,0,115214,115224,0
Sprite,Foreground,Centre,"sb/font/0079.png",320,240 R,0,98853,98864,0 MY,0,98853,98896,387.226,386.4348 F,0,98853,99024,0,0.7 MX,0,98853,106792,554.2048,538.3499 V,0,98853,115224,0.3681,0.3681,0.3733,0.3733 MY,0,98896,98949,386.4348,382.8665 MY,0,98949,98992,382.8665,377.9469 MY,0,98992,99024,377.9469,373.0514 C,0,99024,99035,255,255,255,254,254,254 MY,0,99024,102174,373.0514,381.2601 C,0,99078,99089,254,254,254,253,253,253 C,0,99132,99142,253,253,253,252,252,252 C,0,99185,99196,252,252,252,251,251,251 C,0,99239,99249,251,251,251,250,250,250 C,0,99292,99303,250,250,250,249,249,249 C,0,99346,99357,249,249,249,248,248,248 C,0,99399,99410,248,248,248,247,247,247 C,0,99453,99464,247,247,247,246,246,246 C,0,99507,99517,246,246,246,245,245,245 C,0,99560,99571,245,245,245,244,244,244 C,0,99614,99624,244,244,244,243,243,243 C,0,99667,99678,243,243,243,242,242,242 C,0,99721,99732,242,242,242,241,241,241 C,0,99774,99785,241,241,241,240,240,240 C,0,99828,99839,240,240,240,239,239,239 C,0,99882,99892,239,239,239,238,238,238 C,0,99935,99946,238,238,238,237,237,237 C,0,99989,99999,237,237,237,236,236,236 C,0,100042,100053,236,236,236,235,235,235 C,0,100096,100107,235,235,235,234,234,234 C,0,100149,100160,234,234,234,233,233,233 C,0,100203,100214,233,233,233,232,232,232 C,0,100257,100267,232,232,232,231,231,231 C,0,100310,100321,231,231,231,230,230,230 C,0,100364,100374,230,230,230,229,229,229 MY,0,102174,106299,381.2601,389.4295 MY,0,106299,109278,389.4295,393.487 MX,0,106792,115224,538.3499,519.9182 MY,0,109278,111528,393.487,395.5197 MY,0,111528,115074,395.5197,397.1448 F,0,115053,115224,0.7,0 MY,0,115074,115128,397.1448,399.7699 MY,0,115128,115171,399.7699,403.9651 MY,0,115171,115224,403.9651,411.8268 R,0,115214,115224,0
Sprite,Foreground,Centre,"sb/font/0053.png",320,240 R,0,98853,98864,0 V,0,98853,98864,0.3681,0.3681 MY,0,98853,98896,387.226,386.432 F,0,98853,99024,0,0.7 MX,0,98853,115224,454.41,418.1693 P,0,98864,115224,A V,0,98874,115224,0.3681,0.3681,0.3708,0.3708 MY,0,98896,98949,386.432,382.8603 MY,0,98949,98992,382.8603,377.9382 MY,0,98992,99024,377.9382,373.041 C,0,99024,99035,255,255,255,254,254,254 MY,0,99024,102260,373.041,381.247 C,0,99078,99089,254,254,254,253,253,253 C,0,99132,99142,253,253,253,252,252,252 C,0,99185,99196,252,252,252,251,251,251 C,0,99239,99249,251,251,251,250,250,250 C,0,99292,99303,250,250,250,249,249,249 C,0,99346,99357,249,249,249,248,248,248 C,0,99399,99410,248,248,248,247,247,247 C,0,99453,99464,247,247,247,246,246,246 C,0,99507,99517,246,246,246,245,245,245 C,0,99560,99571,245,245,245,244,244,244 C,0,99614,99624,244,244,244,243,243,243 C,0,99667,99678,243,243,243,242,242,242 C,0,99721,99732,242,242,242,241,241,241 C,0,99774,99785,241,241,241,240,240,240 C,0,99828,99839,240,240,240,239,239,239 C,0,99882,99892,239,239,239,238,238,238 C,0,99935,99946,238,238,238,237,237,237 C,0,99989,99999,237,237,237,236,236,236 C,0,100042,100053,236,236,236,235,235,235 C,0,100096,100107,235,235,235,234,234,234 C,0,100149,100160,234,234,234,233,233,233 C,0,100203,100214,233,233,233,232,232,232 C,0,100257,100267,232,232,232,231,231,231 C,0,100310,100321,231,231,231,230,230,230 C,0,100364,100374,230,230,230,229,229,229 MY,0,102260,106599,381.247,389.4086 MY,0,106599,109953,389.4086,393.4576 MY,0,109953,115074,393.4576,396.0391 F,0,115053,115224,0.7,0 MY,0,115074,115128,396.0391,398.6425 MY,0,115128,115171,398.6425,402.8062 MY,0,115171,115224,402.8062,410.6106 R,0,115214,115224,0
Sprite,Foreground,Centre,"sb/font/0068.png",320,240 R,0,98853,98864,0 V,0,98853,98864,0.3681,0.3681 MY,0,98853,98896,387.226,386.4328 F,0,98853,99024,0,0.7 MX,0,98853,106332,480.5555,464.704 P,0,98864,115224,A V,0,98874,115224,0.3681,0.3681,0.3715,0.3715 MY,0,98896,98949,386.4328,382.8619 MY,0,98949,98992,382.8619,377.9404 MY,0,98992,99024,377.9404,373.0437 C,0,99024,99035,255,255,255,254,254,254 MY,0,99024,102239,373.0437,381.2539 C,0,99078,99089,254,254,254,253,253,253 C,0,99132,99142,253,253,253,252,252,252 C,0,99185,99196,252,252,252,251,251,251 C,0,99239,99249,251,251,251,250,250,250 C,0,99292,99303,250,250,250,249,249,249 C,0,99346,99357,249,249,249,248,248,248 C,0,99399,99410,248,248,248,247,247,247 C,0,99453,99464,247,247,247,246,246,246 C,0,99507,99517,246,246,246,245,245,245 C,0,99560,99571,245,245,245,244,244,244 C,0,99614,99624,244,244,244,243,243,243 C,0,99667,99678,243,243,243,242,242,242 C,0,99721,99732,242,242,242,241,241,241 C,0,99774,99785,241,241,241,240,240,240 C,0,99828,99839,240,240,240,239,239,239 C,0,99882,99892,239,239,239,238,238,238 C,0,99935,99946,238,238,238,237,237,237 C,0,99989,99999,237,237,237,236,236,236 C,0,100042,100053,236,236,236,235,235,235 C,0,100096,100107,235,235,235,234,234,234 C,0,100149,100160,234,234,234,233,233,233 C,0,100203,100214,233,233,233,232,232,232 C,0,100257,100267,232,232,232,231,231,231 C,0,100310,100321,231,231,231,230,230,230 C,0,100364,100374,230,230,230,229,229,229 MY,0,102239,106514,381.2539,389.4084 MX,0,106332,115224,464.704,444.693 MY,0,106514,109749,389.4084,393.4559 MY,0,109749,115085,393.4559,396.6175 F,0,115053,115224,0.7,0 MY,0,115085,115139,396.6175,399.8057 MY,0,115139,115182,399.8057,404.4406 MY,0,115182,115224,404.4406,410.9276 R,0,115214,115224,0
Sprite,Foreground,Centre,"sb/font/0069.png",320,240 R,0,98853,98864,0 MY,0,98853,98896,387.226,386.4332 F,0,98853,99024,0,0.7 MX,0,98853,106428,495.2853,479.3889 V,0,98853,115224,0.3681,0.3681,0.3718,0.3718 P,0,98864,115224,A MY,0,98896,98949,386.4332,382.8629 MY,0,98949,98992,382.8629,377.9418 MY,0,98992,99024,377.9418,373.0453 C,0,99024,99035,255,255,255,254,254,254 MY,0,99024,102217,373.0453,381.236 C,0,99078,99089,254,254,254,253,253,253 C,0,99132,99142,253,253,253,252,252,252 C,0,99185,99196,252,252,252,251,251,251 C,0,99239,99249,251,251,251,250,250,250 C,0,99292,99303,250,250,250,249,249,249 C,0,99346,99357,249,249,249,248,248,248 C,0,99399,99410,248,248,248,247,247,247 C,0,99453,99464,247,247,247,246,246,246 C,0,99507,99517,246,246,246,245,245,245 C,0,99560,99571,245,245,245,244,244,244 C,0,99614,99624,244,244,244,243,243,243 C,0,99667,99678,243,243,243,242,242,242 C,0,99721,99732,242,242,242,241,241,241 C,0,99774,99785,241,241,241,240,240,240 C,0,99828,99839,240,240,240,239,239,239 C,0,99882,99892,239,239,239,238,238,238 C,0,99935,99946,238,238,238,237,237,237 C,0,99989,99999,237,237,237,236,236,236 C,0,100042,100053,236,236,236,235,235,235 C,0,100096,100107,235,235,235,234,234,234 C,0,100149,100160,234,234,234,233,233,233 C,0,100203,100214,233,233,233,232,232,232 C,0,100257,100267,232,232,232,231,231,231 C,0,100310,100321,231,231,231,230,230,230 C,0,100364,100374,230,230,230,229,229,229 MY,0,102217,106471,381.236,389.4148 MX,0,106428,115224,479.3889,459.6776 MY,0,106471,109632,389.4148,393.4455 MY,0,109632,112278,393.4455,395.467 MY,0,112278,115074,395.467,396.4902 F,0,115053,115224,0.7,0 MY,0,115074,115128,396.4902,399.1024 MY,0,115128,115171,399.1024,403.2789 MY,0,115171,115224,403.2789,411.1068 R,0,115214,115224,0
Sprite,Foreground,Centre,"sb/font/006c.png",320,240 R,0,98853,98864,0 MY,0,98853,98896,387.226,386.4334 F,0,98853,99024,0,0.7 MX,0,98853,106471,503.3868,487.4952 V,0,98853,115224,0.3681,0.3681,0.372,0.372 P,0,98864,115224,A MY,0,98896,98949,386.4334,382.8634 MY,0,98949,98992,382.8634,377.9424 MY,0,98992,99024,377.9424,373.0461 C,0,99024,99035,255,255,255,254,254,254 MY,0,99024,102217,373.0461,381.2531 C,0,99078,99089,254,254,254,253,253,253 C,0,99132,99142,253,253,253,252,252,252 C,0,99185,99196,252,252,252,251,251,251 C,0,99239,99249,251,251,251,250,250,250 C,0,99292,99303,250,250,250,249,249,249 C,0,99346,99357,249,249,249,248,248,248 C,0,99399,99410,248,248,248,247,247,247 C,0,99453,99464,247,247,247,246,246,246 C,0,99507,99517,246,246,246,245,245,245 C,0,99560,99571,245,245,245,244,244,244 C,0,99614,99624,244,244,244,243,243,243 C,0,99667,99678,243,243,243,242,242,242 C,0,99721,99732,242,242,242,241,241,241 C,0,99774,99785,241,241,241,240,240,240 C,0,99828,99839,240,240,240,239,239,239 C,0,99882,99892,239,239,239,238,238,238 C,0,99935,99946,238,238,238,237,237,237 C,0,99989,99999,237,237,237,236,236,236 C,0,100042,100053,236,236,236,235,235,235 C,0,100096,100107,235,235,235,234,234,234 C,0,100149,100160,234,234,234,233,233,233 C,0,100203,100214,233,233,233,232,232,232 C,0,100257,100267,232,232,232,231,231,231 C,0,100310,100321,231,231,231,230,230,230 C,0,100364,100374,230,230,230,229,229,229 MY,0,102217,106449,381.2531,389.4213 MY,0,106449,109610,389.4213,393.4815 MX,0,106471,115224,487.4952,467.9319 MY,0,109610,112214,393.4815,395.5052 MY,0,112214,115074,395.5052,396.5799 F,0,115053,115224,0.7,0 MY,0,115074,115128,396.5799,399.1939 MY,0,115128,115171,399.1939,403.3729 MY,0,115171,115224,403.3729,411.2054 R,0,115214,115224,0
Sprite,Foreground,Centre,"sb/font/006b.png",320,240 R,0,98853,98864,0 MY,0,98853,98896,387.226,386.4338 F,0,98853,99024,0,0.7 MX,0,98853,106535,517.3801,501.5305 V,0,98853,115224,0.3681,0.3681,0.3724,0.3724 P,0,98864,115224,A MY,0,98896,98949,386.4338,382.8643 MY,0,98949,98992,382.8643,377.9437 MY,0,98992,99024,377.9437,373.0475 C,0,99024,99035,255,255,255,254,254,254 MY,0,99024,102217,373.0475,381.2825 C,0,99078,99089,254,254,254,253,253,253 C,0,99132,99142,253,253,253,252,252,252 C,0,99185,99196,252,252,252,251,251,251 C,0,99239,99249,251,251,251,250,250,250 C,0,99292,99303,250,250,250,249,249,249 C,0,99346,99357,249,249,249,248,248,248 C,0,99399,99410,248,248,248,247,247,247 C,0,99453,99464,247,247,247,246,246,246 C,0,99507,99517,246,246,246,245,245,245 C,0,99560,99571,245,245,245,244,244,244 C,0,99614,99624,244,244,244,243,243,243 C,0,99667,99678,243,243,243,242,242,242 C,0,99721,99732,242,242,242,241,241,241 C,0,99774,99785,241,241,241,240,240,240 C,0,99828,99839,240,240,240,239,239,239 C,0,99882,99892,239,239,239,238,238,238 C,0,99935,99946,238,238,238,237,237,237 C,0,99989,99999,237,237,237,236,236,236 C,0,100042,100053,236,236,236,235,235,235 C,0,100096,100107,235,235,235,234,234,234 C,0,100149,100160,234,234,234,233,233,233 C,0,100203,100214,233,233,233,232,232,232 C,0,100257,100267,232,232,232,231,231,231 C,0,100310,100321,231,231,231,230,230,230 C,0,100364,100374,230,230,230,229,229,229 MY,0,102217,106428,381.2825,389.4562 MY,0,106428,109557,389.4562,393.5262 MX,0,106535,115224,501.5305,482.211 MY,0,109557,112053,393.5262,395.5388 MY,0,112053,115064,395.5388,396.56 F,0,115053,115224,0.7,0 MY,0,115064,115128,396.56,399.3521 MY,0,115128,115171,399.3521,403.5356 MY,0,115171,115224,403.5356,411.3761 R,0,115214,115224,0
Sprite,Foreground,Centre,"sb/font/0065.png",320,240 R,0,98853,98864,0 MY,0,98853,98896,387.226,386.4343 F,0,98853,99024,0,0.7 MX,0,98853,106642,535.4242,519.5984 V,0,98853,115224,0.3681,0.3681,0.3729,0.3729 P,0,98864,115224,A MY,0,98896,98949,386.4343,382.8654 MY,0,98949,98992,382.8654,377.9453 MY,0,98992,99024,377.9453,373.0495 C,0,99024,99035,255,255,255,254,254,254 MY,0,99024,102196,373.0495,381.2708 C,0,99078,99089,254,254,254,253,253,253 C,0,99132,99142,253,253,253,252,252,252 C,0,99185,99196,252,252,252,251,251,251 C,0,99239,99249,251,251,251,250,250,250 C,0,99292,99303,250,250,250,249,249,249 C,0,99346,99357,249,249,249,248,248,248 C,0,99399,99410,248,248,248,247,247,247 C,0,99453,99464,247,247,247,246,246,246 C,0,99507,99517,246,246,246,245,245,245 C,0,99560,99571,245,245,245,244,244,244 C,0,99614,99624,244,244,244,243,243,243 C,0,99667,99678,243,243,243,242,242,242 C,0,99721,99732,242,242,242,241,241,241 C,0,99774,99785,241,241,241,240,240,240 C,0,99828,99839,240,240,240,239,239,239 C,0,99882,99892,239,239,239,238,238,238 C,0,99935,99946,238,238,238,237,237,237 C,0,99989,99999,237,237,237,236,236,236 C,0,100042,100053,236,236,236,235,235,235 C,0,100096,100107,235,235,235,234,234,234 C,0,100149,100160,234,234,234,233,233,233 C,0,100203,100214,233,233,233,232,232,232 C,0,100257,100267,232,232,232,231,231,231 C,0,100310,100321,231,231,231,230,230,230 C,0,100364,100374,230,230,230,229,229,229 MY,0,102196,106353,381.2708,389.425 MY,0,106353,109407,389.425,393.4961 MX,0,106642,115224,519.5984,500.6638 MY,0,109407,115085,393.4961,397.2272 F,0,115053,115224,0.7,0 MY,0,115085,115139,397.2272,400.4295 MY,0,115139,115182,400.4295,405.0836 MY,0,115182,115224,405.0836,411.5966 R,0,115214,115224,0
Sprite,Foreground,Centre,"sb/font/0079.png",320,240 R,0,98853,98864,0 MY,0,98853,98896,387.226,386.4348 F,0,98853,99024,0,0.7 MX,0,98853,106792,554.2048,538.3499 V,0,98853,115224,0.3681,0.3681,0.3733,0.3733 P,0,98864,115224,A MY,0,98896,98949,386.4348,382.8665 MY,0,98949,98992,382.8665,377.9469 MY,0,98992,99024,377.9469,373.0514 C,0,99024,99035,255,255,255,254,254,254 MY,0,99024,102174,373.0514,381.2601 C,0,99078,99089,254,254,254,253,253,253 C,0,99132,99142,253,253,253,252,252,252 C,0,99185,99196,252,252,252,251,251,251 C,0,99239,99249,251,251,251,250,250,250 C,0,99292,99303,250,250,250,249,249,249 C,0,99346,99357,249,249,249,248,248,248 C,0,99399,99410,248,248,248,247,247,247 C,0,99453,99464,247,247,247,246,246,246 C,0,99507,99517,246,246,246,245,245,245 C,0,99560,99571,245,245,245,244,244,244 C,0,99614,99624,244,244,244,243,243,243 C,0,99667,99678,243,243,243,242,242,242 C,0,99721,99732,242,242,242,241,241,241 C,0,99774,99785,241,241,241,240,240,240 C,0,99828,99839,240,240,240,239,239,239 C,0,99882,99892,239,239,239,238,238,238 C,0,99935,99946,238,238,238,237,237,237 C,0,99989,99999,237,237,237,236,236,236 C,0,100042,100053,236,236,236,235,235,235 C,0,100096,100107,235,235,235,234,234,234 C,0,100149,100160,234,234,234,233,233,233 C,0,100203,100214,233,233,233,232,232,232 C,0,100257,100267,232,232,232,231,231,231 C,0,100310,100321,231,231,231,230,230,230 C,0,100364,100374,230,230,230,229,229,229 MY,0,102174,106299,381.2601,389.4295 MY,0,106299,109278,389.4295,393.487 MX,0,106792,115224,538.3499,519.9182 MY,0,109278,111528,393.487,395.5197 MY,0,111528,115074,395.5197,397.1448 F,0,115053,115224,0.7,0 MY,0,115074,115128,397.1448,399.7699 MY,0,115128,115171,399.7699,403.9651 MY,0,115171,115224,403.9651,411.8268 R,0,115214,115224,0
Sprite,Foreground,Centre,"sb/font/0047.png",320,240 R,0,115053,115064,0 V,0,115053,115064,0.3681,0.3681 MY,0,115053,115096,387.226,386.4309 F,0,115053,115224,0,0.7 MX,0,115053,131510,438.5754,402.1515 V,0,115074,131510,0.3681,0.3681,0.3704,0.3704 MY,0,115096,115149,386.4309,382.8579 MY,0,115149,115192,382.8579,377.9348 MY,0,115192,115224,377.9348,373.0368 C,0,115224,115235,255,255,255,254,254,254 MY,0,115224,118503,373.0368,381.2695 C,0,115278,115289,254,254,254,253,253,253 C,0,115332,115342,253,253,253,252,252,252 C,0,115385,115396,252,252,252,251,251,251 C,0,115439,115449,251,251,251,250,250,250 C,0,115492,115503,250,250,250,249,249,249 C,0,115546,115557,249,249,249,248,248,248 C,0,115599,115610,248,248,248,247,247,247 C,0,115653,115664,247,247,247,246,246,246 C,0,115707,115717,246,246,246,245,245,245 C,0,115760,115771,245,245,245,244,244,244 C,0,115814,115824,244,244,244,243,243,243 C,0,115867,115878,243,243,243,242,242,242 C,0,115921,115932,242,242,242,241,241,241 C,0,115974,115985,241,241,241,240,240,240 C,0,116028,116039,240,240,240,239,239,239 C,0,116082,116092,239,239,239,238,238,238 C,0,116135,116146,238,238,238,237,237,237 C,0,116189,116199,237,237,237,236,236,236 C,0,116242,116253,236,236,236,235,235,235 C,0,116296,116307,235,235,235,234,234,234 C,0,116349,116360,234,234,234,233,233,233 C,0,116403,116414,233,233,233,232,232,232 C,0,116457,116467,232,232,232,231,231,231 C,0,116510,116521,231,231,231,230,230,230 C,0,116564,116574,230,230,230,229,229,229 MY,0,118503,122896,381.2695,389.4128 MY,0,122896,126346,389.4128,393.4615 MY,0,126346,131371,393.4615,396.1774 F,0,131328,131510,0.7,0 MY,0,131371,131424,396.1774,399.3934 MY,0,131424,131467,399.3934,404.0446 MY,0,131467,131510,404.0446,410.4191 R,0,131499,131510,0
Sprite,Foreground,Centre,"sb/font/0079.png",320,240 R,0,115053,115064,0 V,0,115053,115064,0.3681,0.3681 MY,0,115053,115096,387.226,386.4316 F,0,115053,115224,0,0.7 MX,0,115053,131510,463.2479,427.1245 V,0,115074,131510,0.3681,0.3681,0.371,0.371 MY,0,115096,115149,386.4316,382.8595 MY,0,115149,115192,382.8595,377.9369 MY,0,115192,115224,377.9369,373.0394 C,0,115224,115235,255,255,255,254,254,254 MY,0,115224,118460,373.0394,381.226 C,0,115278,115289,254,254,254,253,253,253 C,0,115332,115342,253,253,253,252,252,252 C,0,115385,115396,252,252,252,251,251,251 C,0,115439,115449,251,251,251,250,250,250 C,0,115492,115503,250,250,250,249,249,249 C,0,115546,115557,249,249,249,248,248,248 C,0,115599,115610,248,248,248,247,247,247 C,0,115653,115664,247,247,247,246,246,246 C,0,115707,115717,246,246,246,245,245,245 C,0,115760,115771,245,245,245,244,244,244 C,0,115814,115824,244,244,244,243,243,243 C,0,115867,115878,243,243,243,242,242,242 C,0,115921,115932,242,242,242,241,241,241 C,0,115974,115985,241,241,241,240,240,240 C,0,116028,116039,240,240,240,239,239,239 C,0,116082,116092,239,239,239,238,238,238 C,0,116135,116146,238,238,238,237,237,237 C,0,116189,116199,237,237,237,236,236,236 C,0,116242,116253,236,236,236,235,235,235 C,0,116296,116307,235,235,235,234,234,234 C,0,116349,116360,234,234,234,233,233,233 C,0,116403,116414,233,233,233,232,232,232 C,0,116457,116467,232,232,232,231,231,231 C,0,116510,116521,231,231,231,230,230,230 C,0,116564,116574,230,230,230,229,229,229 MY,0,118460,122799,381.226,389.3923 MY,0,122799,126110,389.3923,393.4296 MY,0,126110,129121,393.4296,395.4395 MY,0,129121,131349,395.4395,395.9704 F,0,131328,131510,0.7,0 MY,0,131349,131414,395.9704,398.7961 MY,0,131414,131457,398.7961,402.9933 MY,0,131457,131510,402.9933,410.7177 R,0,131499,131510,0
Sprite,Foreground,Centre,"sb/font/0075.png",320,240 R,0,115053,115064,0 V,0,115053,115064,0.3681,0.3681 MY,0,115053,115096,387.226,386.4322 F,0,115053,115224,0,0.7 MX,0,115053,122607,484.6062,468.7194 V,0,115074,131510,0.3681,0.3681,0.3716,0.3716 MY,0,115096,115149,386.4322,382.8608 MY,0,115149,115192,382.8608,377.9388 MY,0,115192,115224,377.9388,373.0416 C,0,115224,115235,255,255,255,254,254,254 MY,0,115224,118460,373.0416,381.2712 C,0,115278,115289,254,254,254,253,253,253 C,0,115332,115342,253,253,253,252,252,252 C,0,115385,115396,252,252,252,251,251,251 C,0,115439,115449,251,251,251,250,250,250 C,0,115492,115503,250,250,250,249,249,249 C,0,115546,115557,249,249,249,248,248,248 C,0,115599,115610,248,248,248,247,247,247 C,0,115653,115664,247,247,247,246,246,246 C,0,115707,115717,246,246,246,245,245,245 C,0,115760,115771,245,245,245,244,244,244 C,0,115814,115824,244,244,244,243,243,243 C,0,115867,115878,243,243,243,242,242,242 C,0,115921,115932,242,242,242,241,241,241 C,0,115974,115985,241,241,241,240,240,240 C,0,116028,116039,240,240,240,239,239,239 C,0,116082,116092,239,239,239,238,238,238 C,0,116135,116146,238,238,238,237,237,237 C,0,116189,116199,237,237,237,236,236,236 C,0,116242,116253,236,236,236,235,235,235 C,0,116296,116307,235,235,235,234,234,234 C,0,116349,116360,234,234,234,233,233,233 C,0,116403,116414,233,233,233,232,232,232 C,0,116457,116467,232,232,232,231,231,231 C,0,116510,116521,231,231,231,230,230,230 C,0,116564,116574,230,230,230,229,229,229 MY,0,118460,122757,381.2712,389.4331 MX,0,122607,131510,468.7194,448.8108 MY,0,122757,126003,389.4331,393.4821 MY,0,126003,131371,393.4821,396.6859 F,0,131328,131510,0.7,0 MY,0,131371,131424,396.6859,399.9137 MY,0,131424,131467,399.9137,404.5809 MY,0,131467,131510,404.5809,410.9768 R,0,131499,131510,0
Sprite,Foreground,Centre,"sb/font/0075.png",320,240 R,0,115053,115064,0 MY,0,115053,115096,387.226,386.4328 F,0,115053,115224,0,0.7 MX,0,115053,122714,505.9645,490.0983 V,0,115053,131510,0.3681,0.3681,0.3721,0.3721 MY,0,115096,115149,386.4328,382.8621 MY,0,115149,115192,382.8621,377.9406 MY,0,115192,115224,377.9406,373.0439 C,0,115224,115235,255,255,255,254,254,254 MY,0,115224,118439,373.0439,381.2675 C,0,115278,115289,254,254,254,253,253,253 C,0,115332,115342,253,253,253,252,252,252 C,0,115385,115396,252,252,252,251,251,251 C,0,115439,115449,251,251,251,250,250,250 C,0,115492,115503,250,250,250,249,249,249 C,0,115546,115557,249,249,249,248,248,248 C,0,115599,115610,248,248,248,247,247,247 C,0,115653,115664,247,247,247,246,246,246 C,0,115707,115717,246,246,246,245,245,245 C,0,115760,115771,245,245,245,244,244,244 C,0,115814,115824,244,244,244,243,243,243 C,0,115867,115878,243,243,243,242,242,242 C,0,115921,115932,242,242,242,241,241,241 C,0,115974,115985,241,241,241,240,240,240 C,0,116028,116039,240,240,240,239,239,239 C,0,116082,116092,239,239,239,238,238,238 C,0,116135,116146,238,238,238,237,237,237 C,0,116189,116199,237,237,237,236,236,236 C,0,116242,116253,236,236,236,235,235,235 C,0,116296,116307,235,235,235,234,234,234 C,0,116349,116360,234,234,234,233,233,233 C,0,116403,116414,233,233,233,232,232,232 C,0,116457,116467,232,232,232,231,231,231 C,0,116510,116521,231,231,231,230,230,230 C,0,116564,116574,230,230,230,229,229,229 MY,0,118439,122692,381.2675,389.4392 MY,0,122692,125853,389.4392,393.4868 MX,0,122714,131339,490.0983,470.5892 MY,0,125853,128435,393.4868,395.5019 MY,0,128435,131360,395.5019,396.6242 F,0,131328,131510,0.7,0 MX,0,131349,131510,470.5892,470.5602 MY,0,131360,131414,396.6242,399.2775 MY,0,131414,131457,399.2775,403.4883 MY,0,131457,131510,403.4883,411.2368 R,0,131499,131510,0
Sprite,Foreground,Centre,"sb/font/006e.png",320,240 R,0,115053,115064,0 MY,0,115053,115096,387.226,386.4334 F,0,115053,115224,0,0.7 MX,0,115053,122810,527.3228,511.5354 V,0,115053,131510,0.3681,0.3681,0.3727,0.3727 MY,0,115096,115149,386.4334,382.8634 MY,0,115149,115192,382.8634,377.9425 MY,0,115192,115224,377.9425,373.0461 C,0,115224,115235,255,255,255,254,254,254 MY,0,115224,118417,373.0461,381.2633 C,0,115278,115289,254,254,254,253,253,253 C,0,115332,115342,253,253,253,252,252,252 C,0,115385,115396,252,252,252,251,251,251 C,0,115439,115449,251,251,251,250,250,250 C,0,115492,115503,250,250,250,249,249,249 C,0,115546,115557,249,249,249,248,248,248 C,0,115599,115610,248,248,248,247,247,247 C,0,115653,115664,247,247,247,246,246,246 C,0,115707,115717,246,246,246,245,245,245 C,0,115760,115771,245,245,245,244,244,244 C,0,115814,115824,244,244,244,243,243,243 C,0,115867,115878,243,243,243,242,242,242 C,0,115921,115932,242,242,242,241,241,241 C,0,115974,115985,241,241,241,240,240,240 C,0,116028,116039,240,240,240,239,239,239 C,0,116082,116092,239,239,239,238,238,238 C,0,116135,116146,238,238,238,237,237,237 C,0,116189,116199,237,237,237,236,236,236 C,0,116242,116253,236,236,236,235,235,235 C,0,116296,116307,235,235,235,234,234,234 C,0,116349,116360,234,234,234,233,233,233 C,0,116403,116414,233,233,233,232,232,232 C,0,116457,116467,232,232,232,231,231,231 C,0,116510,116521,231,231,231,230,230,230 C,0,116564,116574,230,230,230,229,229,229 MY,0,118417,122628,381.2633,389.4429 MY,0,122628,125735,389.4429,393.5169 MX,0,122810,131510,511.5354,492.3732 MY,0,125735,131371,393.5169,397.1606 F,0,131328,131510,0.7,0 MY,0,131371,131424,397.1606,400.3994 MY,0,131424,131467,400.3994,405.0816 MY,0,131467,131510,405.0816,411.4976 R,0,131499,131510,0
Sprite,Foreground,Centre,"sb/font/0079.png",320,240 R,0,115053,115064,0 MY,0,115053,115096,387.226,386.434 F,0,115053,115224,0,0.7 MX,0,115053,122992,548.6811,532.8246 V,0,115053,131510,0.3681,0.3681,0.3732,0.3732 MY,0,115096,115149,386.434,382.8648 MY,0,115149,115192,382.8648,377.9444 MY,0,115192,115224,377.9444,373.0483 C,0,115224,115235,255,255,255,254,254,254 MY,0,115224,118396,373.0483,381.2584 C,0,115278,115289,254,254,254,253,253,253 C,0,115332,115342,253,253,253,252,252,252 C,0,115385,115396,252,252,252,251,251,251 C,0,115439,115449,251,251,251,250,250,250 C,0,115492,115503,250,250,250,249,249,249 C,0,115546,115557,249,249,249,248,248,248 C,0,115599,115610,248,248,248,247,247,247 C,0,115653,115664,247,247,247,246,246,246 C,0,115707,115717,246,246,246,245,245,245 C,0,115760,115771,245,245,245,244,244,244 C,0,115814,115824,244,244,244,243,243,243 C,0,115867,115878,243,243,243,242,242,242 C,0,115921,115932,242,242,242,241,241,241 C,0,115974,115985,241,241,241,240,240,240 C,0,116028,116039,240,240,240,239,239,239 C,0,116082,116092,239,239,239,238,238,238 C,0,116135,116146,238,238,238,237,237,237 C,0,116189,116199,237,237,237,236,236,236 C,0,116242,116253,236,236,236,235,235,235 C,0,116296,116307,235,235,235,234,234,234 C,0,116349,116360,234,234,234,233,233,233 C,0,116403,116414,233,233,233,232,232,232 C,0,116457,116467,232,232,232,231,231,231 C,0,116510,116521,231,231,231,230,230,230 C,0,116564,116574,230,230,230,229,229,229 MY,0,118396,122553,381.2584,389.4269 MY,0,122553,125553,389.4269,393.4717 MX,0,122992,131510,532.8246,514.2499 MY,0,125553,127824,393.4717,395.494 MY,0,127824,131360,395.494,397.0991 F,0,131328,131510,0.7,0 MY,0,131360,131414,397.0991,399.7618 MY,0,131414,131457,399.7618,403.9862 MY,0,131457,131510,403.9862,411.7591 R,0,131499,131510,0
Sprite,Foreground,Centre,"sb/font/0075.png",320,240 R,0,115053,115064,0 MY,0,115053,115096,387.226,386.4347 F,0,115053,115224,0,0.7 MX,0,115053,123142,570.0394,554.2239 V,0,115053,131510,0.3681,0.3681,0.3737,0.3737 MY,0,115096,115149,386.4347,382.8661 MY,0,115149,115192,382.8661,377.9462 MY,0,115192,115224,377.9462,373.0505 C,0,115224,115235,255,255,255,254,254,254 MY,0,115224,118374,373.0505,381.2528 C,0,115278,115289,254,254,254,253,253,253 C,0,115332,115342,253,253,253,252,252,252 C,0,115385,115396,252,252,252,251,251,251 C,0,115439,115449,251,251,251,250,250,250 C,0,115492,115503,250,250,250,249,249,249 C,0,115546,115557,249,249,249,248,248,248 C,0,115599,115610,248,248,248,247,247,247 C,0,115653,115664,247,247,247,246,246,246 C,0,115707,115717,246,246,246,245,245,245 C,0,115760,115771,245,245,245,244,244,244 C,0,115814,115824,244,244,244,243,243,243 C,0,115867,115878,243,243,243,242,242,242 C,0,115921,115932,242,242,242,241,241,241 C,0,115974,115985,241,241,241,240,240,240 C,0,116028,116039,240,240,240,239,239,239 C,0,116082,116092,239,239,239,238,238,238 C,0,116135,116146,238,238,238,237,237,237 C,0,116189,116199,237,237,237,236,236,236 C,0,116242,116253,236,236,236,235,235,235 C,0,116296,116307,235,235,235,234,234,234 C,0,116349,116360,234,234,234,233,233,233 C,0,116403,116414,233,233,233,232,232,232 C,0,116457,116467,232,232,232,231,231,231 C,0,116510,116521,231,231,231,230,230,230 C,0,116564,116574,230,230,230,229,229,229 MY,0,118374,122489,381.2528,389.4254 MY,0,122489,125446,389.4254,393.5002 MX,0,123142,131510,554.2239,536.1907 MY,0,125446,127610,393.5002,395.5207 MY,0,127610,131371,395.5207,397.638 F,0,131328,131510,0.7,0 MY,0,131371,131424,397.638,400.888 MY,0,131424,131467,400.888,405.5853 MY,0,131467,131510,405.5853,412.0214 R,0,131499,131510,0
Sprite,Foreground,Centre,"sb/font/0047.png",320,240 R,0,115053,115064,0 V,0,115053,115064,0.3681,0.3681 MY,0,115053,115096,387.226,386.4309 F,0,115053,115224,0,0.7 MX,0,115053,131510,438.5754,402.1515 P,0,115064,131510,A V,0,115074,131510,0.3681,0.3681,0.3704,0.3704 MY,0,115096,115149,386.4309,382.8579 MY,0,115149,115192,382.8579,377.9348 MY,0,115192,115224,377.9348,373.0368 C,0,115224,115235,255,255,255,254,254,254 MY,0,115224,118503,373.0368,381.2695 C,0,115278,115289,254,254,254,253,253,253 C,0,115332,115342,253,253,253,252,252,252 C,0,115385,115396,252,252,252,251,251,251 C,0,115439,115449,251,251,251,250,250,250 C,0,115492,115503,250,250,250,249,249,249 C,0,115546,115557,249,249,249,248,248,248 C,0,115599,115610,248,248,248,247,247,247 C,0,115653,115664,247,247,247,246,246,246 C,0,115707,115717,246,246,246,245,245,245 C,0,115760,115771,245,245,245,244,244,244 C,0,115814,115824,244,244,244,243,243,243 C,0,115867,115878,243,243,243,242,242,242 C,0,115921,115932,242,242,242,241,241,241 C,0,115974,115985,241,241,241,240,240,240 C,0,116028,116039,240,240,240,239,239,239 C,0,116082,116092,239,239,239,238,238,238 C,0,116135,116146,238,238,238,237,237,237 C,0,116189,116199,237,237,237,236,236,236 C,0,116242,116253,236,236,236,235,235,235 C,0,116296,116307,235,235,235,234,234,234 C,0,116349,116360,234,234,234,233,233,233 C,0,116403,116414,233,233,233,232,232,232 C,0,116457,116467,232,232,232,231,231,231 C,0,116510,116521,231,231,231,230,230,230 C,0,116564,116574,230,230,230,229,229,229 MY,0,118503,122896,381.2695,389.4128 MY,0,122896,126346,389.4128,393.4615 MY,0,126346,131371,393.4615,396.1774 F,0,131328,131510,0.7,0 MY,0,131371,131424,396.1774,399.3934 MY,0,131424,131467,399.3934,404.0446 MY,0,131467,131510,404.0446,410.4191 R,0,131499,131510,0
Sprite,Foreground,Centre,"sb/font/0079.png",320,240 R,0,115053,115064,0 V,0,115053,115064,0.3681,0.3681 MY,0,115053,115096,387.226,386.4316 F,0,115053,115224,0,0.7 MX,0,115053,131510,463.2479,427.1245 P,0,115064,131510,A V,0,115074,131510,0.3681,0.3681,0.371,0.371 MY,0,115096,115149,386.4316,382.8595 MY,0,115149,115192,382.8595,377.9369 MY,0,115192,115224,377.9369,373.0394 C,0,115224,115235,255,255,255,254,254,254 MY,0,115224,118460,373.0394,381.226 C,0,115278,115289,254,254,254,253,253,253 C,0,115332,115342,253,253,253,252,252,252 C,0,115385,115396,252,252,252,251,251,251 C,0,115439,115449,251,251,251,250,250,250 C,0,115492,115503,250,250,250,249,249,249 C,0,115546,115557,249,249,249,248,248,248 C,0,115599,115610,248,248,248,247,247,247 C,0,115653,115664,247,247,247,246,246,246 C,0,115707,115717,246,246,246,245,245,245 C,0,115760,115771,245,245,245,244,244,244 C,0,115814,115824,244,244,244,243,243,243 C,0,115867,115878,243,243,243,242,242,242 C,0,115921,115932,242,242,242,241,241,241 C,0,115974,115985,241,241,241,240,240,240 C,0,116028,116039,240,240,240,239,239,239 C,0,116082,116092,239,239,239,238,238,238 C,0,116135,116146,238,238,238,237,237,237 C,0,116189,116199,237,237,237,236,236,236 C,0,116242,116253,236,236,236,235,235,235 C,0,116296,116307,235,235,235,234,234,234 C,0,116349,116360,234,234,234,233,233,233 C,0,116403,116414,233,233,233,232,232,232 C,0,116457,116467,232,232,232,231,231,231 C,0,116510,116521,231,231,231,230,230,230 C,0,116564,116574,230,230,230,229,229,229 MY,0,118460,122799,381.226,389.3923 MY,0,122799,126110,389.3923,393.4296 MY,0,126110,129121,393.4296,395.4395 MY,0,129121,131349,395.4395,395.9704 F,0,131328,131510,0.7,0 MY,0,131349,131414,395.9704,398.7961 MY,0,131414,131457,398.7961,402.9933 MY,0,131457,131510,402.9933,410.7177 R,0,131499,131510,0
Sprite,Foreground,Centre,"sb/font/0075.png",320,240 R,0,115053,115064,0 V,0,115053,115064,0.3681,0.3681 MY,0,115053,115096,387.226,386.4322 F,0,115053,115224,0,0.7 MX,0,115053,122607,484.6062,468.7194 P,0,115064,131510,A V,0,115074,131510,0.3681,0.3681,0.3716,0.3716 MY,0,115096,115149,386.4322,382.8608 MY,0,115149,115192,382.8608,377.9388 MY,0,115192,115224,377.9388,373.0416 C,0,115224,115235,255,255,255,254,254,254 MY,0,115224,118460,373.0416,381.2712 C,0,115278,115289,254,254,254,253,253,253 C,0,115332,115342,253,253,253,252,252,252 C,0,115385,115396,252,252,252,251,251,251 C,0,115439,115449,251,251,251,250,250,250 C,0,115492,115503,250,250,250,249,249,249 C,0,115546,115557,249,249,249,248,248,248 C,0,115599,115610,248,248,248,247,247,247 C,0,115653,115664,247,247,247,246,246,246 C,0,115707,115717,246,246,246,245,245,245 C,0,115760,115771,245,245,245,244,244,244 C,0,115814,115824,244,244,244,243,243,243 C,0,115867,115878,243,243,243,242,242,242 C,0,115921,115932,242,242,242,241,241,241 C,0,115974,115985,241,241,241,240,240,240 C,0,116028,116039,240,240,240,239,239,239 C,0,116082,116092,239,239,239,238,238,238 C,0,116135,116146,238,238,238,237,237,237 C,0,116189,116199,237,237,237,236,236,236 C,0,116242,116253,236,236,236,235,235,235 C,0,116296,116307,235,235,235,234,234,234 C,0,116349,116360,234,234,234,233,233,233 C,0,116403,116414,233,233,233,232,232,232 C,0,116457,116467,232,232,232,231,231,231 C,0,116510,116521,231,231,231,230,230,230 C,0,116564,116574,230,230,230,229,229,229 MY,0,118460,122757,381.2712,389.4331 MX,0,122607,131510,468.7194,448.8108 MY,0,122757,126003,389.4331,393.4821 MY,0,126003,131371,393.4821,396.6859 F,0,131328,131510,0.7,0 MY,0,131371,131424,396.6859,399.9137 MY,0,131424,131467,399.9137,404.5809 MY,0,131467,131510,404.5809,410.9768 R,0,131499,131510,0
Sprite,Foreground,Centre,"sb/font/0075.png",320,240 R,0,115053,115064,0 MY,0,115053,115096,387.226,386.4328 F,0,115053,115224,0,0.7 MX,0,115053,122714,505.9645,490.0983 V,0,115053,131510,0.3681,0.3681,0.3721,0.3721 P,0,115064,131510,A MY,0,115096,115149,386.4328,382.8621 MY,0,115149,115192,382.8621,377.9406 MY,0,115192,115224,377.9406,373.0439 C,0,115224,115235,255,255,255,254,254,254 MY,0,115224,118439,373.0439,381.2675 C,0,115278,115289,254,254,254,253,253,253 C,0,115332,115342,253,253,253,252,252,252 C,0,115385,115396,252,252,252,251,251,251 C,0,115439,115449,251,251,251,250,250,250 C,0,115492,115503,250,250,250,249,249,249 C,0,115546,115557,249,249,249,248,248,248 C,0,115599,115610,248,248,248,247,247,247 C,0,115653,115664,247,247,247,246,246,246 C,0,115707,115717,246,246,246,245,245,245 C,0,115760,115771,245,245,245,244,244,244 C,0,115814,115824,244,244,244,243,243,243 C,0,115867,115878,243,243,243,242,242,242 C,0,115921,115932,242,242,242,241,241,241 C,0,115974,115985,241,241,241,240,240,240 C,0,116028,116039,240,240,240,239,239,239 C,0,116082,116092,239,239,239,238,238,238 C,0,116135,116146,238,238,238,237,237,237 C,0,116189,116199,237,237,237,236,236,236 C,0,116242,116253,236,236,236,235,235,235 C,0,116296,116307,235,235,235,234,234,234 C,0,116349,116360,234,234,234,233,233,233 C,0,116403,116414,233,233,233,232,232,232 C,0,116457,116467,232,232,232,231,231,231 C,0,116510,116521,231,231,231,230,230,230 C,0,116564,116574,230,230,230,229,229,229 MY,0,118439,122692,381.2675,389.4392 MY,0,122692,125853,389.4392,393.4868 MX,0,122714,131339,490.0983,470.5892 MY,0,125853,128435,393.4868,395.5019 MY,0,128435,131360,395.5019,396.6242 F,0,131328,131510,0.7,0 MX,0,131349,131510,470.5892,470.5602 MY,0,131360,131414,396.6242,399.2775 MY,0,131414,131457,399.2775,403.4883 MY,0,131457,131510,403.4883,411.2368 R,0,131499,131510,0
Sprite,Foreground,Centre,"sb/font/006e.png",320,240 R,0,115053,115064,0 MY,0,115053,115096,387.226,386.4334 F,0,115053,115224,0,0.7 MX,0,115053,122810,527.3228,511.5354 V,0,115053,131510,0.3681,0.3681,0.3727,0.3727 P,0,115064,131510,A MY,0,115096,115149,386.4334,382.8634 MY,0,115149,115192,382.8634,377.9425 MY,0,115192,115224,377.9425,373.0461 C,0,115224,115235,255,255,255,254,254,254 MY,0,115224,118417,373.0461,381.2633 C,0,115278,115289,254,254,254,253,253,253 C,0,115332,115342,253,253,253,252,252,252 C,0,115385,115396,252,252,252,251,251,251 C,0,115439,115449,251,251,251,250,250,250 C,0,115492,115503,250,250,250,249,249,249 C,0,115546,115557,249,249,249,248,248,248 C,0,115599,115610,248,248,248,247,247,247 C,0,115653,115664,247,247,247,246,246,246 C,0,115707,115717,246,246,246,245,245,245 C,0,115760,115771,245,245,245,244,244,244 C,0,115814,115824,244,244,244,243,243,243 C,0,115867,115878,243,243,243,242,242,242 C,0,115921,115932,242,242,242,241,241,241 C,0,115974,115985,241,241,241,240,240,240 C,0,116028,116039,240,240,240,239,239,239 C,0,116082,116092,239,239,239,238,238,238 C,0,116135,116146,238,238,238,237,237,237 C,0,116189,116199,237,237,237,236,236,236 C,0,116242,116253,236,236,236,235,235,235 C,0,116296,116307,235,235,235,234,234,234 C,0,116349,116360,234,234,234,233,233,233 C,0,116403,116414,233,233,233,232,232,232 C,0,116457,116467,232,232,232,231,231,231 C,0,116510,116521,231,231,231,230,230,230 C,0,116564,116574,230,230,230,229,229,229 MY,0,118417,122628,381.2633,389.4429 MY,0,122628,125735,389.4429,393.5169 MX,0,122810,131510,511.5354,492.3732 MY,0,125735,131371,393.5169,397.1606 F,0,131328,131510,0.7,0 MY,0,131371,131424,397.1606,400.3994 MY,0,131424,131467,400.3994,405.0816 MY,0,131467,131510,405.0816,411.4976 R,0,131499,131510,0
Sprite,Foreground,Centre,"sb/font/0079.png",320,240 R,0,115053,115064,0 MY,0,115053,115096,387.226,386.434 F,0,115053,115224,0,0.7 MX,0,115053,122992,548.6811,532.8246 V,0,115053,131510,0.3681,0.3681,0.3732,0.3732 P,0,115064,131510,A MY,0,115096,115149,386.434,382.8648 MY,0,115149,115192,382.8648,377.9444 MY,0,115192,115224,377.9444,373.0483 C,0,115224,115235,255,255,255,254,254,254 MY,0,115224,118396,373.0483,381.2584 C,0,115278,115289,254,254,254,253,253,253 C,0,115332,115342,253,253,253,252,252,252 C,0,115385,115396,252,252,252,251,251,251 C,0,115439,115449,251,251,251,250,250,250 C,0,115492,115503,250,250,250,249,249,249 C,0,115546,115557,249,249,249,248,248,248 C,0,115599,115610,248,248,248,247,247,247 C,0,115653,115664,247,247,247,246,246,246 C,0,115707,115717,246,246,246,245,245,245 C,0,115760,115771,245,245,245,244,244,244 C,0,115814,115824,244,244,244,243,243,243 C,0,115867,115878,243,243,243,242,242,242 C,0,115921,115932,242,242,242,241,241,241 C,0,115974,115985,241,241,241,240,240,240 C,0,116028,116039,240,240,240,239,239,239 C,0,116082,116092,239,239,239,238,238,238 C,0,116135,116146,238,238,238,237,237,237 C,0,116189,116199,237,237,237,236,236,236 C,0,116242,116253,236,236,236,235,235,235 C,0,116296,116307,235,235,235,234,234,234 C,0,116349,116360,234,234,234,233,233,233 C,0,116403,116414,233,233,233,232,232,232 C,0,116457,116467,232,232,232,231,231,231 C,0,116510,116521,231,231,231,230,230,230 C,0,116564,116574,230,230,230,229,229,229 MY,0,118396,122553,381.2584,389.4269 MY,0,122553,125553,389.4269,393.4717 MX,0,122992,131510,532.8246,514.2499 MY,0,125553,127824,393.4717,395.494 MY,0,127824,131360,395.494,397.0991 F,0,131328,131510,0.7,0 MY,0,131360,131414,397.0991,399.7618 MY,0,131414,131457,399.7618,403.9862 MY,0,131457,131510,403.9862,411.7591 R,0,131499,131510,0
Sprite,Foreground,Centre,"sb/font/0075.png",320,240 R,0,115053,115064,0 MY,0,115053,115096,387.226,386.4347 F,0,115053,115224,0,0.7 MX,0,115053,123142,570.0394,554.2239 V,0,115053,131510,0.3681,0.3681,0.3737,0.3737 P,0,115064,131510,A MY,0,115096,115149,386.4347,382.8661 MY,0,115149,115192,382.8661,377.9462 MY,0,115192,115224,377.9462,373.0505 C,0,115224,115235,255,255,255,254,254,254 MY,0,115224,118374,373.0505,381.2528 C,0,115278,115289,254,254,254,253,253,253 C,0,115332,115342,253,253,253,252,252,252 C,0,115385,115396,252,252,252,251,251,251 C,0,115439,115449,251,251,251,250,250,250 C,0,115492,115503,250,250,250,249,249,249 C,0,115546,115557,249,249,249,248,248,248 C,0,115599,115610,248,248,248,247,247,247 C,0,115653,115664,247,247,247,246,246,246 C,0,115707,115717,246,246,246,245,245,245 C,0,115760,115771,245,245,245,244,244,244 C,0,115814,115824,244,244,244,243,243,243 C,0,115867,115878,243,243,243,242,242,242 C,0,115921,115932,242,242,242,241,241,241 C,0,115974,115985,241,241,241,240,240,240 C,0,116028,116039,240,240,240,239,239,239 C,0,116082,116092,239,239,239,238,238,238 C,0,116135,116146,238,238,238,237,237,237 C,0,116189,116199,237,237,237,236,236,236 C,0,116242,116253,236,236,236,235,235,235 C,0,116296,116307,235,235,235,234,234,234 C,0,116349,116360,234,234,234,233,233,233 C,0,116403,116414,233,233,233,232,232,232 C,0,116457,116467,232,232,232,231,231,231 C,0,116510,116521,231,231,231,230,230,230 C,0,116564,116574,230,230,230,229,229,229 MY,0,118374,122489,381.2528,389.4254 MY,0,122489,125446,389.4254,393.5002 MX,0,123142,131510,554.2239,536.1907 MY,0,125446,127610,393.5002,395.5207 MY,0,127610,131371,395.5207,397.638 F,0,131328,131510,0.7,0 MY,0,131371,131424,397.638,400.888 MY,0,131424,131467,400.888,405.5853 MY,0,131467,131510,405.5853,412.0214 R,0,131499,131510,0
Sprite,Foreground,Centre,"sb/font/0053.png",320,240 R,0,131338,131349,0 V,0,131338,131349,0.3681,0.3681 MY,0,131338,131381,387.226,386.3995 F,0,131338,131509,0,0.7 MX,0,131338,153625,454.41,418.1693 V,0,131359,153625,0.3681,0.3681,0.3708,0.3708 MY,0,131381,131434,386.3995,382.7876 MY,0,131434,131477,382.7876,377.8336 MY,0,131477,131509,377.8336,372.9128 C,0,131509,131520,255,255,255,254,254,254 MY,0,131509,135870,372.9128,381.0705 C,0,131563,131574,254,254,254,253,253,253 C,0,131617,131627,253,253,253,252,252,252 C,0,131670,131681,252,252,252,251,251,251 C,0,131724,131734,251,251,251,250,250,250 C,0,131777,131788,250,250,250,249,249,249 C,0,131831,131842,249,249,249,248,248,248 C,0,131884,131895,248,248,248,247,247,247 C,0,131938,131949,247,247,247,246,246,246 C,0,131992,132002,246,246,246,245,245,245 C,0,132045,132056,245,245,245,244,244,244 C,0,132099,132109,244,244,244,243,243,243 C,0,132152,132163,243,243,243,242,242,242 C,0,132206,132217,242,242,242,241,241,241 C,0,132259,132270,241,241,241,240,240,240 C,0,132313,132324,240,240,240,239,239,239 C,0,132367,132377,239,239,239,238,238,238 C,0,132420,132431,238,238,238,237,237,237 C,0,132474,132484,237,237,237,236,236,236 C,0,132527,132538,236,236,236,235,235,235 C,0,132581,132592,235,235,235,234,234,234 C,0,132634,132645,234,234,234,233,233,233 C,0,132688,132699,233,233,233,232,232,232 C,0,132742,132752,232,232,232,231,231,231 C,0,132795,132806,231,231,231,230,230,230 C,0,132849,132859,230,230,230,229,229,229 MY,0,135870,141688,381.0705,389.1913 MY,0,141688,146124,389.1913,393.2353 MY,0,146124,153484,393.2353,396.3065 F,0,153452,153625,0.7,0 MY,0,153484,153538,396.3065,399.449 MY,0,153538,153581,399.449,404.0438 MY,0,153581,153625,404.0438,410.6106 R,0,153624,153625,0
Sprite,Foreground,Centre,"sb/font/0068.png",320,240 R,0,131338,131349,0 V,0,131338,131349,0.3681,0.3681 MY,0,131338,131381,387.226,386.4001 F,0,131338,131509,0,0.7 MX,0,131338,141442,480.5555,464.8204 V,0,131359,153625,0.3681,0.3681,0.3715,0.3715 MY,0,131381,131434,386.4001,382.7888 MY,0,131434,131477,382.7888,377.8353 MY,0,131477,131509,377.8353,372.9148 C,0,131509,131520,255,255,255,254,254,254 MY,0,131509,135849,372.9148,381.0889 C,0,131563,131574,254,254,254,253,253,253 C,0,131617,131627,253,253,253,252,252,252 C,0,131670,131681,252,252,252,251,251,251 C,0,131724,131734,251,251,251,250,250,250 C,0,131777,131788,250,250,250,249,249,249 C,0,131831,131842,249,249,249,248,248,248 C,0,131884,131895,248,248,248,247,247,247 C,0,131938,131949,247,247,247,246,246,246 C,0,131992,132002,246,246,246,245,245,245 C,0,132045,132056,245,245,245,244,244,244 C,0,132099,132109,244,244,244,243,243,243 C,0,132152,132163,243,243,243,242,242,242 C,0,132206,132217,242,242,242,241,241,241 C,0,132259,132270,241,241,241,240,240,240 C,0,132313,132324,240,240,240,239,239,239 C,0,132367,132377,239,239,239,238,238,238 C,0,132420,132431,238,238,238,237,237,237 C,0,132474,132484,237,237,237,236,236,236 C,0,132527,132538,236,236,236,235,235,235 C,0,132581,132592,235,235,235,234,234,234 C,0,132634,132645,234,234,234,233,233,233 C,0,132688,132699,233,233,233,232,232,232 C,0,132742,132752,232,232,232,231,231,231 C,0,132795,132806,231,231,231,230,230,230 C,0,132849,132859,230,230,230,229,229,229 MY,0,135849,141592,381.0889,389.2096 MX,0,141442,153625,464.8204,444.693 MY,0,141592,145888,389.2096,393.2513 MY,0,145888,149413,393.2513,395.2567 MY,0,149413,153474,395.2567,396.3139 F,0,153452,153625,0.7,0 MY,0,153474,153527,396.3139,398.8835 MY,0,153527,153570,398.8835,403.024 MY,0,153570,153625,403.024,410.9276 R,0,153624,153625,0
Sprite,Foreground,Centre,"sb/font/0069.png",320,240 R,0,131338,131349,0 V,0,131338,131349,0.3681,0.3681 MY,0,131338,131381,387.226,386.4004 F,0,131338,131509,0,0.7 MX,0,131338,141570,495.2853,479.5101 V,0,131359,153625,0.3681,0.3681,0.3718,0.3718 MY,0,131381,131434,386.4004,382.7895 MY,0,131434,131477,382.7895,377.8362 MY,0,131477,131509,377.8362,372.9159 C,0,131509,131520,255,255,255,254,254,254 MY,0,131509,135827,372.9159,381.0832 C,0,131563,131574,254,254,254,253,253,253 C,0,131617,131627,253,253,253,252,252,252 C,0,131670,131681,252,252,252,251,251,251 C,0,131724,131734,251,251,251,250,250,250 C,0,131777,131788,250,250,250,249,249,249 C,0,131831,131842,249,249,249,248,248,248 C,0,131884,131895,248,248,248,247,247,247 C,0,131938,131949,247,247,247,246,246,246 C,0,131992,132002,246,246,246,245,245,245 C,0,132045,132056,245,245,245,244,244,244 C,0,132099,132109,244,244,244,243,243,243 C,0,132152,132163,243,243,243,242,242,242 C,0,132206,132217,242,242,242,241,241,241 C,0,132259,132270,241,241,241,240,240,240 C,0,132313,132324,240,240,240,239,239,239 C,0,132367,132377,239,239,239,238,238,238 C,0,132420,132431,238,238,238,237,237,237 C,0,132474,132484,237,237,237,236,236,236 C,0,132527,132538,236,236,236,235,235,235 C,0,132581,132592,235,235,235,234,234,234 C,0,132634,132645,234,234,234,233,233,233 C,0,132688,132699,233,233,233,232,232,232 C,0,132742,132752,232,232,232,231,231,231 C,0,132795,132806,231,231,231,230,230,230 C,0,132849,132859,230,230,230,229,229,229 MY,0,135827,141538,381.0832,389.2193 MY,0,141538,145770,389.2193,393.2665 MX,0,141570,153625,479.5101,459.6776 MY,0,145770,149156,393.2665,395.2794 MY,0,149156,153463,395.2794,396.3105 F,0,153452,153625,0.7,0 MY,0,153463,153527,396.3105,399.0498 MY,0,153527,153570,399.0498,403.1947 MY,0,153570,153625,403.1947,411.1068 R,0,153624,153625,0
Sprite,Foreground,Centre,"sb/font/006c.png",320,240 R,0,131338,131349,0 V,0,131338,131349,0.3681,0.3681 MY,0,131338,131381,387.226,386.4005 F,0,131338,131509,0,0.7 MX,0,131338,141634,503.3868,487.6069 V,0,131359,153625,0.3681,0.3681,0.372,0.372 MY,0,131381,131434,386.4005,382.7898 MY,0,131434,131477,382.7898,377.8368 MY,0,131477,131509,377.8368,372.9165 C,0,131509,131520,255,255,255,254,254,254 MY,0,131509,135817,372.9165,381.0817 C,0,131563,131574,254,254,254,253,253,253 C,0,131617,131627,253,253,253,252,252,252 C,0,131670,131681,252,252,252,251,251,251 C,0,131724,131734,251,251,251,250,250,250 C,0,131777,131788,250,250,250,249,249,249 C,0,131831,131842,249,249,249,248,248,248 C,0,131884,131895,248,248,248,247,247,247 C,0,131938,131949,247,247,247,246,246,246 C,0,131992,132002,246,246,246,245,245,245 C,0,132045,132056,245,245,245,244,244,244 C,0,132099,132109,244,244,244,243,243,243 C,0,132152,132163,243,243,243,242,242,242 C,0,132206,132217,242,242,242,241,241,241 C,0,132259,132270,241,241,241,240,240,240 C,0,132313,132324,240,240,240,239,239,239 C,0,132367,132377,239,239,239,238,238,238 C,0,132420,132431,238,238,238,237,237,237 C,0,132474,132484,237,237,237,236,236,236 C,0,132527,132538,236,236,236,235,235,235 C,0,132581,132592,235,235,235,234,234,234 C,0,132634,132645,234,234,234,233,233,233 C,0,132688,132699,233,233,233,232,232,232 C,0,132742,132752,232,232,232,231,231,231 C,0,132795,132806,231,231,231,230,230,230 C,0,132849,132859,230,230,230,229,229,229 MY,0,135817,141495,381.0817,389.2086 MY,0,141495,145684,389.2086,393.2577 MX,0,141634,153625,487.6069,467.9319 MY,0,145684,153484,393.2577,396.8499 F,0,153452,153625,0.7,0 MY,0,153484,153538,396.8499,400.0042 MY,0,153538,153581,400.0042,404.6155 MY,0,153581,153625,404.6155,411.2054 R,0,153624,153625,0
Sprite,Foreground,Centre,"sb/font/006b.png",320,240 R,0,131338,131349,0 V,0,131338,131349,0.3681,0.3681 MY,0,131338,131381,387.226,386.4008 F,0,131338,131509,0,0.7 MX,0,131338,141720,517.3801,501.645 V,0,131359,153625,0.3681,0.3681,0.3724,0.3724 MY,0,131381,131434,386.4008,382.7905 MY,0,131434,131477,382.7905,377.8377 MY,0,131477,131509,377.8377,372.9176 C,0,131509,131520,255,255,255,254,254,254 MY,0,131509,135795,372.9176,381.0739 C,0,131563,131574,254,254,254,253,253,253 C,0,131617,131627,253,253,253,252,252,252 C,0,131670,131681,252,252,252,251,251,251 C,0,131724,131734,251,251,251,250,250,250 C,0,131777,131788,250,250,250,249,249,249 C,0,131831,131842,249,249,249,248,248,248 C,0,131884,131895,248,248,248,247,247,247 C,0,131938,131949,247,247,247,246,246,246 C,0,131992,132002,246,246,246,245,245,245 C,0,132045,132056,245,245,245,244,244,244 C,0,132099,132109,244,244,244,243,243,243 C,0,132152,132163,243,243,243,242,242,242 C,0,132206,132217,242,242,242,241,241,241 C,0,132259,132270,241,241,241,240,240,240 C,0,132313,132324,240,240,240,239,239,239 C,0,132367,132377,239,239,239,238,238,238 C,0,132420,132431,238,238,238,237,237,237 C,0,132474,132484,237,237,237,236,236,236 C,0,132527,132538,236,236,236,235,235,235 C,0,132581,132592,235,235,235,234,234,234 C,0,132634,132645,234,234,234,233,233,233 C,0,132688,132699,233,233,233,232,232,232 C,0,132742,132752,232,232,232,231,231,231 C,0,132795,132806,231,231,231,230,230,230 C,0,132849,132859,230,230,230,229,229,229 MY,0,135795,141420,381.0739,389.1879 MY,0,141420,145524,389.1879,393.2291 MX,0,141720,153625,501.645,482.211 MY,0,145524,148674,393.2291,395.2475 MY,0,148674,153484,395.2475,397.0059 F,0,153452,153625,0.7,0 MY,0,153484,153538,397.0059,400.1636 MY,0,153538,153581,400.1636,404.7796 MY,0,153581,153625,404.7796,411.3761 R,0,153624,153625,0
Sprite,Foreground,Centre,"sb/font/0065.png",320,240 R,0,131338,131349,0 V,0,131338,131349,0.3681,0.3681 MY,0,131338,131381,387.226,386.4012 F,0,131338,131509,0,0.7 MX,0,131338,141902,535.4242,519.6553 V,0,131359,153625,0.3681,0.3681,0.3729,0.3729 MY,0,131381,131434,386.4012,382.7913 MY,0,131434,131477,382.7913,377.8388 MY,0,131477,131509,377.8388,372.919 C,0,131509,131520,255,255,255,254,254,254 MY,0,131509,135795,372.919,381.1109 C,0,131563,131574,254,254,254,253,253,253 C,0,131617,131627,253,253,253,252,252,252 C,0,131670,131681,252,252,252,251,251,251 C,0,131724,131734,251,251,251,250,250,250 C,0,131777,131788,250,250,250,249,249,249 C,0,131831,131842,249,249,249,248,248,248 C,0,131884,131895,248,248,248,247,247,247 C,0,131938,131949,247,247,247,246,246,246 C,0,131992,132002,246,246,246,245,245,245 C,0,132045,132056,245,245,245,244,244,244 C,0,132099,132109,244,244,244,243,243,243 C,0,132152,132163,243,243,243,242,242,242 C,0,132206,132217,242,242,242,241,241,241 C,0,132259,132270,241,241,241,240,240,240 C,0,132313,132324,240,240,240,239,239,239 C,0,132367,132377,239,239,239,238,238,238 C,0,132420,132431,238,238,238,237,237,237 C,0,132474,132484,237,237,237,236,236,236 C,0,132527,132538,236,236,236,235,235,235 C,0,132581,132592,235,235,235,234,234,234 C,0,132634,132645,234,234,234,233,233,233 C,0,132688,132699,233,233,233,232,232,232 C,0,132742,132752,232,232,232,231,231,231 C,0,132795,132806,231,231,231,230,230,230 C,0,132849,132859,230,230,230,229,229,229 MY,0,135795,141388,381.1109,389.236 MY,0,141388,145417,389.236,393.2669 MX,0,141902,153625,519.6553,500.6638 MY,0,145417,148438,393.2669,395.2809 MY,0,148438,153474,395.2809,396.9237 F,0,153452,153625,0.7,0 MY,0,153474,153527,396.9237,399.5045 MY,0,153527,153570,399.5045,403.6617 MY,0,153570,153625,403.6617,411.5966 R,0,153624,153625,0
Sprite,Foreground,Centre,"sb/font/0079.png",320,240 R,0,131338,131349,0 V,0,131338,131349,0.3681,0.3681 MY,0,131338,131381,387.226,386.4016 F,0,131338,131509,0,0.7 MX,0,131338,142084,554.2048,538.4425 V,0,131359,153625,0.3681,0.3681,0.3733,0.3733 MY,0,131381,131434,386.4016,382.7922 MY,0,131434,131477,382.7922,377.84 MY,0,131477,131509,377.84,372.9204 C,0,131509,131520,255,255,255,254,254,254 MY,0,131509,135763,372.9204,381.094 C,0,131563,131574,254,254,254,253,253,253 C,0,131617,131627,253,253,253,252,252,252 C,0,131670,131681,252,252,252,251,251,251 C,0,131724,131734,251,251,251,250,250,250 C,0,131777,131788,250,250,250,249,249,249 C,0,131831,131842,249,249,249,248,248,248 C,0,131884,131895,248,248,248,247,247,247 C,0,131938,131949,247,247,247,246,246,246 C,0,131992,132002,246,246,246,245,245,245 C,0,132045,132056,245,245,245,244,244,244 C,0,132099,132109,244,244,244,243,243,243 C,0,132152,132163,243,243,243,242,242,242 C,0,132206,132217,242,242,242,241,241,241 C,0,132259,132270,241,241,241,240,240,240 C,0,132313,132324,240,240,240,239,239,239 C,0,132367,132377,239,239,239,238,238,238 C,0,132420,132431,238,238,238,237,237,237 C,0,132474,132484,237,237,237,236,236,236 C,0,132527,132538,236,236,236,235,235,235 C,0,132581,132592,235,235,235,234,234,234 C,0,132634,132645,234,234,234,233,233,233 C,0,132688,132699,233,233,233,232,232,232 C,0,132742,132752,232,232,232,231,231,231 C,0,132795,132806,231,231,231,230,230,230 C,0,132849,132859,230,230,230,229,229,229 MY,0,135763,141281,381.094,389.1965 MY,0,141281,145224,389.1965,393.2354 MX,0,142084,153625,538.4425,519.9182 MY,0,145224,148095,393.2354,395.2507 MY,0,148095,153484,395.2507,397.4176 F,0,153452,153625,0.7,0 MY,0,153484,153538,397.4176,400.5843 MY,0,153538,153581,400.5843,405.2128 MY,0,153581,153625,405.2128,411.8268 R,0,153624,153625,0
Sprite,Foreground,Centre,"sb/font/0053.png",320,240 R,0,131338,131349,0 V,0,131338,131349,0.3681,0.3681 MY,0,131338,131381,387.226,386.3995 F,0,131338,131509,0,0.7 MX,0,131338,153625,454.41,418.1693 P,0,131349,153625,A V,0,131359,153625,0.3681,0.3681,0.3708,0.3708 MY,0,131381,131434,386.3995,382.7876 MY,0,131434,131477,382.7876,377.8336 MY,0,131477,131509,377.8336,372.9128 C,0,131509,131520,255,255,255,254,254,254 MY,0,131509,135870,372.9128,381.0705 C,0,131563,131574,254,254,254,253,253,253 C,0,131617,131627,253,253,253,252,252,252 C,0,131670,131681,252,252,252,251,251,251 C,0,131724,131734,251,251,251,250,250,250 C,0,131777,131788,250,250,250,249,249,249 C,0,131831,131842,249,249,249,248,248,248 C,0,131884,131895,248,248,248,247,247,247 C,0,131938,131949,247,247,247,246,246,246 C,0,131992,132002,246,246,246,245,245,245 C,0,132045,132056,245,245,245,244,244,244 C,0,132099,132109,244,244,244,243,243,243 C,0,132152,132163,243,243,243,242,242,242 C,0,132206,132217,242,242,242,241,241,241 C,0,132259,132270,241,241,241,240,240,240 C,0,132313,132324,240,240,240,239,239,239 C,0,132367,132377,239,239,239,238,238,238 C,0,132420,132431,238,238,238,237,237,237 C,0,132474,132484,237,237,237,236,236,236 C,0,132527,132538,236,236,236,235,235,235 C,0,132581,132592,235,235,235,234,234,234 C,0,132634,132645,234,234,234,233,233,233 C,0,132688,132699,233,233,233,232,232,232 C,0,132742,132752,232,232,232,231,231,231 C,0,132795,132806,231,231,231,230,230,230 C,0,132849,132859,230,230,230,229,229,229 MY,0,135870,141688,381.0705,389.1913 MY,0,141688,146124,389.1913,393.2353 MY,0,146124,153484,393.2353,396.3065 F,0,153452,153625,0.7,0 MY,0,153484,153538,396.3065,399.449 MY,0,153538,153581,399.449,404.0438 MY,0,153581,153625,404.0438,410.6106 R,0,153624,153625,0
Sprite,Foreground,Centre,"sb/font/0068.png",320,240 R,0,131338,131349,0 V,0,131338,131349,0.3681,0.3681 MY,0,131338,131381,387.226,386.4001 F,0,131338,131509,0,0.7 MX,0,131338,141442,480.5555,464.8204 P,0,131349,153625,A V,0,131359,153625,0.3681,0.3681,0.3715,0.3715 MY,0,131381,131434,386.4001,382.7888 MY,0,131434,131477,382.7888,377.8353 MY,0,131477,131509,377.8353,372.9148 C,0,131509,131520,255,255,255,254,254,254 MY,0,131509,135849,372.9148,381.0889 C,0,131563,131574,254,254,254,253,253,253 C,0,131617,131627,253,253,253,252,252,252 C,0,131670,131681,252,252,252,251,251,251 C,0,131724,131734,251,251,251,250,250,250 C,0,131777,131788,250,250,250,249,249,249 C,0,131831,131842,249,249,249,248,248,248 C,0,131884,131895,248,248,248,247,247,247 C,0,131938,131949,247,247,247,246,246,246 C,0,131992,132002,246,246,246,245,245,245 C,0,132045,132056,245,245,245,244,244,244 C,0,132099,132109,244,244,244,243,243,243 C,0,132152,132163,243,243,243,242,242,242 C,0,132206,132217,242,242,242,241,241,241 C,0,132259,132270,241,241,241,240,240,240 C,0,132313,132324,240,240,240,239,239,239 C,0,132367,132377,239,239,239,238,238,238 C,0,132420,132431,238,238,238,237,237,237 C,0,132474,132484,237,237,237,236,236,236 C,0,132527,132538,236,236,236,235,235,235 C,0,132581,132592,235,235,235,234,234,234 C,0,132634,132645,234,234,234,233,233,233 C,0,132688,132699,233,233,233,232,232,232 C,0,132742,132752,232,232,232,231,231,231 C,0,132795,132806,231,231,231,230,230,230 C,0,132849,132859,230,230,230,229,229,229 MY,0,135849,141592,381.0889,389.2096 MX,0,141442,153625,464.8204,444.693 MY,0,141592,145888,389.2096,393.2513 MY,0,145888,149413,393.2513,395.2567 MY,0,149413,153474,395.2567,396.3139 F,0,153452,153625,0.7,0 MY,0,153474,153527,396.3139,398.8835 MY,0,153527,153570,398.8835,403.024 MY,0,153570,153625,403.024,410.9276 R,0,153624,153625,0
Sprite,Foreground,Centre,"sb/font/0069.png",320,240 R,0,131338,131349,0 V,0,131338,131349,0.3681,0.3681 MY,0,131338,131381,387.226,386.4004 F,0,131338,131509,0,0.7 MX,0,131338,141570,495.2853,479.5101 P,0,131349,153625,A V,0,131359,153625,0.3681,0.3681,0.3718,0.3718 MY,0,131381,131434,386.4004,382.7895 MY,0,131434,131477,382.7895,377.8362 MY,0,131477,131509,377.8362,372.9159 C,0,131509,131520,255,255,255,254,254,254 MY,0,131509,135827,372.9159,381.0832 C,0,131563,131574,254,254,254,253,253,253 C,0,131617,131627,253,253,253,252,252,252 C,0,131670,131681,252,252,252,251,251,251 C,0,131724,131734,251,251,251,250,250,250 C,0,131777,131788,250,250,250,249,249,249 C,0,131831,131842,249,249,249,248,248,248 C,0,131884,131895,248,248,248,247,247,247 C,0,131938,131949,247,247,247,246,246,246 C,0,131992,132002,246,246,246,245,245,245 C,0,132045,132056,245,245,245,244,244,244 C,0,132099,132109,244,244,244,243,243,243 C,0,132152,132163,243,243,243,242,242,242 C,0,132206,132217,242,242,242,241,241,241 C,0,132259,132270,241,241,241,240,240,240 C,0,132313,132324,240,240,240,239,239,239 C,0,132367,132377,239,239,239,238,238,238 C,0,132420,132431,238,238,238,237,237,237 C,0,132474,132484,237,237,237,236,236,236 C,0,132527,132538,236,236,236,235,235,235 C,0,132581,132592,235,235,235,234,234,234 C,0,132634,132645,234,234,234,233,233,233 C,0,132688,132699,233,233,233,232,232,232 C,0,132742,132752,232,232,232,231,231,231 C,0,132795,132806,231,231,231,230,230,230 C,0,132849,132859,230,230,230,229,229,229 MY,0,135827,141538,381.0832,389.2193 MY,0,141538,145770,389.2193,393.2665 MX,0,141570,153625,479.5101,459.6776 MY,0,145770,149156,393.2665,395.2794 MY,0,149156,153463,395.2794,396.3105 F,0,153452,153625,0.7,0 MY,0,153463,153527,396.3105,399.0498 MY,0,153527,153570,399.0498,403.1947 MY,0,153570,153625,403.1947,411.1068 R,0,153624,153625,0
Sprite,Foreground,Centre,"sb/font/006c.png",320,240 R,0,131338,131349,0 V,0,131338,131349,0.3681,0.3681 MY,0,131338,131381,387.226,386.4005 F,0,131338,131509,0,0.7 MX,0,131338,141634,503.3868,487.6069 P,0,131349,153625,A V,0,131359,153625,0.3681,0.3681,0.372,0.372 MY,0,131381,131434,386.4005,382.7898 MY,0,131434,131477,382.7898,377.8368 MY,0,131477,131509,377.8368,372.9165 C,0,131509,131520,255,255,255,254,254,254 MY,0,131509,135817,372.9165,381.0817 C,0,131563,131574,254,254,254,253,253,253 C,0,131617,131627,253,253,253,252,252,252 C,0,131670,131681,252,252,252,251,251,251 C,0,131724,131734,251,251,251,250,250,250 C,0,131777,131788,250,250,250,249,249,249 C,0,131831,131842,249,249,249,248,248,248 C,0,131884,131895,248,248,248,247,247,247 C,0,131938,131949,247,247,247,246,246,246 C,0,131992,132002,246,246,246,245,245,245 C,0,132045,132056,245,245,245,244,244,244 C,0,132099,132109,244,244,244,243,243,243 C,0,132152,132163,243,243,243,242,242,242 C,0,132206,132217,242,242,242,241,241,241 C,0,132259,132270,241,241,241,240,240,240 C,0,132313,132324,240,240,240,239,239,239 C,0,132367,132377,239,239,239,238,238,238 C,0,132420,132431,238,238,238,237,237,237 C,0,132474,132484,237,237,237,236,236,236 C,0,132527,132538,236,236,236,235,235,235 C,0,132581,132592,235,235,235,234,234,234 C,0,132634,132645,234,234,234,233,233,233 C,0,132688,132699,233,233,233,232,232,232 C,0,132742,132752,232,232,232,231,231,231 C,0,132795,132806,231,231,231,230,230,230 C,0,132849,132859,230,230,230,229,229,229 MY,0,135817,141495,381.0817,389.2086 MY,0,141495,145684,389.2086,393.2577 MX,0,141634,153625,487.6069,467.9319 MY,0,145684,153484,393.2577,396.8499 F,0,153452,153625,0.7,0 MY,0,153484,153538,396.8499,400.0042 MY,0,153538,153581,400.0042,404.6155 MY,0,153581,153625,404.6155,411.2054 R,0,153624,153625,0
Sprite,Foreground,Centre,"sb/font/006b.png",320,240 R,0,131338,131349,0 V,0,131338,131349,0.3681,0.3681 MY,0,131338,131381,387.226,386.4008 F,0,131338,131509,0,0.7 MX,0,131338,141720,517.3801,501.645 P,0,131349,153625,A V,0,131359,153625,0.3681,0.3681,0.3724,0.3724 MY,0,131381,131434,386.4008,382.7905 MY,0,131434,131477,382.7905,377.8377 MY,0,131477,131509,377.8377,372.9176 C,0,131509,131520,255,255,255,254,254,254 MY,0,131509,135795,372.9176,381.0739 C,0,131563,131574,254,254,254,253,253,253 C,0,131617,131627,253,253,253,252,252,252 C,0,131670,131681,252,252,252,251,251,251 C,0,131724,131734,251,251,251,250,250,250 C,0,131777,131788,250,250,250,249,249,249 C,0,131831,131842,249,249,249,248,248,248 C,0,131884,131895,248,248,248,247,247,247 C,0,131938,131949,247,247,247,246,246,246 C,0,131992,132002,246,246,246,245,245,245 C,0,132045,132056,245,245,245,244,244,244 C,0,132099,132109,244,244,244,243,243,243 C,0,132152,132163,243,243,243,242,242,242 C,0,132206,132217,242,242,242,241,241,241 C,0,132259,132270,241,241,241,240,240,240 C,0,132313,132324,240,240,240,239,239,239 C,0,132367,132377,239,239,239,238,238,238 C,0,132420,132431,238,238,238,237,237,237 C,0,132474,132484,237,237,237,236,236,236 C,0,132527,132538,236,236,236,235,235,235 C,0,132581,132592,235,235,235,234,234,234 C,0,132634,132645,234,234,234,233,233,233 C,0,132688,132699,233,233,233,232,232,232 C,0,132742,132752,232,232,232,231,231,231 C,0,132795,132806,231,231,231,230,230,230 C,0,132849,132859,230,230,230,229,229,229 MY,0,135795,141420,381.0739,389.1879 MY,0,141420,145524,389.1879,393.2291 MX,0,141720,153625,501.645,482.211 MY,0,145524,148674,393.2291,395.2475 MY,0,148674,153484,395.2475,397.0059 F,0,153452,153625,0.7,0 MY,0,153484,153538,397.0059,400.1636 MY,0,153538,153581,400.1636,404.7796 MY,0,153581,153625,404.7796,411.3761 R,0,153624,153625,0
Sprite,Foreground,Centre,"sb/font/0065.png",320,240 R,0,131338,131349,0 V,0,131338,131349,0.3681,0.3681 MY,0,131338,131381,387.226,386.4012 F,0,131338,131509,0,0.7 MX,0,131338,141902,535.4242,519.6553 P,0,131349,153625,A V,0,131359,153625,0.3681,0.3681,0.3729,0.3729 MY,0,131381,131434,386.4012,382.7913 MY,0,131434,131477,382.7913,377.8388 MY,0,131477,131509,377.8388,372.919 C,0,131509,131520,255,255,255,254,254,254 MY,0,131509,135795,372.919,381.1109 C,0,131563,131574,254,254,254,253,253,253 C,0,131617,131627,253,253,253,252,252,252 C,0,131670,131681,252,252,252,251,251,251 C,0,131724,131734,251,251,251,250,250,250 C,0,131777,131788,250,250,250,249,249,249 C,0,131831,131842,249,249,249,248,248,248 C,0,131884,131895,248,248,248,247,247,247 C,0,131938,131949,247,247,247,246,246,246 C,0,131992,132002,246,246,246,245,245,245 C,0,132045,132056,245,245,245,244,244,244 C,0,132099,132109,244,244,244,243,243,243 C,0,132152,132163,243,243,243,242,242,242 C,0,132206,132217,242,242,242,241,241,241 C,0,132259,132270,241,241,241,240,240,240 C,0,132313,132324,240,240,240,239,239,239 C,0,132367,132377,239,239,239,238,238,238 C,0,132420,132431,238,238,238,237,237,237 C,0,132474,132484,237,237,237,236,236,236 C,0,132527,132538,236,236,236,235,235,235 C,0,132581,132592,235,235,235,234,234,234 C,0,132634,132645,234,234,234,233,233,233 C,0,132688,132699,233,233,233,232,232,232 C,0,132742,132752,232,232,232,231,231,231 C,0,132795,132806,231,231,231,230,230,230 C,0,132849,132859,230,230,230,229,229,229 MY,0,135795,141388,381.1109,389.236 MY,0,141388,145417,389.236,393.2669 MX,0,141902,153625,519.6553,500.6638 MY,0,145417,148438,393.2669,395.2809 MY,0,148438,153474,395.2809,396.9237 F,0,153452,153625,0.7,0 MY,0,153474,153527,396.9237,399.5045 MY,0,153527,153570,399.5045,403.6617 MY,0,153570,153625,403.6617,411.5966 R,0,153624,153625,0
Sprite,Foreground,Centre,"sb/font/0079.png",320,240 R,0,131338,131349,0 V,0,131338,131349,0.3681,0.3681 MY,0,131338,131381,387.226,386.4016 F,0,131338,131509,0,0.7 MX,0,131338,142084,554.2048,538.4425 P,0,131349,153625,A V,0,131359,153625,0.3681,0.3681,0.3733,0.3733 MY,0,131381,131434,386.4016,382.7922 MY,0,131434,131477,382.7922,377.84 MY,0,131477,131509,377.84,372.9204 C,0,131509,131520,255,255,255,254,254,254 MY,0,131509,135763,372.9204,381.094 C,0,131563,131574,254,254,254,253,253,253 C,0,131617,131627,253,253,253,252,252,252 C,0,131670,131681,252,252,252,251,251,251 C,0,131724,131734,251,251,251,250,250,250 C,0,131777,131788,250,250,250,249,249,249 C,0,131831,131842,249,249,249,248,248,248 C,0,131884,131895,248,248,248,247,247,247 C,0,131938,131949,247,247,247,246,246,246 C,0,131992,132002,246,246,246,245,245,245 C,0,132045,132056,245,245,245,244,244,244 C,0,132099,132109,244,244,244,243,243,243 C,0,132152,132163,243,243,243,242,242,242 C,0,132206,132217,242,242,242,241,241,241 C,0,132259,132270,241,241,241,240,240,240 C,0,132313,132324,240,240,240,239,239,239 C,0,132367,132377,239,239,239,238,238,238 C,0,132420,132431,238,238,238,237,237,237 C,0,132474,132484,237,237,237,236,236,236 C,0,132527,132538,236,236,236,235,235,235 C,0,132581,132592,235,235,235,234,234,234 C,0,132634,132645,234,234,234,233,233,233 C,0,132688,132699,233,233,233,232,232,232 C,0,132742,132752,232,232,232,231,231,231 C,0,132795,132806,231,231,231,230,230,230 C,0,132849,132859,230,230,230,229,229,229 MY,0,135763,141281,381.094,389.1965 MY,0,141281,145224,389.1965,393.2354 MX,0,142084,153625,538.4425,519.9182 MY,0,145224,148095,393.2354,395.2507 MY,0,148095,153484,395.2507,397.4176 F,0,153452,153625,0.7,0 MY,0,153484,153538,397.4176,400.5843 MY,0,153538,153581,400.5843,405.2128 MY,0,153581,153625,405.2128,411.8268 R,0,153624,153625,0
Sprite,Foreground,Centre,"sb/font/0047.png",320,240 R,0,153453,153464,0 V,0,153453,153464,0.3681,0.3681 MY,0,153453,153496,387.226,386.39 F,0,153453,153624,0,0.7 MX,0,153453,178310,438.5754,402.1515 V,0,153474,178310,0.3681,0.3681,0.3704,0.3704 MY,0,153496,153549,386.39,382.7661 MY,0,153549,153592,382.7661,377.8027 MY,0,153592,153624,377.8027,372.8749 C,0,153624,153635,255,255,255,254,254,254 MY,0,153624,158499,372.8749,381.0251 C,0,153678,153689,254,254,254,253,253,253 C,0,153732,153742,253,253,253,252,252,252 C,0,153785,153796,252,252,252,251,251,251 C,0,153839,153849,251,251,251,250,250,250 C,0,153892,153903,250,250,250,249,249,249 C,0,153946,153957,249,249,249,248,248,248 C,0,153999,154010,248,248,248,247,247,247 C,0,154053,154064,247,247,247,246,246,246 C,0,154107,154117,246,246,246,245,245,245 C,0,154160,154171,245,245,245,244,244,244 C,0,154214,154224,244,244,244,243,243,243 C,0,154267,154278,243,243,243,242,242,242 C,0,154321,154332,242,242,242,241,241,241 C,0,154374,154385,241,241,241,240,240,240 C,0,154428,154439,240,240,240,239,239,239 C,0,154482,154492,239,239,239,238,238,238 C,0,154535,154546,238,238,238,237,237,237 C,0,154589,154599,237,237,237,236,236,236 C,0,154642,154653,236,236,236,235,235,235 C,0,154696,154707,235,235,235,234,234,234 C,0,154749,154760,234,234,234,233,233,233 C,0,154803,154814,233,233,233,232,232,232 C,0,154857,154867,232,232,232,231,231,231 C,0,154910,154921,231,231,231,230,230,230 C,0,154964,154974,230,230,230,229,229,229 MY,0,158499,165024,381.0251,389.1418 MY,0,165024,170017,389.1418,393.1679 MY,0,170017,174582,393.1679,395.178 MY,0,174582,178149,395.178,395.7003 F,0,178128,178310,0.7,0 MY,0,178149,178214,395.7003,398.5194 MY,0,178214,178257,398.5194,402.7086 MY,0,178257,178310,402.7086,410.4191 R,0,178299,178310,0
Sprite,Foreground,Centre,"sb/font/0079.png",320,240 R,0,153453,153464,0 V,0,153453,153464,0.3681,0.3681 MY,0,153453,153496,387.226,386.3904 F,0,153453,153624,0,0.7 MX,0,153453,178310,463.2479,427.1245 V,0,153474,178310,0.3681,0.3681,0.371,0.371 MY,0,153496,153549,386.3904,382.7671 MY,0,153549,153592,382.7671,377.8041 MY,0,153592,153624,377.8041,372.8766 C,0,153624,153635,255,255,255,254,254,254 MY,0,153624,158467,372.8766,381.0281 C,0,153678,153689,254,254,254,253,253,253 C,0,153732,153742,253,253,253,252,252,252 C,0,153785,153796,252,252,252,251,251,251 C,0,153839,153849,251,251,251,250,250,250 C,0,153892,153903,250,250,250,249,249,249 C,0,153946,153957,249,249,249,248,248,248 C,0,153999,154010,248,248,248,247,247,247 C,0,154053,154064,247,247,247,246,246,246 C,0,154107,154117,246,246,246,245,245,245 C,0,154160,154171,245,245,245,244,244,244 C,0,154214,154224,244,244,244,243,243,243 C,0,154267,154278,243,243,243,242,242,242 C,0,154321,154332,242,242,242,241,241,241 C,0,154374,154385,241,241,241,240,240,240 C,0,154428,154439,240,240,240,239,239,239 C,0,154482,154492,239,239,239,238,238,238 C,0,154535,154546,238,238,238,237,237,237 C,0,154589,154599,237,237,237,236,236,236 C,0,154642,154653,236,236,236,235,235,235 C,0,154696,154707,235,235,235,234,234,234 C,0,154749,154760,234,234,234,233,233,233 C,0,154803,154814,233,233,233,232,232,232 C,0,154857,154867,232,232,232,231,231,231 C,0,154910,154921,231,231,231,230,230,230 C,0,154964,154974,230,230,230,229,229,229 MY,0,158467,164896,381.0281,389.1326 MY,0,164896,169728,389.1326,393.1603 MY,0,169728,178171,393.1603,396.4509 F,0,178128,178310,0.7,0 MY,0,178171,178224,396.4509,399.6725 MY,0,178224,178267,399.6725,404.3319 MY,0,178267,178310,404.3319,410.7177 R,0,178299,178310,0
Sprite,Foreground,Centre,"sb/font/0075.png",320,240 R,0,153453,153464,0 V,0,153453,153464,0.3681,0.3681 MY,0,153453,153496,387.226,386.3908 F,0,153453,153624,0,0.7 MX,0,153453,164778,484.6062,468.8311 V,0,153474,178310,0.3681,0.3681,0.3716,0.3716 MY,0,153496,153549,386.3908,382.768 MY,0,153549,153592,382.768,377.8054 MY,0,153592,153624,377.8054,372.8781 C,0,153624,153635,255,255,255,254,254,254 MY,0,153624,158435,372.8781,381.0235 C,0,153678,153689,254,254,254,253,253,253 C,0,153732,153742,253,253,253,252,252,252 C,0,153785,153796,252,252,252,251,251,251 C,0,153839,153849,251,251,251,250,250,250 C,0,153892,153903,250,250,250,249,249,249 C,0,153946,153957,249,249,249,248,248,248 C,0,153999,154010,248,248,248,247,247,247 C,0,154053,154064,247,247,247,246,246,246 C,0,154107,154117,246,246,246,245,245,245 C,0,154160,154171,245,245,245,244,244,244 C,0,154214,154224,244,244,244,243,243,243 C,0,154267,154278,243,243,243,242,242,242 C,0,154321,154332,242,242,242,241,241,241 C,0,154374,154385,241,241,241,240,240,240 C,0,154428,154439,240,240,240,239,239,239 C,0,154482,154492,239,239,239,238,238,238 C,0,154535,154546,238,238,238,237,237,237 C,0,154589,154599,237,237,237,236,236,236 C,0,154642,154653,236,236,236,235,235,235 C,0,154696,154707,235,235,235,234,234,234 C,0,154749,154760,234,234,234,233,233,233 C,0,154803,154814,233,233,233,232,232,232 C,0,154857,154867,232,232,232,231,231,231 C,0,154910,154921,231,231,231,230,230,230 C,0,154964,154974,230,230,230,229,229,229 MY,0,158435,164810,381.0235,389.148 MX,0,164778,178310,468.8311,448.8108 MY,0,164810,169524,389.148,393.1752 MY,0,169524,173339,393.1752,395.1911 MY,0,173339,178149,395.1911,396.2084 F,0,178128,178310,0.7,0 MY,0,178149,178214,396.2084,399.0377 MY,0,178214,178257,399.0377,403.241 MY,0,178257,178310,403.241,410.9768 R,0,178299,178310,0
Sprite,Foreground,Centre,"sb/font/0075.png",320,240 R,0,153453,153464,0 V,0,153453,153464,0.3681,0.3681 MY,0,153453,153496,387.226,386.3912 F,0,153453,153624,0,0.7 MX,0,153453,164917,505.9645,490.243 V,0,153474,178310,0.3681,0.3681,0.3721,0.3721 MY,0,153496,153549,386.3912,382.7689 MY,0,153549,153592,382.7689,377.8066 MY,0,153592,153624,377.8066,372.8796 C,0,153624,153635,255,255,255,254,254,254 MY,0,153624,158403,372.8796,381.0183 C,0,153678,153689,254,254,254,253,253,253 C,0,153732,153742,253,253,253,252,252,252 C,0,153785,153796,252,252,252,251,251,251 C,0,153839,153849,251,251,251,250,250,250 C,0,153892,153903,250,250,250,249,249,249 C,0,153946,153957,249,249,249,248,248,248 C,0,153999,154010,248,248,248,247,247,247 C,0,154053,154064,247,247,247,246,246,246 C,0,154107,154117,246,246,246,245,245,245 C,0,154160,154171,245,245,245,244,244,244 C,0,154214,154224,244,244,244,243,243,243 C,0,154267,154278,243,243,243,242,242,242 C,0,154321,154332,242,242,242,241,241,241 C,0,154374,154385,241,241,241,240,240,240 C,0,154428,154439,240,240,240,239,239,239 C,0,154482,154492,239,239,239,238,238,238 C,0,154535,154546,238,238,238,237,237,237 C,0,154589,154599,237,237,237,236,236,236 C,0,154642,154653,236,236,236,235,235,235 C,0,154696,154707,235,235,235,234,234,234 C,0,154749,154760,234,234,234,233,233,233 C,0,154803,154814,233,233,233,232,232,232 C,0,154857,154867,232,232,232,231,231,231 C,0,154910,154921,231,231,231,230,230,230 C,0,154964,154974,230,230,230,229,229,229 MY,0,158403,164682,381.0183,389.1163 MY,0,164682,169267,389.1163,393.1457 MX,0,164917,178310,490.243,470.5602 MY,0,169267,172803,393.1457,395.157 MY,0,172803,178171,395.157,396.9257 F,0,178128,178310,0.7,0 MY,0,178171,178224,396.9257,400.1578 MY,0,178224,178267,400.1578,404.8316 MY,0,178267,178310,404.8316,411.2368 R,0,178299,178310,0
Sprite,Foreground,Centre,"sb/font/006e.png",320,240 R,0,153453,153464,0 V,0,153453,153464,0.3681,0.3681 MY,0,153453,153496,387.226,386.3916 F,0,153453,153624,0,0.7 MX,0,153453,165099,527.3228,511.6277 V,0,153474,178310,0.3681,0.3681,0.3727,0.3727 MY,0,153496,153549,386.3916,382.7698 MY,0,153549,153592,382.7698,377.8079 MY,0,153592,153624,377.8079,372.8811 C,0,153624,153635,255,255,255,254,254,254 MY,0,153624,158371,372.8811,381.0125 C,0,153678,153689,254,254,254,253,253,253 C,0,153732,153742,253,253,253,252,252,252 C,0,153785,153796,252,252,252,251,251,251 C,0,153839,153849,251,251,251,250,250,250 C,0,153892,153903,250,250,250,249,249,249 C,0,153946,153957,249,249,249,248,248,248 C,0,153999,154010,248,248,248,247,247,247 C,0,154053,154064,247,247,247,246,246,246 C,0,154107,154117,246,246,246,245,245,245 C,0,154160,154171,245,245,245,244,244,244 C,0,154214,154224,244,244,244,243,243,243 C,0,154267,154278,243,243,243,242,242,242 C,0,154321,154332,242,242,242,241,241,241 C,0,154374,154385,241,241,241,240,240,240 C,0,154428,154439,240,240,240,239,239,239 C,0,154482,154492,239,239,239,238,238,238 C,0,154535,154546,238,238,238,237,237,237 C,0,154589,154599,237,237,237,236,236,236 C,0,154642,154653,236,236,236,235,235,235 C,0,154696,154707,235,235,235,234,234,234 C,0,154749,154760,234,234,234,233,233,233 C,0,154803,154814,233,233,233,232,232,232 C,0,154857,154867,232,232,232,231,231,231 C,0,154910,154921,231,231,231,230,230,230 C,0,154964,154974,230,230,230,229,229,229 MY,0,158371,164596,381.0125,389.1269 MY,0,164596,169085,389.1269,393.161 MX,0,165099,178310,511.6277,492.3732 MY,0,169085,172439,393.161,395.1725 MY,0,172439,178149,395.1725,396.6827 F,0,178128,178310,0.7,0 MY,0,178149,178214,396.6827,399.5216 MY,0,178214,178257,399.5216,403.7381 MY,0,178257,178310,403.7381,411.4976 R,0,178299,178310,0
Sprite,Foreground,Centre,"sb/font/0079.png",320,240 R,0,153453,153464,0 V,0,153453,153464,0.3681,0.3681 MY,0,153453,153496,387.226,386.392 F,0,153453,153624,0,0.7 MX,0,153453,165346,548.6811,532.9589 V,0,153474,178310,0.3681,0.3681,0.3732,0.3732 MY,0,153496,153549,386.392,382.7707 MY,0,153549,153592,382.7707,377.8091 MY,0,153592,153624,377.8091,372.8825 C,0,153624,153635,255,255,255,254,254,254 MY,0,153624,158349,372.8825,381.0226 C,0,153678,153689,254,254,254,253,253,253 C,0,153732,153742,253,253,253,252,252,252 C,0,153785,153796,252,252,252,251,251,251 C,0,153839,153849,251,251,251,250,250,250 C,0,153892,153903,250,250,250,249,249,249 C,0,153946,153957,249,249,249,248,248,248 C,0,153999,154010,248,248,248,247,247,247 C,0,154053,154064,247,247,247,246,246,246 C,0,154107,154117,246,246,246,245,245,245 C,0,154160,154171,245,245,245,244,244,244 C,0,154214,154224,244,244,244,243,243,243 C,0,154267,154278,243,243,243,242,242,242 C,0,154321,154332,242,242,242,241,241,241 C,0,154374,154385,241,241,241,240,240,240 C,0,154428,154439,240,240,240,239,239,239 C,0,154482,154492,239,239,239,238,238,238 C,0,154535,154546,238,238,238,237,237,237 C,0,154589,154599,237,237,237,236,236,236 C,0,154642,154653,236,236,236,235,235,235 C,0,154696,154707,235,235,235,234,234,234 C,0,154749,154760,234,234,234,233,233,233 C,0,154803,154814,233,233,233,232,232,232 C,0,154857,154867,232,232,232,231,231,231 C,0,154910,154921,231,231,231,230,230,230 C,0,154964,154974,230,230,230,229,229,229 MY,0,158349,164499,381.0226,389.1238 MY,0,164499,168892,389.1238,393.1624 MX,0,165346,178310,532.9589,514.2499 MY,0,168892,172085,393.1624,395.1762 MY,0,172085,178171,395.1762,397.4033 F,0,178128,178310,0.7,0 MY,0,178171,178224,397.4033,400.6459 MY,0,178224,178267,400.6459,405.3342 MY,0,178267,178310,405.3342,411.7591 R,0,178299,178310,0
Sprite,Foreground,Centre,"sb/font/0075.png",320,240 R,0,153453,153464,0 V,0,153453,153464,0.3681,0.3681 MY,0,153453,153496,387.226,386.3924 F,0,153453,153624,0,0.7 MX,0,153453,165592,570.0394,554.331 V,0,153474,178310,0.3681,0.3681,0.3737,0.3737 MY,0,153496,153549,386.3924,382.7715 MY,0,153549,153592,382.7715,377.8103 MY,0,153592,153624,377.8103,372.884 C,0,153624,153635,255,255,255,254,254,254 MY,0,153624,158328,372.884,381.0324 C,0,153678,153689,254,254,254,253,253,253 C,0,153732,153742,253,253,253,252,252,252 C,0,153785,153796,252,252,252,251,251,251 C,0,153839,153849,251,251,251,250,250,250 C,0,153892,153903,250,250,250,249,249,249 C,0,153946,153957,249,249,249,248,248,248 C,0,153999,154010,248,248,248,247,247,247 C,0,154053,154064,247,247,247,246,246,246 C,0,154107,154117,246,246,246,245,245,245 C,0,154160,154171,245,245,245,244,244,244 C,0,154214,154224,244,244,244,243,243,243 C,0,154267,154278,243,243,243,242,242,242 C,0,154321,154332,242,242,242,241,241,241 C,0,154374,154385,241,241,241,240,240,240 C,0,154428,154439,240,240,240,239,239,239 C,0,154482,154492,239,239,239,238,238,238 C,0,154535,154546,238,238,238,237,237,237 C,0,154589,154599,237,237,237,236,236,236 C,0,154642,154653,236,236,236,235,235,235 C,0,154696,154707,235,235,235,234,234,234 C,0,154749,154760,234,234,234,233,233,233 C,0,154803,154814,233,233,233,232,232,232 C,0,154857,154867,232,232,232,231,231,231 C,0,154910,154921,231,231,231,230,230,230 C,0,154964,154974,230,230,230,229,229,229 MY,0,158328,164424,381.0324,389.1419 MY,0,164424,168753,389.1419,393.1989 MX,0,165592,178310,554.331,536.1907 MY,0,168753,171828,393.1989,395.2159 MY,0,171828,178160,395.2159,397.3432 F,0,178128,178310,0.7,0 MY,0,178160,178214,397.3432,400.0083 MY,0,178214,178257,400.0083,404.238 MY,0,178257,178310,404.238,412.0214 R,0,178299,178310,0
Sprite,Foreground,Centre,"sb/font/0047.png",320,240 R,0,153453,153464,0 V,0,153453,153464,0.3681,0.3681 MY,0,153453,153496,387.226,386.39 F,0,153453,153624,0,0.7 MX,0,153453,178310,438.5754,402.1515 P,0,153464,178310,A V,0,153474,178310,0.3681,0.3681,0.3704,0.3704 MY,0,153496,153549,386.39,382.7661 MY,0,153549,153592,382.7661,377.8027 MY,0,153592,153624,377.8027,372.8749 C,0,153624,153635,255,255,255,254,254,254 MY,0,153624,158499,372.8749,381.0251 C,0,153678,153689,254,254,254,253,253,253 C,0,153732,153742,253,253,253,252,252,252 C,0,153785,153796,252,252,252,251,251,251 C,0,153839,153849,251,251,251,250,250,250 C,0,153892,153903,250,250,250,249,249,249 C,0,153946,153957,249,249,249,248,248,248 C,0,153999,154010,248,248,248,247,247,247 C,0,154053,154064,247,247,247,246,246,246 C,0,154107,154117,246,246,246,245,245,245 C,0,154160,154171,245,245,245,244,244,244 C,0,154214,154224,244,244,244,243,243,243 C,0,154267,154278,243,243,243,242,242,242 C,0,154321,154332,242,242,242,241,241,241 C,0,154374,154385,241,241,241,240,240,240 C,0,154428,154439,240,240,240,239,239,239 C,0,154482,154492,239,239,239,238,238,238 C,0,154535,154546,238,238,238,237,237,237 C,0,154589,154599,237,237,237,236,236,236 C,0,154642,154653,236,236,236,235,235,235 C,0,154696,154707,235,235,235,234,234,234 C,0,154749,154760,234,234,234,233,233,233 C,0,154803,154814,233,233,233,232,232,232 C,0,154857,154867,232,232,232,231,231,231 C,0,154910,154921,231,231,231,230,230,230 C,0,154964,154974,230,230,230,229,229,229 MY,0,158499,165024,381.0251,389.1418 MY,0,165024,170017,389.1418,393.1679 MY,0,170017,174582,393.1679,395.178 MY,0,174582,178149,395.178,395.7003 F,0,178128,178310,0.7,0 MY,0,178149,178214,395.7003,398.5194 MY,0,178214,178257,398.5194,402.7086 MY,0,178257,178310,402.7086,410.4191 R,0,178299,178310,0
Sprite,Foreground,Centre,"sb/font/0079.png",320,240 R,0,153453,153464,0 V,0,153453,153464,0.3681,0.3681 MY,0,153453,153496,387.226,386.3904 F,0,153453,153624,0,0.7 MX,0,153453,178310,463.2479,427.1245 P,0,153464,178310,A V,0,153474,178310,0.3681,0.3681,0.371,0.371 MY,0,153496,153549,386.3904,382.7671 MY,0,153549,153592,382.7671,377.8041 MY,0,153592,153624,377.8041,372.8766 C,0,153624,153635,255,255,255,254,254,254 MY,0,153624,158467,372.8766,381.0281 C,0,153678,153689,254,254,254,253,253,253 C,0,153732,153742,253,253,253,252,252,252 C,0,153785,153796,252,252,252,251,251,251 C,0,153839,153849,251,251,251,250,250,250 C,0,153892,153903,250,250,250,249,249,249 C,0,153946,153957,249,249,249,248,248,248 C,0,153999,154010,248,248,248,247,247,247 C,0,154053,154064,247,247,247,246,246,246 C,0,154107,154117,246,246,246,245,245,245 C,0,154160,154171,245,245,245,244,244,244 C,0,154214,154224,244,244,244,243,243,243 C,0,154267,154278,243,243,243,242,242,242 C,0,154321,154332,242,242,242,241,241,241 C,0,154374,154385,241,241,241,240,240,240 C,0,154428,154439,240,240,240,239,239,239 C,0,154482,154492,239,239,239,238,238,238 C,0,154535,154546,238,238,238,237,237,237 C,0,154589,154599,237,237,237,236,236,236 C,0,154642,154653,236,236,236,235,235,235 C,0,154696,154707,235,235,235,234,234,234 C,0,154749,154760,234,234,234,233,233,233 C,0,154803,154814,233,233,233,232,232,232 C,0,154857,154867,232,232,232,231,231,231 C,0,154910,154921,231,231,231,230,230,230 C,0,154964,154974,230,230,230,229,229,229 MY,0,158467,164896,381.0281,389.1326 MY,0,164896,169728,389.1326,393.1603 MY,0,169728,178171,393.1603,396.4509 F,0,178128,178310,0.7,0 MY,0,178171,178224,396.4509,399.6725 MY,0,178224,178267,399.6725,404.3319 MY,0,178267,178310,404.3319,410.7177 R,0,178299,178310,0
Sprite,Foreground,Centre,"sb/font/0075.png",320,240 R,0,153453,153464,0 V,0,153453,153464,0.3681,0.3681 MY,0,153453,153496,387.226,386.3908 F,0,153453,153624,0,0.7 MX,0,153453,164778,484.6062,468.8311 P,0,153464,178310,A V,0,153474,178310,0.3681,0.3681,0.3716,0.3716 MY,0,153496,153549,386.3908,382.768 MY,0,153549,153592,382.768,377.8054 MY,0,153592,153624,377.8054,372.8781 C,0,153624,153635,255,255,255,254,254,254 MY,0,153624,158435,372.8781,381.0235 C,0,153678,153689,254,254,254,253,253,253 C,0,153732,153742,253,253,253,252,252,252 C,0,153785,153796,252,252,252,251,251,251 C,0,153839,153849,251,251,251,250,250,250 C,0,153892,153903,250,250,250,249,249,249 C,0,153946,153957,249,249,249,248,248,248 C,0,153999,154010,248,248,248,247,247,247 C,0,154053,154064,247,247,247,246,246,246 C,0,154107,154117,246,246,246,245,245,245 C,0,154160,154171,245,245,245,244,244,244 C,0,154214,154224,244,244,244,243,243,243 C,0,154267,154278,243,243,243,242,242,242 C,0,154321,154332,242,242,242,241,241,241 C,0,154374,154385,241,241,241,240,240,240 C,0,154428,154439,240,240,240,239,239,239 C,0,154482,154492,239,239,239,238,238,238 C,0,154535,154546,238,238,238,237,237,237 C,0,154589,154599,237,237,237,236,236,236 C,0,154642,154653,236,236,236,235,235,235 C,0,154696,154707,235,235,235,234,234,234 C,0,154749,154760,234,234,234,233,233,233 C,0,154803,154814,233,233,233,232,232,232 C,0,154857,154867,232,232,232,231,231,231 C,0,154910,154921,231,231,231,230,230,230 C,0,154964,154974,230,230,230,229,229,229 MY,0,158435,164810,381.0235,389.148 MX,0,164778,178310,468.8311,448.8108 MY,0,164810,169524,389.148,393.1752 MY,0,169524,173339,393.1752,395.1911 MY,0,173339,178149,395.1911,396.2084 F,0,178128,178310,0.7,0 MY,0,178149,178214,396.2084,399.0377 MY,0,178214,178257,399.0377,403.241 MY,0,178257,178310,403.241,410.9768 R,0,178299,178310,0
Sprite,Foreground,Centre,"sb/font/0075.png",320,240 R,0,153453,153464,0 V,0,153453,153464,0.3681,0.3681 MY,0,153453,153496,387.226,386.3912 F,0,153453,153624,0,0.7 MX,0,153453,164917,505.9645,490.243 P,0,153464,178310,A V,0,153474,178310,0.3681,0.3681,0.3721,0.3721 MY,0,153496,153549,386.3912,382.7689 MY,0,153549,153592,382.7689,377.8066 MY,0,153592,153624,377.8066,372.8796 C,0,153624,153635,255,255,255,254,254,254 MY,0,153624,158403,372.8796,381.0183 C,0,153678,153689,254,254,254,253,253,253 C,0,153732,153742,253,253,253,252,252,252 C,0,153785,153796,252,252,252,251,251,251 C,0,153839,153849,251,251,251,250,250,250 C,0,153892,153903,250,250,250,249,249,249 C,0,153946,153957,249,249,249,248,248,248 C,0,153999,154010,248,248,248,247,247,247 C,0,154053,154064,247,247,247,246,246,246 C,0,154107,154117,246,246,246,245,245,245 C,0,154160,154171,245,245,245,244,244,244 C,0,154214,154224,244,244,244,243,243,243 C,0,154267,154278,243,243,243,242,242,242 C,0,154321,154332,242,242,242,241,241,241 C,0,154374,154385,241,241,241,240,240,240 C,0,154428,154439,240,240,240,239,239,239 C,0,154482,154492,239,239,239,238,238,238 C,0,154535,154546,238,238,238,237,237,237 C,0,154589,154599,237,237,237,236,236,236 C,0,154642,154653,236,236,236,235,235,235 C,0,154696,154707,235,235,235,234,234,234 C,0,154749,154760,234,234,234,233,233,233 C,0,154803,154814,233,233,233,232,232,232 C,0,154857,154867,232,232,232,231,231,231 C,0,154910,154921,231,231,231,230,230,230 C,0,154964,154974,230,230,230,229,229,229 MY,0,158403,164682,381.0183,389.1163 MY,0,164682,169267,389.1163,393.1457 MX,0,164917,178310,490.243,470.5602 MY,0,169267,172803,393.1457,395.157 MY,0,172803,178171,395.157,396.9257 F,0,178128,178310,0.7,0 MY,0,178171,178224,396.9257,400.1578 MY,0,178224,178267,400.1578,404.8316 MY,0,178267,178310,404.8316,411.2368 R,0,178299,178310,0
Sprite,Foreground,Centre,"sb/font/006e.png",320,240 R,0,153453,153464,0 V,0,153453,153464,0.3681,0.3681 MY,0,153453,153496,387.226,386.3916 F,0,153453,153624,0,0.7 MX,0,153453,165099,527.3228,511.6277 P,0,153464,178310,A V,0,153474,178310,0.3681,0.3681,0.3727,0.3727 MY,0,153496,153549,386.3916,382.7698 MY,0,153549,153592,382.7698,377.8079 MY,0,153592,153624,377.8079,372.8811 C,0,153624,153635,255,255,255,254,254,254 MY,0,153624,158371,372.8811,381.0125 C,0,153678,153689,254,254,254,253,253,253 C,0,153732,153742,253,253,253,252,252,252 C,0,153785,153796,252,252,252,251,251,251 C,0,153839,153849,251,251,251,250,250,250 C,0,153892,153903,250,250,250,249,249,249 C,0,153946,153957,249,249,249,248,248,248 C,0,153999,154010,248,248,248,247,247,247 C,0,154053,154064,247,247,247,246,246,246 C,0,154107,154117,246,246,246,245,245,245 C,0,154160,154171,245,245,245,244,244,244 C,0,154214,154224,244,244,244,243,243,243 C,0,154267,154278,243,243,243,242,242,242 C,0,154321,154332,242,242,242,241,241,241 C,0,154374,154385,241,241,241,240,240,240 C,0,154428,154439,240,240,240,239,239,239 C,0,154482,154492,239,239,239,238,238,238 C,0,154535,154546,238,238,238,237,237,237 C,0,154589,154599,237,237,237,236,236,236 C,0,154642,154653,236,236,236,235,235,235 C,0,154696,154707,235,235,235,234,234,234 C,0,154749,154760,234,234,234,233,233,233 C,0,154803,154814,233,233,233,232,232,232 C,0,154857,154867,232,232,232,231,231,231 C,0,154910,154921,231,231,231,230,230,230 C,0,154964,154974,230,230,230,229,229,229 MY,0,158371,164596,381.0125,389.1269 MY,0,164596,169085,389.1269,393.161 MX,0,165099,178310,511.6277,492.3732 MY,0,169085,172439,393.161,395.1725 MY,0,172439,178149,395.1725,396.6827 F,0,178128,178310,0.7,0 MY,0,178149,178214,396.6827,399.5216 MY,0,178214,178257,399.5216,403.7381 MY,0,178257,178310,403.7381,411.4976 R,0,178299,178310,0
Sprite,Foreground,Centre,"sb/font/0079.png",320,240 R,0,153453,153464,0 V,0,153453,153464,0.3681,0.3681 MY,0,153453,153496,387.226,386.392 F,0,153453,153624,0,0.7 MX,0,153453,165346,548.6811,532.9589 P,0,153464,178310,A V,0,153474,178310,0.3681,0.3681,0.3732,0.3732 MY,0,153496,153549,386.392,382.7707 MY,0,153549,153592,382.7707,377.8091 MY,0,153592,153624,377.8091,372.8825 C,0,153624,153635,255,255,255,254,254,254 MY,0,153624,158349,372.8825,381.0226 C,0,153678,153689,254,254,254,253,253,253 C,0,153732,153742,253,253,253,252,252,252 C,0,153785,153796,252,252,252,251,251,251 C,0,153839,153849,251,251,251,250,250,250 C,0,153892,153903,250,250,250,249,249,249 C,0,153946,153957,249,249,249,248,248,248 C,0,153999,154010,248,248,248,247,247,247 C,0,154053,154064,247,247,247,246,246,246 C,0,154107,154117,246,246,246,245,245,245 C,0,154160,154171,245,245,245,244,244,244 C,0,154214,154224,244,244,244,243,243,243 C,0,154267,154278,243,243,243,242,242,242 C,0,154321,154332,242,242,242,241,241,241 C,0,154374,154385,241,241,241,240,240,240 C,0,154428,154439,240,240,240,239,239,239 C,0,154482,154492,239,239,239,238,238,238 C,0,154535,154546,238,238,238,237,237,237 C,0,154589,154599,237,237,237,236,236,236 C,0,154642,154653,236,236,236,235,235,235 C,0,154696,154707,235,235,235,234,234,234 C,0,154749,154760,234,234,234,233,233,233 C,0,154803,154814,233,233,233,232,232,232 C,0,154857,154867,232,232,232,231,231,231 C,0,154910,154921,231,231,231,230,230,230 C,0,154964,154974,230,230,230,229,229,229 MY,0,158349,164499,381.0226,389.1238 MY,0,164499,168892,389.1238,393.1624 MX,0,165346,178310,532.9589,514.2499 MY,0,168892,172085,393.1624,395.1762 MY,0,172085,178171,395.1762,397.4033 F,0,178128,178310,0.7,0 MY,0,178171,178224,397.4033,400.6459 MY,0,178224,178267,400.6459,405.3342 MY,0,178267,178310,405.3342,411.7591 R,0,178299,178310,0
Sprite,Foreground,Centre,"sb/font/0075.png",320,240 R,0,153453,153464,0 V,0,153453,153464,0.3681,0.3681 MY,0,153453,153496,387.226,386.3924 F,0,153453,153624,0,0.7 MX,0,153453,165592,570.0394,554.331 P,0,153464,178310,A V,0,153474,178310,0.3681,0.3681,0.3737,0.3737 MY,0,153496,153549,386.3924,382.7715 MY,0,153549,153592,382.7715,377.8103 MY,0,153592,153624,377.8103,372.884 C,0,153624,153635,255,255,255,254,254,254 MY,0,153624,158328,372.884,381.0324 C,0,153678,153689,254,254,254,253,253,253 C,0,153732,153742,253,253,253,252,252,252 C,0,153785,153796,252,252,252,251,251,251 C,0,153839,153849,251,251,251,250,250,250 C,0,153892,153903,250,250,250,249,249,249 C,0,153946,153957,249,249,249,248,248,248 C,0,153999,154010,248,248,248,247,247,247 C,0,154053,154064,247,247,247,246,246,246 C,0,154107,154117,246,246,246,245,245,245 C,0,154160,154171,245,245,245,244,244,244 C,0,154214,154224,244,244,244,243,243,243 C,0,154267,154278,243,243,243,242,242,242 C,0,154321,154332,242,242,242,241,241,241 C,0,154374,154385,241,241,241,240,240,240 C,0,154428,154439,240,240,240,239,239,239 C,0,154482,154492,239,239,239,238,238,238 C,0,154535,154546,238,238,238,237,237,237 C,0,154589,154599,237,237,237,236,236,236 C,0,154642,154653,236,236,236,235,235,235 C,0,154696,154707,235,235,235,234,234,234 C,0,154749,154760,234,234,234,233,233,233 C,0,154803,154814,233,233,233,232,232,232 C,0,154857,154867,232,232,232,231,231,231 C,0,154910,154921,231,231,231,230,230,230 C,0,154964,154974,230,230,230,229,229,229 MY,0,158328,164424,381.0324,389.1419 MY,0,164424,168753,389.1419,393.1989 MX,0,165592,178310,554.331,536.1907 MY,0,168753,171828,393.1989,395.2159 MY,0,171828,178160,395.2159,397.3432 F,0,178128,178310,0.7,0 MY,0,178160,178214,397.3432,400.0083 MY,0,178214,178257,400.0083,404.238 MY,0,178257,178310,404.238,412.0214 R,0,178299,178310,0
//Storyboard Sound Samples

[TimingPoints]
21968,342.857142857143,4,2,0,65,1,0
65510,-66.6666666666667,4,2,0,65,0,0
65853,-76.9230769230769,4,2,0,65,0,1
87796,-100,4,2,0,65,0,0
97396,-76.9230769230769,4,2,0,65,0,0
98082,-100,4,2,0,65,0,0
98682,-100,4,2,0,25,0,0
98768,-100,4,2,0,65,0,0
123110,-133.333333333333,4,2,0,65,0,0
123368,-133.333333333333,4,2,0,5,0,0
123453,-83.3333333333333,4,2,0,65,0,0
124482,-133.333333333333,4,2,0,65,0,0
124825,-83.3333333333333,4,2,0,65,0,0
125853,-133.333333333333,4,2,0,65,0,0
125952,-133.333333333333,4,2,0,5,0,0
126196,-83.3333333333333,4,2,0,65,0,0
126882,-133.333333333333,4,2,0,65,0,0
127225,-83.3333333333333,4,2,0,65,0,0
128596,-133.333333333333,4,2,0,65,0,0
128853,-133.333333333333,4,2,0,5,0,0
128939,-83.3333333333333,4,2,0,65,0,0
131339,-83.3333333333333,4,2,0,50,0,0
131682,-76.9230769230769,4,2,0,65,0,1
153453,-76.9230769230769,4,2,0,65,0,0
153625,-76.9230769230769,4,2,0,65,0,1
175568,-100,4,2,0,65,0,0

[Colours]
Combo1 : 162,94,94
Combo2 : 186,102,10
Combo3 : 45,134,116

[HitObjects]
85,205,21968,6,0,L|107:296,1,90,4|0,0:0|0:0,0:0:0:0:
228,321,22310,2,0,P|235:223|202:135,1,180,2|0,0:0|0:0,0:0:0:0:
319,67,22825,2,0,L|351:13,2,45,0|0|8,1:0|0:0|3:0,0:0:0:0:
353,188,23168,1,2,0:0:0:0:
353,188,23253,1,0,0:0:0:0:
352,188,23339,6,0,L|358:277,1,90,2|0,0:0|0:0,0:0:0:0:
217,337,23682,2,0,P|222:248|179:170,1,180,2|0,0:0|0:0,0:0:0:0:
53,172,24196,1,0,1:0:0:0:
53,172,24282,1,0,0:0:0:0:
53,172,24368,1,8,3:0:0:0:
104,286,24539,1,0,0:0:0:0:
154,66,24710,6,0,L|243:55,1,90,2|0,0:0|0:0,0:0:0:0:
358,107,25053,2,0,P|320:144|300:184,1,90,2|0,0:0|0:0,0:0:0:0:
195,268,25396,1,0,0:0:0:0:
310,316,25568,1,0,1:0:0:0:
131,139,25739,1,0,3:0:0:0:
59,242,25910,1,4,3:0:0:0:
240,272,26082,6,0,L|214:186,1,90,2|0,0:0|0:0,0:0:0:0:
336,217,26425,2,0,B|326:173|326:173|331:120,1,90,2|0,0:0|0:0,0:0:0:0:
451,238,26768,1,4,3:0:0:0:
451,238,26939,5,0,1:0:0:0:
446,273,27025,1,0,0:0:0:0:
433,306,27110,2,0,P|419:330|398:348,1,45,8|8,3:0|3:0,0:0:0:0:
334,294,27282,2,0,P|313:288|291:286,1,45
206,341,27453,6,0,P|155:339|104:319,2,90,6|0|2,0:0|0:0|0:0,0:0:0:0:
204,213,27968,2,0,P|189:168|160:126,1,90
55,192,28310,2,0,L|49:236,2,45,0|0|8,1:0|0:0|3:0,3:0:0:0:
153,16,28653,1,0,0:0:0:0:
50,89,28825,5,2,0:0:0:0:
165,132,28996,1,0,0:0:0:0:
275,70,29168,1,2,0:0:0:0:
390,113,29339,1,0,0:0:0:0:
390,113,29682,2,8,P|400:134|412:153,1,45,0|0,1:0|0:0,3:0:0:0:
367,222,29853,1,0,0:0:0:0:
345,251,29939,1,0,1:0:0:0:
332,283,30025,2,0,P|324:304|324:326,1,45,2|0,0:0|0:0,0:0:0:0:
243,325,30196,6,0,L|223:237,2,90,2|0|2,0:0|0:0|0:0,0:0:0:0:
125,276,30710,2,0,P|98:241|58:222,1,90
27,344,31053,1,0,1:0:0:0:
42,352,31139,1,0,0:0:0:0:
57,360,31225,1,8,3:0:0:0:
74,361,31310,1,0,0:0:0:0:
92,362,31396,1,4,3:0:0:0:
110,363,31482,1,0,0:0:0:0:
128,364,31568,6,0,P|177:361|216:347,1,90,2|0,0:0|2:0,0:0:0:0:
105,232,31910,2,0,P|57:233|0:213,1,90,2|0,0:0|0:0,0:0:0:0:
66,99,32253,1,0,3:0:0:0:
215,176,32425,1,4,3:0:0:0:
223,210,32510,1,0,1:0:0:0:
225,246,32596,1,8,3:0:0:0:
336,131,32768,2,0,P|342:110|345:83,1,45,4|0,3:0|0:0,0:0:0:0:
440,91,32939,6,0,B|454:156|454:156|446:269,1,180,6|8,0:0|1:0,0:0:0:0:
325,206,33453,1,2,0:0:0:0:
201,260,33625,1,2,0:0:0:0:
74,214,33796,2,0,B|59:185|59:185|55:120,1,90,4|8,3:0|1:0,0:0:0:0:
333,21,34139,2,0,B|350:59|350:59|356:106,1,90,2|4,0:0|3:0,0:0:0:0:
146,162,34482,5,0,0:0:0:0:
325,206,34653,1,8,1:0:0:0:
251,55,34825,1,0,0:0:0:0:
239,168,34996,1,2,0:0:0:0:
163,271,35168,1,8,3:0:0:0:
253,64,35339,1,8,1:0:0:0:
291,295,35510,1,2,0:0:0:0:
307,326,35596,1,2,0:0:0:0:
326,361,35682,1,4,3:0:0:0:
372,241,35853,5,2,0:0:0:0:
163,271,36025,2,0,P|157:319|168:362,2,90,8|2|0,1:0|0:0|0:0,0:0:0:0:
268,132,36539,2,0,P|280:88|278:44,1,90,4|8,3:0|1:0,0:0:0:0:
116,67,36882,1,2,0:0:0:0:
23,199,37053,5,4,3:0:0:0:
116,67,37225,1,2,0:0:0:0:
116,67,37310,1,0,1:0:0:0:
116,67,37396,2,0,L|133:167,1,90,8|0,1:0|0:0,0:0:0:0:
266,220,37739,2,0,B|260:192|260:192|267:131,1,90,2|4,0:0|3:0,0:0:0:0:
409,20,38082,2,0,B|428:103|428:103|417:199,1,180,8|4,1:0|0:0,0:0:0:0:
145,204,38596,5,2,0:0:0:0:
337,245,38768,1,8,1:0:0:0:
216,165,38939,1,2,0:0:0:0:
255,321,39110,2,0,L|255:231,1,90,2|4,0:0|3:0,0:0:0:0:
255,231,39368,1,0,1:0:0:0:
255,231,39453,1,8,1:0:0:0:
360,107,39625,2,0,L|406:96,2,45,2|0|4,0:0|0:0|3:0,0:0:0:0:
173,35,39968,5,2,0:0:0:0:
173,35,40053,1,2,0:0:0:0:
173,35,40139,1,8,1:0:0:0:
159,159,40310,1,2,0:0:0:0:
37,194,40482,2,0,P|25:145|26:104,1,90,2|4,0:0|3:0,0:0:0:0:
159,159,40825,2,0,P|223:161|269:146,1,90,8|0,1:0|0:0,0:0:0:0:
110,288,41168,6,0,P|142:331|229:361,1,135,4|0,3:0|0:0,0:0:0:0:
230,318,41510,2,0,P|254:280|293:259,1,90,8|0,1:0|0:0,0:0:0:0:
476,280,41853,1,2,0:0:0:0:
322,354,42025,1,4,3:0:0:0:
322,354,42110,1,0,1:0:0:0:
322,354,42196,1,8,1:0:0:0:
265,117,42368,1,2,0:0:0:0:
265,117,42453,1,0,1:0:0:0:
265,117,42539,6,0,P|238:153|228:196,1,90,4|0,3:0|0:0,0:0:0:0:
227,196,42796,1,4,3:0:0:0:
227,196,42882,1,8,1:0:0:0:
362,204,43053,1,4,3:0:0:0:
223,45,43225,1,4,0:0:0:0:
89,209,43396,2,0,P|86:244|82:259,1,45,4|2,3:0|0:0,0:0:0:0:
171,282,43568,1,0,1:0:0:0:
203,297,43653,1,0,1:0:0:0:
227,323,43739,2,0,P|239:341|250:361,1,45,8|0,3:0|0:0,0:0:0:0:
323,303,43910,6,0,P|360:277|403:266,1,90,4|0,0:0|0:0,0:0:0:0:
484,170,44253,2,0,L|395:153,1,90,8|0,1:0|0:0,0:0:0:0:
256,99,44596,1,2,0:0:0:0:
163,192,44768,1,4,3:0:0:0:
256,284,44939,1,8,1:0:0:0:
348,192,45110,1,2,0:0:0:0:
163,103,45282,6,0,P|120:93|75:90,1,90,4|2,3:0|0:0,0:0:0:0:
23,205,45625,1,8,1:0:0:0:
68,322,45796,1,2,0:0:0:0:
114,204,45968,1,2,0:0:0:0:
114,204,46139,1,4,3:0:0:0:
148,214,46225,1,0,0:0:0:0:
184,218,46310,2,0,P|206:217|228:211,1,45,8|0,1:0|0:0,0:0:0:0:
279,123,46482,2,0,P|299:113|322:108,1,45,0|8,1:0|1:0,0:0:0:0:
412,155,46653,6,0,P|418:244|394:330,1,180,4|8,3:0|1:0,0:0:0:0:
269,301,47168,1,2,0:0:0:0:
143,311,47339,2,0,P|93:328|50:358,2,90,2|4|8,0:0|3:0|1:0,0:0:0:0:
235,225,47853,2,0,P|287:207|340:201,1,90,2|4,0:0|3:0,0:0:0:0:
155,124,48196,5,2,0:0:0:0:
155,124,48282,1,0,0:0:0:0:
155,124,48368,2,0,P|118:100|74:92,1,90,8|0,1:0|0:0,0:0:0:0:
33,281,48710,2,0,P|69:252|95:207,1,90,2|4,0:0|3:0,0:0:0:0:
116,188,48968,1,0,0:0:0:0:
149,175,49053,1,8,1:0:0:0:
184,178,49139,1,0,0:0:0:0:
214,197,49225,1,2,0:0:0:0:
248,207,49310,1,2,0:0:0:0:
283,199,49396,6,0,P|318:173|337:132,1,90,4|2,0:0|0:0,0:0:0:0:
434,212,49739,1,8,1:0:0:0:
392,330,49910,1,2,0:0:0:0:
263,112,50082,1,2,0:0:0:0:
303,231,50253,1,4,3:0:0:0:
388,138,50425,2,0,L|407:48,1,90,8|2,1:0|0:0,0:0:0:0:
263,112,50768,5,4,3:0:0:0:
125,46,50939,1,2,0:0:0:0:
13,148,51110,2,0,P|21:192|43:231,1,90,8|2,1:0|0:0,0:0:0:0:
148,303,51453,1,2,0:0:0:0:
219,199,51625,2,0,P|224:177|226:154,1,45,4|0,3:0|0:0,0:0:0:0:
304,197,51796,1,8,1:0:0:0:
335,215,51882,1,0,0:0:0:0:
369,224,51968,2,0,P|391:227|413:227,1,45,0|0,1:0|1:0,0:0:0:0:
390,138,52139,6,0,P|383:93|394:28,1,90,4|0,3:0|0:0,0:0:0:0:
489,177,52482,2,0,P|497:267|470:352,1,180,8|0,1:0|0:0,0:0:0:0:
349,315,52996,2,0,L|298:333,2,45,4|0|8,3:0|0:0|1:0,0:0:0:0:
418,209,53339,1,2,0:0:0:0:
304,151,53510,6,0,P|263:134|219:134,1,90,4|0,3:0|0:0,0:0:0:0:
185,148,53768,1,4,3:0:0:0:
149,152,53853,2,0,P|130:153|93:143,1,45,8|0,1:0|1:0,0:0:0:0:
176,69,54025,2,0,P|158:42|146:18,1,45,4|0,3:0|0:0,0:0:0:0:
175,228,54196,2,0,L|153:325,1,90,2|4,0:0|3:0,0:0:0:0:
275,276,54539,1,8,1:0:0:0:
396,244,54710,1,4,3:0:0:0:
396,244,54796,1,0,1:0:0:0:
396,244,54882,6,0,P|420:206|429:162,1,90,4|0,0:0|0:0,0:0:0:0:
395,132,55139,2,0,P|376:89|373:46,1,90,4|0,3:0|0:0,0:0:0:0:
405,13,55396,1,4,3:0:0:0:
274,119,55568,2,0,L|147:136,1,90,8|0,1:0|0:0,0:0:0:0:
103,275,55910,2,0,L|192:263,1,90,4|0,3:0|0:0,0:0:0:0:
308,214,56253,5,2,0:0:0:0:
415,282,56425,1,4,3:0:0:0:
406,317,56510,1,0,1:0:0:0:
382,343,56596,1,0,1:0:0:0:
348,353,56682,1,2,0:0:0:0:
314,345,56768,2,0,P|279:317|262:275,1,90,4|2,3:0|0:0,0:0:0:0:
204,199,57025,2,0,P|186:185|169:170,1,45,4|0,3:0|0:0,0:0:0:0:
228,87,57196,1,4,3:0:0:0:
228,87,57282,2,0,P|259:59|320:48,1,90,8|2,1:0|0:0,0:0:0:0:
420,98,57625,6,0,P|446:143|457:190,1,90,4|0,3:0|0:0,0:0:0:0:
434,218,57882,2,0,P|423:261|431:324,1,90,4|0,3:0|0:0,0:0:0:0:
380,313,58139,2,0,P|336:312|296:292,1,90,4|8,3:0|1:0,0:0:0:0:
82,158,58653,2,0,B|44:175|43:197|43:197|76:228|75:272,1,135,4|2,3:0|0:0,0:0:0:0:
87,308,58996,6,0,P|120:335|168:327,1,90,0|4,0:0|3:0,0:0:0:0:
271,264,59339,1,0,1:0:0:0:
277,228,59425,1,0,1:0:0:0:
283,193,59510,2,0,L|291:146,1,45,4|4,3:0|3:0,0:0:0:0:
351,218,59682,1,8,0:0:0:0:
213,176,59853,1,4,3:0:0:0:
321,80,60025,2,0,P|404:68|445:109,1,135,8|0,0:0|0:0,0:0:0:0:
450,141,60368,6,0,B|457:169|442:201|442:201|404:184|370:203,2,135,4|4|2,0:0|3:0|0:0,0:0:0:0:
408,275,61053,2,0,L|415:327,1,45,8|4,1:0|3:0,0:0:0:0:
244,271,61396,2,0,P|177:271|125:311,1,135,4|0,3:0|0:0,0:0:0:0:
125,311,61739,5,0,0:0:0:0:
15,254,61910,1,4,3:0:0:0:
124,185,62082,1,0,1:0:0:0:
121,148,62168,1,0,1:0:0:0:
118,113,62253,2,0,L|107:12,1,90,4|0,3:0|0:0,0:0:0:0:
149,42,62510,2,0,P|187:64|231:62,1,90,4|4,3:0|3:0,0:0:0:0:
271,39,62768,1,8,1:0:0:0:
381,264,63110,6,0,P|316:300|300:319,1,90,4|0,3:0|0:0,0:0:0:0:
262,296,63368,2,0,L|253:198,1,90,4|0,3:0|0:0,0:0:0:0:
250,165,63625,1,4,3:0:0:0:
91,104,63796,2,0,P|40:148|27:190,1,90,8|2,1:0|0:0,0:0:0:0:
50,210,64053,1,0,1:0:0:0:
50,210,64139,2,0,P|62:246|60:305,1,90,4|2,3:0|0:0,0:0:0:0:
167,228,64482,5,2,0:0:0:0:
167,227,64653,2,0,P|240:177|277:96,1,180,4|4,3:0|3:0,0:0:0:0:
321,106,65082,1,0,1:0:0:0:
321,106,65168,2,0,L|421:147,1,90,8|4,1:0|3:0,0:0:0:0:
455,267,65510,6,0,P|436:354|361:311,1,202.500007724762,2|0,0:0|0:0,0:0:0:0:
322,286,65853,6,0,L|197:302,1,116.999994644165,4|0,0:0|0:0,0:0:0:0:
68,199,66196,2,0,P|47:142|61:79,1,116.999994644165,8|0,1:0|0:3,0:3:0:0:
260,29,66539,2,0,P|368:60|407:166,1,233.999989288331,2|8,0:0|1:0,0:0:0:0:
193,344,67053,2,0,P|227:297|280:274,1,116.999994644165,2|4,0:0|3:0,0:0:0:0:
434,304,67396,5,2,0:0:0:0:
446,271,67482,1,2,0:0:0:0:
458,238,67568,1,8,1:0:0:0:
302,188,67739,1,2,0:0:0:0:
267,189,67825,1,2,0:0:0:0:
234,178,67910,1,0,1:0:0:0:
205,158,67996,1,0,1:0:0:0:
184,130,68082,2,0,P|167:70|180:11,1,116.999994644165,4|8,3:0|1:0,0:0:0:0:
309,69,68425,1,2,0:0:0:0:
88,202,68596,6,0,L|68:317,1,116.999994644165,4|0,3:0|0:0,0:0:0:0:
227,276,68939,1,8,1:0:0:0:
130,141,69110,1,2,0:0:0:0:
393,94,69282,1,2,0:0:0:0:
309,234,69453,1,4,3:0:0:0:
236,87,69625,2,0,P|115:21|30:68,1,233.999989288331,8|4,1:0|3:0,0:0:0:0:
84,216,70139,5,2,0:0:0:0:
87,251,70225,1,2,0:0:0:0:
90,285,70310,1,8,1:0:0:0:
214,351,70482,2,0,P|225:323|228:285,1,58.4999973220826,2|0,0:0|1:0,0:0:0:0:
196,212,70653,1,2,0:0:0:0:
184,179,70739,1,0,1:0:0:0:
181,144,70825,1,4,1:0:0:0:
188,109,70910,1,0,0:0:0:0:
203,78,70996,2,0,P|222:56|244:36,1,58.4999973220826,8|0,1:0|0:0,0:0:0:0:
308,102,71168,1,2,0:0:0:0:
328,130,71253,1,2,0:0:0:0:
352,154,71339,6,0,P|405:185|469:177,1,116.999994644165,4|0,0:0|0:0,0:0:0:0:
332,243,71682,2,0,P|283:276|253:325,1,116.999994644165,8|0,1:0|0:0,0:0:0:0:
113,310,72025,1,2,0:0:0:0:
60,176,72196,1,4,3:0:0:0:
60,176,72282,1,0,0:0:0:0:
60,176,72368,2,0,P|83:123|133:93,1,116.999994644165,8|0,1:0|0:0,0:0:0:0:
342,171,72710,6,0,P|386:212|425:273,1,116.999994644165,4|2,3:0|0:0,0:0:0:0:
113,310,73053,2,0,P|146:249|151:196,1,116.999994644165,8|2,1:0|0:0,0:0:0:0:
340,56,73396,2,0,L|342:172,1,116.999994644165,2|4,0:0|3:0,0:0:0:0:
240,288,73739,2,0,B|184:200|296:152|240:64,1,233.999989288331,8|4,1:0|3:0,0:0:0:0:
117,116,74253,5,0,0:0:0:0:
319,238,74425,1,8,1:0:0:0:
108,337,74596,2,0,L|30:345,2,58.4999973220826,2|0|2,0:0|0:0|0:0,0:0:0:0:
239,287,74939,2,0,P|212:236|164:205,1,116.999994644165,4|8,3:0|1:0,0:0:0:0:
28,167,75282,1,2,0:0:0:0:
28,167,75368,1,0,1:0:0:0:
28,166,75453,6,0,P|24:195|28:224,1,58.4999973220826,4|0,3:0|1:0,0:0:0:0:
120,172,75625,1,0,0:0:0:0:
120,171,75710,2,0,P|127:143|138:116,1,58.4999973220826,4|8,3:0|1:0,0:0:0:0:
326,48,75968,1,4,3:0:0:0:
60,88,76139,1,8,1:0:0:0:
239,287,76310,1,4,3:0:0:0:
239,287,76396,1,0,1:0:0:0:
239,287,76482,1,8,1:0:0:0:
239,287,76568,1,2,0:0:0:0:
239,287,76653,1,8,1:0:0:0:
239,287,76739,1,0,1:0:0:0:
237,286,76825,6,0,P|299:325|373:324,1,116.999994644165,4|0,0:0|0:0,0:0:0:0:
479,85,77168,2,0,P|425:103|389:149,1,116.999994644165,8|0,1:0|0:0,0:0:0:0:
303,357,77510,2,0,P|234:278|245:155,1,233.999989288331,2|8,0:0|1:0,0:0:0:0:
349,27,78025,1,2,0:0:0:0:
188,101,78196,6,0,L|71:94,1,116.999994644165,4|0,3:0|0:0,0:0:0:0:
35,230,78539,1,8,1:0:0:0:
140,322,78710,2,0,P|169:324|197:318,1,58.4999973220826,2|0,0:0|0:0,0:0:0:0:
233,223,78882,2,0,P|260:212|289:207,1,58.4999973220826,2|0,0:0|1:0,0:0:0:0:
364,275,79053,1,4,3:0:0:0:
388,299,79139,1,0,0:0:0:0:
417,316,79225,2,0,P|443:328|472:328,1,58.4999973220826,8|0,1:0|0:0,0:0:0:0:
460,232,79396,2,0,P|452:205|450:175,1,58.4999973220826,2|0,0:0|0:0,0:0:0:0:
377,90,79568,6,0,P|266:61|169:120,1,233.999989288331,4|8,3:0|1:0,0:0:0:0:
131,352,80082,1,2,0:0:0:0:
328,228,80253,1,2,0:0:0:0:
118,122,80425,1,4,3:0:0:0:
329,22,80596,2,0,P|449:67|500:166,1,233.999989288331,8|4,1:0|3:0,0:0:0:0:
397,284,81110,6,0,L|386:341,2,58.4999973220826,2|0|8,0:0|0:0|1:0,0:0:0:0:
297,153,81453,1,2,2:0:0:0:
262,145,81539,1,0,1:0:0:0:
228,150,81625,1,2,2:0:0:0:
197,166,81710,1,2,2:0:0:0:
174,192,81796,1,4,3:0:0:0:
161,225,81882,1,0,2:0:0:0:
159,259,81968,2,0,P|164:294|177:318,1,58.4999973220826,8|0,1:0|0:0,0:0:0:0:
267,257,82139,2,0,P|303:287|320:305,1,58.4999973220826,2|0,0:0|0:0,0:0:0:0:
106,154,82310,6,0,P|54:178|26:228,1,116.999994644165,4|0,0:0|0:0,0:0:0:0:
106,344,82653,1,8,1:0:0:0:
193,233,82825,2,0,L|207:103,1,116.999994644165
193,83,83082,1,2,0:0:0:0:
193,83,83168,2,0,P|183:60|174:21,2,58.4999973220826,2|2|8,0:0|0:0|1:0,0:0:0:0:
347,160,83510,1,2,0:0:0:0:
353,194,83596,1,0,1:0:0:0:
353,229,83682,6,0,P|348:287|325:340,1,116.999994644165
128,211,84025,1,8,1:0:0:0:
72,339,84196,1,2,0:0:0:0:
281,175,84368,1,0,0:0:0:0:
22,135,84539,1,2,0:0:0:0:
207,318,84710,1,8,1:0:0:0:
207,42,84882,1,2,0:0:0:0:
428,96,85053,5,4,3:0:0:0:
460,127,85138,1,2,0:0:0:0:
477,171,85224,1,0,1:0:0:0:
473,216,85310,1,0,1:0:0:0:
455,259,85396,2,0,P|431:277|403:284,1,58.4999973220826,8|0,1:0|0:0,0:0:0:0:
359,171,85568,2,0,P|354:141|355:112,1,58.4999973220826,8|0,1:0|0:0,0:0:0:0:
221,175,85739,2,0,P|236:200|245:228,3,58.4999973220826,0|0|4|0,1:0|1:0|3:0|0:0,0:0:0:0:
245,264,86082,1,8,1:0:0:0:
235,297,86168,1,2,0:0:0:0:
215,325,86253,1,0,1:0:0:0:
185,344,86339,1,2,0:0:0:0:
151,350,86425,6,0,P|88:346|44:313,1,116.999994644165,4|0,3:0|0:0,0:0:0:0:
62,218,86682,2,0,P|71:190|88:166,1,58.4999973220826,4|8,3:0|1:0,0:0:0:0:
296,40,86939,1,4,3:0:0:0:
162,270,87110,1,4,0:0:0:0:
429,270,87282,1,4,3:0:0:0:
285,173,87453,1,8,1:0:0:0:
285,173,87539,1,0,1:0:0:0:
285,173,87625,1,2,0:0:0:0:
285,173,87710,1,0,1:0:0:0:
285,173,87796,6,0,P|291:217|310:258,2,90,4|0|8,0:0|0:0|1:0,0:0:0:0:
375,48,88310,2,0,P|430:118|453:204,1,180,0|4,0:0|3:0,0:0:0:0:
310,343,88825,1,8,1:0:0:0:
435,330,88996,1,2,0:0:0:0:
435,330,89082,1,0,0:0:0:0:
435,330,89168,6,0,P|412:285|401:225,2,90,4|0|8,3:0|0:0|1:0,0:0:0:0:
292,272,89682,2,0,P|249:259|205:267,1,90
68,338,90025,1,4,3:0:0:0:
54,305,90110,1,0,0:0:0:0:
54,269,90196,1,8,1:0:0:0:
65,235,90282,1,0,1:0:0:0:
78,202,90368,1,2,0:0:0:0:
85,166,90453,1,2,0:0:0:0:
78,131,90539,6,0,P|58:80|35:50,2,90,4|0|8,3:0|1:0|1:0,0:0:0:0:
221,186,91053,1,0,1:0:0:0:
221,186,91139,1,0,0:0:0:0:
221,186,91225,1,0,1:0:0:0:
370,212,91396,1,4,3:0:0:0:
394,184,91482,1,0,0:0:0:0:
409,152,91568,2,0,P|415:130|417:108,1,45,8|0,1:0|0:0,0:0:0:0:
334,53,91739,2,0,P|321:72|305:88,1,45,0|8,0:0|1:0,0:0:0:0:
203,101,91910,6,0,P|163:120|139:157,2,90,4|0|8,3:0|1:0|1:0,0:0:0:0:
282,233,92425,2,0,L|296:360,1,90,2|0,0:0|0:0,0:0:0:0:
138,323,92768,2,0,P|98:318|81:309,1,45,4|0,3:0|0:0,0:0:0:0:
129,238,92939,1,8,1:0:0:0:
148,207,93025,1,0,1:0:0:0:
158,173,93110,1,2,0:0:0:0:
159,137,93196,1,2,0:0:0:0:
150,102,93282,6,0,P|141:58|147:13,2,90,4|0|8,3:0|1:0|1:0,0:0:0:0:
41,197,93796,2,0,P|30:243|47:291,1,90,2|0,0:0|0:0,0:0:0:0:
179,327,94139,2,0,L|196:265,1,45,4|0,3:0|0:0,0:0:0:0:
285,303,94310,2,0,L|302:241,1,45,8|0,1:0|1:0,0:0:0:0:
391,278,94482,1,2,0:0:0:0:
401,243,94568,1,2,0:0:0:0:
412,209,94653,6,0,L|468:279,2,90,4|0|8,3:0|1:0|1:0,0:0:0:0:
448,106,95168,2,0,B|399:86|399:86|348:85,1,90,2|0,0:0|0:0,0:0:0:0:
217,134,95510,1,4,3:0:0:0:
183,119,95596,1,0,0:0:0:0:
156,94,95682,2,0,P|141:70|138:46,2,45,8|0|2,1:0|0:0|0:0,0:0:0:0:
34,187,96025,6,0,L|24:276,2,90,4|0|8,3:0|1:0|1:0,0:0:0:0:
187,224,96539,2,0,P|220:253|240:293,1,90,2|0,0:0|0:0,0:0:0:0:
393,306,96882,1,4,3:0:0:0:
409,274,96968,1,0,0:0:0:0:
415,238,97053,2,0,P|415:216|411:194,1,45,8|0,1:0|1:0,0:0:0:0:
309,152,97225,2,0,P|310:129|314:107,1,45,2|8,0:0|1:0,0:0:0:0:
394,25,97396,6,0,B|430:8|456:30|456:30|429:54|420:86|425:112|440:133,1,175.499991966248,4|4,3:0|3:0,0:0:0:0:
485,216,97739,2,0,P|477:270|423:283,1,116.999994644165,8|0,1:0|0:0,0:0:0:0:
277,235,98082,5,4,0:0:0:0:
128,270,98253,1,4,3:0:0:0:
121,276,98339,1,0,1:0:0:0:
114,282,98425,1,8,1:0:0:0:
108,288,98510,1,0,1:0:0:0:
101,294,98596,1,8,1:0:0:0:
95,301,98682,1,8,1:0:0:0:
88,307,98768,6,0,L|71:213,1,90,4|0,0:0|0:0,0:0:0:0:
176,144,99110,2,0,L|193:238,1,90,8|2,1:0|0:0,0:0:0:0:
304,288,99453,1,0,0:0:0:0:
416,312,99625,1,4,3:0:0:0:
360,200,99796,1,8,1:0:0:0:
464,136,99968,1,2,0:0:0:0:
368,56,100139,6,0,P|320:56|280:72,1,90,4|2,3:0|0:0,0:0:0:0:
281,71,100396,1,0,0:0:0:0:
281,71,100482,1,8,1:0:0:0:
181,147,100653,5,2,0:0:0:0:
253,251,100825,1,2,0:0:0:0:
353,175,100996,1,4,3:0:0:0:
281,71,101168,2,0,L|266:167,1,90,8|0,1:0|0:0,0:0:0:0:
168,320,101510,6,0,B|136:296|136:296|136:280|136:280|104:256,1,90,4|0,3:0|0:0,0:0:0:0:
120,104,101853,2,0,B|152:128|152:128|152:144|152:144|184:168,1,90,8|2,1:0|0:0,0:0:0:0:
348,260,102196,1,0,0:0:0:0:
422,99,102368,1,4,3:0:0:0:
317,163,102539,1,8,1:0:0:0:
444,205,102710,1,2,0:0:0:0:
328,72,102882,6,0,P|280:64|224:72,1,90,4|2,3:0|0:0,0:0:0:0:
239,67,103139,1,0,0:0:0:0:
239,67,103225,1,8,1:0:0:0:
144,152,103396,1,2,0:0:0:0:
144,152,103568,2,0,B|119:198|119:198|120:224|144:240,1,90,2|4,0:0|3:0,0:0:0:0:
159,256,103825,1,0,0:0:0:0:
191,270,103910,2,0,B|239:286|239:286|279:270,1,90,8|0,1:0|0:0,0:0:0:0:
363,118,104253,6,0,P|308:72|224:78,1,135,4|0,0:0|0:0,0:0:0:0:
201,77,104596,2,0,P|157:74|113:58,1,90,8|2,1:0|0:0,0:0:0:0:
104,176,104939,2,0,P|88:216|96:264,1,90,0|2,0:0|0:0,0:0:0:0:
94,261,105196,1,0,0:0:0:0:
94,261,105282,1,8,1:0:0:0:
224,280,105453,1,2,0:0:0:0:
248,160,105625,6,0,P|296:176|328:216,1,90,0|2,0:0|0:0,0:0:0:0:
322,204,105968,1,8,1:0:0:0:
217,78,106139,1,2,0:0:0:0:
227,241,106310,1,2,0:0:0:0:
317,107,106482,1,0,0:0:0:0:
162,163,106653,2,0,L|114:163,2,45,8|0|0,1:0|0:0|0:0,0:0:0:0:
235,265,106996,6,0,P|271:299|318:312,1,90,4|0,3:0|0:0,0:0:0:0:
355,194,107339,2,0,P|318:159|271:146,1,90,8|2,1:0|0:0,0:0:0:0:
146,148,107682,1,0,0:3:0:0:
51,243,107853,1,0,0:3:0:0:
145,339,108025,1,8,1:0:0:0:
240,244,108196,1,2,0:0:0:0:
215,110,108368,6,0,P|183:80|138:70,1,90,4|0,3:0|1:0,0:0:0:0:
204,39,108625,2,0,L|256:19,1,45,4|0,3:0|1:0,0:0:0:0:
297,86,108796,2,0,P|337:103|391:102,1,90,8|2,3:0|0:0,0:0:0:0:
422,125,109053,2,0,P|438:173|422:221,1,90,8|4,1:0|3:0,0:0:0:0:
350,309,109396,2,0,P|278:333|222:309,1,135,8|0,1:0|0:0,0:0:0:0:
192,281,109739,6,0,L|142:200,1,90,4|0,0:0|0:0,0:0:0:0:
219,102,110082,2,0,P|252:69|303:66,1,90,8|0,1:0|0:0,0:0:0:0:
342,181,110425,2,0,P|308:213|257:216,1,90,2|4,0:0|3:0,0:0:0:0:
429,259,110768,2,0,P|446:219|452:162,1,90,8|0,1:0|0:0,0:0:0:0:
365,95,111110,6,0,P|348:135|342:192,1,90,4|0,3:0|0:0,0:0:0:0:
329,296,111453,2,0,L|245:327,1,90,8|0,1:0|0:0,0:0:0:0:
112,297,111796,1,2,0:0:0:0:
80,265,111882,1,0,1:0:0:0:
64,225,111968,2,0,P|64:177|80:129,1,90,4|8,3:0|1:0,0:0:0:0:
88,22,112310,2,0,P|100:40|111:60,1,45,2|0,0:0|0:0,0:0:0:0:
168,118,112482,6,0,P|209:169|291:159,1,135,4|0,3:0|0:0,0:0:0:0:
311,143,112825,2,0,L|331:85,2,45,8|0|0,1:0|0:0|0:0,0:0:0:0:
409,63,113168,1,2,0:0:0:0:
457,178,113339,2,0,P|466:202|477:218,1,45,4|0,3:0|0:0,0:0:0:0:
392,232,113510,2,0,L|299:216,1,90,8|0,1:0|0:0,0:0:0:0:
203,139,113853,5,4,3:0:0:0:
360,50,114025,1,0,1:0:0:0:
472,192,114196,2,0,P|464:248|440:296,1,90,8|0,1:0|0:0,0:0:0:0:
336,304,114539,1,2,0:0:0:0:
240,232,114710,1,4,3:0:0:0:
152,312,114882,1,8,1:0:0:0:
96,208,115053,2,0,L|88:152,1,45
84,118,115225,5,4,0:0:0:0:
368,168,115568,1,8,1:0:0:0:
272,248,115739,1,2,0:0:0:0:
272,248,115825,1,0,1:0:0:0:
272,248,115910,2,0,P|240:288|224:328,1,90,2|4,0:0|3:0,0:0:0:0:
392,320,116253,1,8,1:0:0:0:
306,181,116425,1,0,0:0:0:0:
144,216,116596,6,0,L|168:104,2,90,4|0|8,3:0|0:0|1:0,0:0:0:0:
244,344,117110,1,0,0:0:0:0:
256,312,117196,1,0,1:0:0:0:
284,288,117282,1,2,0:0:0:0:
316,276,117368,1,2,0:0:0:0:
352,272,117453,2,0,P|368:259|384:240,1,45,4|0,3:0|0:0,0:0:0:0:
444,164,117625,2,0,P|377:134|315:43,1,180,8|4,1:0|3:0,0:0:0:0:
136,44,118139,6,0,L|156:132,1,90,0|8,0:0|1:0,0:0:0:0:
232,295,118482,1,0,0:0:0:0:
79,200,118653,1,2,0:0:0:0:
252,194,118825,1,4,3:0:0:0:
252,194,118910,1,0,1:0:0:0:
252,194,118996,2,0,P|291:181|331:154,1,90,8|0,1:0|0:0,0:0:0:0:
448,52,119339,6,0,B|432:60|432:60|392:128,1,90,4|2,3:0|0:0,0:0:0:0:
408,164,119596,2,0,P|372:184|324:192,1,90,4|2,3:0|0:0,0:0:0:0:
288,220,119853,2,0,P|244:204|216:168,1,90,4|8,3:0|1:0,0:0:0:0:
208,131,120110,1,0,0:0:0:0:
215,91,120196,1,4,3:0:0:0:
460,80,120368,1,8,1:0:0:0:
480,112,120453,1,0,0:0:0:0:
484,148,120539,1,2,0:0:0:0:
472,180,120625,1,0,1:0:0:0:
448,204,120710,6,0,P|404:216|364:244,1,90,4|2,0:0|0:0,0:0:0:0:
337,275,120968,1,4,3:0:0:0:
112,252,121225,1,4,3:0:0:0:
112,252,121310,1,0,0:0:0:0:
112,252,121396,2,0,L|124:156,1,90,8|0,1:0|0:0,0:0:0:0:
260,128,121739,2,0,L|248:224,1,90,4|0,3:0|0:0,0:0:0:0:
408,56,122082,5,2,0:0:0:0:
408,56,122253,2,4,P|428:88|436:144,1,90,4|8,3:0|1:0,3:0:0:0:
430,174,122510,1,0,0:0:0:0:
415,213,122596,1,4,1:0:0:0:
256,208,122768,1,4,3:0:0:0:
225,181,122853,2,0,P|205:155|190:91,1,90,8|4,3:0|3:0,0:0:0:0:
252,4,123110,6,0,L|284:112,1,101.250003862381,8|0,1:0|0:0,0:0:0:0:
352,252,123453,6,0,P|425:218|434:139,1,161.999995056153,4|4,0:0|3:0,0:0:0:0:
408,108,123796,2,0,L|300:80,1,107.999996704102,8|0,3:0|0:0,0:0:0:0:
199,50,124139,1,8,1:0:0:0:
272,316,124482,6,0,L|432:276,1,135.000005149842,2|2,0:0|0:0,0:0:0:0:
468,120,124996,6,0,P|416:100|364:92,1,107.999996704102,4|8,3:0|1:0,0:0:0:0:
344,124,125253,1,2,0:0:0:0:
308,140,125339,1,4,3:0:0:0:
272,136,125425,2,0,P|240:124|224:112,1,53.9999983520508,4|0,3:0|1:0,0:0:0:0:
80,26,125682,2,0,P|84:54|80:82,1,53.9999983520508,4|0,3:0|0:0,0:0:0:0:
52,160,125853,6,0,P|84:188|140:204,1,101.250003862381,0|0,1:0|0:0,0:0:0:0:
172,276,126196,6,0,L|284:268,1,107.999996704102,4|0,0:0|0:0,0:0:0:0:
368,160,126453,2,0,L|384:104,1,53.9999983520508,4|0,3:0|1:0,0:0:0:0:
184,80,126710,1,4,3:0:0:0:
184,80,126796,1,4,3:0:0:0:
184,80,126882,6,0,P|136:116|120:156,1,101.250003862381,8|0,1:0|0:0,0:0:0:0:
128,192,127225,6,0,L|224:240,1,107.999996704102,4|0,3:0|0:0,0:0:0:0:
320,344,127568,6,0,P|368:336|416:294,1,107.999996704102,2|4,0:0|3:0,0:0:0:0:
440,224,127825,1,2,0:0:0:0:
416,192,127910,1,0,1:0:0:0:
384,176,127996,2,0,P|356:172|328:176,1,53.9999983520508,0|4,1:0|3:0,0:0:0:0:
212,296,128253,2,0,P|182:283|160:266,1,53.9999983520508,0|0,1:0|0:0,0:0:0:0:
128,192,128425,2,0,P|100:200|76:200,1,53.9999983520508,2|4,0:0|3:0,0:0:0:0:
152,108,128596,6,0,P|184:96|256:100,1,101.250003862381,8|2,1:0|0:0,0:0:0:0:
416,112,128939,6,0,P|344:140|304:216,1,161.999995056153,4|4,0:0|3:0,0:0:0:0:
406,337,129453,1,4,3:0:0:0:
406,337,129539,1,0,1:0:0:0:
406,337,129625,1,8,1:0:0:0:
327,107,129968,1,4,3:0:0:0:
68,140,130310,6,0,P|136:140|176:124,1,107.999996704102,2|4,0:0|3:0,0:0:0:0:
204,104,130568,1,0,1:0:0:0:
228,72,130653,1,8,1:0:0:0:
243,40,130739,1,0,1:0:0:0:
279,48,130825,1,4,3:0:0:0:
315,72,130910,2,0,P|334:96|352:140,1,53.9999983520508,4|8,3:0|1:0,0:0:0:0:
255,333,131168,1,4,3:0:0:0:
148,152,131339,6,0,P|241:154|304:192,1,161.999995056153,4|0,0:0|0:0,0:0:0:0:
372,184,131682,6,0,P|376:244|344:292,1,116.999994644165,4|2,0:0|0:0,0:0:0:0:
168,344,132025,2,0,P|112:332|76:288,1,116.999994644165,8|2,1:0|0:0,0:0:0:0:
184,136,132368,2,0,B|256:132|267:65|267:65|319:15|380:41,1,233.999989288331,2|8,0:0|1:0,0:0:0:0:
456,208,132882,6,0,P|452:150|411:108,1,116.999994644165,2|4,0:0|3:0,0:0:0:0:
240,32,133225,1,2,0:0:0:0:
192,40,133310,1,2,0:0:0:0:
149,60,133396,1,8,1:0:0:0:
136,248,133568,1,0,1:0:0:0:
181,254,133653,1,0,0:0:0:0:
227,252,133739,1,2,0:0:0:0:
271,237,133825,1,2,0:0:0:0:
311,213,133910,2,0,P|346:170|347:106,1,116.999994644165,4|8,3:0|1:0,0:0:0:0:
376,296,134253,1,2,0:0:0:0:
208,128,134425,6,0,P|144:128|88:168,1,116.999994644165,4|0,3:0|0:0,0:0:0:0:
61,343,134768,1,8,1:0:0:0:
61,343,134853,1,0,0:0:0:0:
61,343,134939,1,2,0:0:0:0:
141,135,135110,1,2,0:0:0:0:
309,303,135282,1,4,3:0:0:0:
424,104,135453,2,0,P|343:29|237:64,1,233.999989288331,8|4,1:0|3:0,0:0:0:0:
308,231,135968,5,2,0:0:0:0:
308,231,136053,1,2,0:0:0:0:
308,231,136139,1,8,1:0:0:0:
45,169,136310,1,2,0:0:0:0:
166,276,136482,1,2,0:0:0:0:
136,48,136653,2,0,P|192:32|248:56,1,116.999994644165,4|8,3:0|1:0,0:0:0:0:
256,64,136910,1,0,0:0:0:0:
264,80,136996,1,2,0:0:0:0:
272,96,137082,1,2,0:0:0:0:
280,112,137168,6,0,P|320:160|384:176,1,116.999994644165,4|0,0:0|0:0,0:0:0:0:
445,321,137510,2,0,B|405:321|405:321|365:329|365:329|317:329,1,116.999994644165,8|0,1:0|0:0,0:0:0:0:
166,276,137853,1,2,0:0:0:0:
150,103,138025,1,4,3:0:0:0:
136,147,138110,1,0,0:0:0:0:
101,178,138196,2,0,P|61:218|45:274,1,116.999994644165,8|0,1:0|0:0,0:0:0:0:
240,306,138539,6,0,P|280:266|296:210,1,116.999994644165,4|2,3:0|0:0,0:0:0:0:
464,128,138882,2,0,P|422:87|367:71,1,116.999994644165,8|2,1:0|0:0,0:0:0:0:
184,56,139225,2,0,P|225:96|280:112,1,116.999994644165,2|4,0:0|3:0,0:0:0:0:
64,192,139568,2,0,B|152:136|200:248|288:192,1,233.999989288331,8|4,1:0|3:0,0:0:0:0:
152,96,140082,5,0,0:0:0:0:
264,304,140253,1,8,1:0:0:0:
368,96,140425,1,2,0:0:0:0:
368,96,140510,1,0,0:0:0:0:
368,96,140596,1,0,0:0:0:0:
152,96,140768,2,0,P|98:117|65:164,2,116.999994644165,4|8|2,3:0|1:0|0:0,0:0:0:0:
296,144,141282,6,0,P|316:166|340:183,2,58.4999973220826,4|0|2,3:0|1:0|0:0,0:0:0:0:
252,249,141539,2,0,P|248:280|246:308,1,58.4999973220826,0|8,0:0|1:0,0:0:0:0:
176,56,141796,1,4,3:0:0:0:
96,184,141968,1,8,1:0:0:0:
328,64,142139,1,4,3:0:0:0:
373,74,142225,1,2,0:0:0:0:
399,112,142310,1,8,1:0:0:0:
395,158,142396,1,0,1:0:0:0:
378,202,142482,1,8,1:0:0:0:
389,247,142568,1,2,0:0:0:0:
421,278,142653,6,0,B|388:304|388:304|370:342|328:341,1,116.999994644165,4|0,0:0|0:0,0:0:0:0:
128,296,142996,2,0,L|96:184,1,116.999994644165,8|0,1:0|0:0,0:0:0:0:
288,144,143339,2,0,P|280:208|248:248,1,116.999994644165,2|4,0:0|3:0,0:0:0:0:
104,112,143682,2,0,P|150:77|207:72,2,116.999994644165,8|0|4,1:0|0:0|3:0,0:0:0:0:
220,274,144196,5,2,0:0:0:0:
408,224,144368,2,0,B|439:195|439:195|451:102,1,116.999994644165,8|0,1:0|0:0,0:0:0:0:
288,48,144710,1,0,0:0:0:0:
104,112,144882,2,0,P|84:140|72:167,1,58.4999973220826,4|0,3:0|1:0,0:0:0:0:
176,176,145053,2,0,P|196:203|208:232,1,58.4999973220826,8|2,1:0|0:0,0:0:0:0:
280,136,145225,1,0,1:0:0:0:
280,136,145310,1,0,1:0:0:0:
280,136,145396,6,0,P|344:160|392:208,1,116.999994644165,4|0,3:0|0:0,0:0:0:0:
216,304,145739,2,0,P|152:280|104:232,1,116.999994644165,8|2,1:0|0:0,0:0:0:0:
280,136,146082,1,2,0:0:0:0:
216,304,146253,1,4,3:0:0:0:
419,275,146425,2,0,B|454:218|411:168|411:168|348:138|356:65,1,233.999989288331,8|4,1:0|3:0,0:0:0:0:
196,65,146939,6,0,P|180:43|144:16,2,58.4999973220826,2|0|8,0:0|0:0|1:0,0:0:0:0:
96,208,147282,1,0,1:0:0:0:
136,231,147368,1,0,0:0:0:0:
170,262,147453,1,2,0:0:0:0:
202,294,147539,1,2,0:0:0:0:
237,263,147625,1,4,3:0:0:0:
275,236,147710,1,0,0:0:0:0:
318,217,147796,2,0,P|352:207|393:199,1,58.4999973220826,8|0,1:0|0:0,0:0:0:0:
369,111,147968,2,0,P|394:77|402:45,1,58.4999973220826,0|0,1:0|0:0,0:0:0:0:
286,37,148139,6,0,P|233:51|190:98,1,116.999994644165,4|0,0:0|0:0,0:0:0:0:
269,250,148482,2,0,P|287:195|281:137,1,116.999994644165,8|0,1:0|0:0,0:0:0:0:
104,56,148825,1,0,0:0:0:0:
64,168,148996,1,4,3:0:0:0:
112,272,149168,2,0,B|160:272|160:272|192:288|192:288|240:288,1,116.999994644165,8|2,1:0|0:0,0:0:0:0:
344,280,149510,6,0,P|376:224|376:168,1,116.999994644165,4|2,3:0|0:0,0:0:0:0:
312,72,149853,1,8,1:0:0:0:
312,72,149939,1,0,0:0:0:0:
312,72,150025,2,0,P|264:112|240:160,1,116.999994644165,2|0,0:0|0:0,0:0:0:0:
448,196,150368,1,4,3:0:0:0:
250,268,150539,1,8,1:0:0:0:
158,79,150710,1,2,0:0:0:0:
76,221,150882,6,0,P|100:269|156:293,1,116.999994644165,4|0,3:0|0:0,0:0:0:0:
320,287,151225,2,0,P|296:239|240:215,1,116.999994644165,8|0,1:0|0:0,0:0:0:0:
96,136,151568,1,2,0:0:0:0:
93,118,151653,1,0,0:0:0:0:
91,101,151739,1,4,3:0:0:0:
88,83,151825,1,0,0:0:0:0:
86,66,151910,2,0,L|206:66,1,116.999994644165,8|0,1:0|0:0,0:0:0:0:
424,152,152253,6,0,P|458:175|472:192,1,58.4999973220826,4|2,3:0|0:0,0:0:0:0:
448,272,152425,1,2,0:0:0:0:
448,272,152510,2,0,L|376:264,1,58.4999973220826,4|0,3:0|1:0,0:0:0:0:
160,296,152768,1,0,0:0:0:0:
372,199,152939,1,8,1:0:0:0:
180,67,153110,1,0,0:0:0:0:
92,354,153282,2,0,L|32:336,1,58.4999973220826,8|2,1:0|0:0,0:0:0:0:
84,241,153453,2,0,L|15:252,1,58.4999973220826,8|0,1:0|1:0,0:0:0:0:
23,153,153625,5,4,0:0:0:0:
180,67,153796,1,0,0:0:0:0:
278,213,153968,1,8,1:0:0:0:
435,127,154139,1,0,0:0:0:0:
435,127,154225,1,0,0:0:0:0:
435,127,154310,2,0,P|459:195|451:239,1,116.999994644165,2|4,0:0|3:0,0:0:0:0:
325,343,154653,1,8,1:0:0:0:
205,231,154825,6,0,P|251:196|308:185,1,116.999994644165,2|4,0:0|3:0,0:0:0:0:
448,271,155168,1,2,0:0:0:0:
431,314,155253,1,2,0:0:0:0:
413,357,155339,1,8,1:0:0:0:
393,203,155510,2,0,L|412:148,1,58.4999973220826,2|2,0:0|0:0,0:0:0:0:
288,138,155682,2,0,L|275:62,1,58.4999973220826,2|0,0:0|0:0,0:0:0:0:
175,198,155853,2,0,L|184:255,1,58.4999973220826,4|0,3:0|0:0,0:0:0:0:
155,75,156025,2,0,B|123:67|123:67|35:79,1,116.999994644165,8|2,1:0|0:0,0:0:0:0:
19,120,156282,1,0,1:0:0:0:
26,166,156368,6,0,P|82:222|86:322,1,175.499991966248,4|0,3:0|0:0,0:0:0:0:
123,346,156710,2,0,L|243:294,1,116.999994644165,8|2,1:0|0:0,0:0:0:0:
441,197,157053,2,0,P|406:146|354:114,1,116.999994644165,2|4,0:0|3:0,0:0:0:0:
126,118,157396,2,0,P|62:210|113:309,1,233.999989288331,8|4,1:0|3:0,0:0:0:0:
273,273,157910,5,2,0:0:0:0:
273,273,157996,2,0,P|304:268|337:268,1,58.4999973220826,2|8,0:0|1:0,3:0:0:0:
296,107,158253,1,2,0:0:0:0:
296,107,158339,2,0,P|293:78|297:49,1,58.4999973220826,2|0,0:0|1:0,0:0:0:0:
126,118,158596,1,4,3:0:0:0:
167,140,158682,1,0,1:0:0:0:
202,171,158768,2,0,P|220:194|234:220,1,58.4999973220826,8|0,1:0|0:0,0:0:0:0:
328,240,158939,2,0,P|337:267|341:296,1,58.4999973220826,2|0,0:0|0:0,0:0:0:0:
256,340,159110,6,0,B|124:348|124:348|88:316,1,175.499991966248,4|0,0:0|0:0,0:0:0:0:
60,284,159453,2,0,P|80:216|120:188,1,116.999994644165,8|0,1:0|0:0,0:0:0:0:
267,123,159796,2,0,P|323:78|338:33,1,116.999994644165,2|4,0:0|3:0,0:0:0:0:
383,15,160053,1,0,0:0:0:0:
383,15,160139,2,0,L|403:143,1,116.999994644165,8|0,1:0|0:0,0:0:0:0:
318,311,160482,6,0,B|361:333|391:306|391:306|421:316|421:316|472:321|496:268|466:220|414:231,1,233.999989288331,4|8,3:0|1:0,0:0:0:0:
227,171,160996,1,2,0:0:0:0:
311,52,161168,1,2,0:0:0:0:
417,149,161339,1,4,3:3:0:0:
308,20,161510,1,8,1:0:0:0:
326,226,161682,1,2,0:0:0:0:
326,226,161768,1,0,1:0:0:0:
326,226,161853,6,0,P|270:210|228:171,1,116.999994644165,4|0,3:0|0:0,0:0:0:0:
404,40,162196,1,8,1:0:0:0:
444,260,162368,1,2,0:0:0:0:
444,260,162453,1,2,0:0:0:0:
444,260,162539,1,2,0:0:0:0:
281,115,162710,1,4,3:0:0:0:
460,142,162882,1,8,1:0:0:0:
352,264,163053,1,2,0:0:0:0:
328,292,163139,1,0,1:0:0:0:
300,316,163225,6,0,P|284:324|244:332,1,58.4999973220826,4|2,3:0|0:0,0:0:0:0:
184,204,163396,1,2,0:0:0:0:
156,184,163482,1,4,3:0:0:0:
120,180,163568,2,0,P|96:180|60:192,1,58.4999973220826,2|0,0:0|0:0,0:0:0:0:
101,319,163739,1,4,3:0:0:0:
135,307,163825,1,0,0:0:0:0:
167,293,163910,2,0,L|220:264,2,58.4999973220826,8|0|4,1:0|0:0|3:0,0:0:0:0:
392,304,164253,1,8,1:0:0:0:
364,284,164339,1,8,3:0:0:0:
332,264,164425,1,4,3:0:0:0:
304,244,164510,1,0,1:0:0:0:
272,228,164596,6,0,L|120:136,1,175.499991966248,4|0,0:0|0:0,0:0:0:0:
137,92,164939,2,0,P|186:61|243:52,2,116.999994644165,8|2|0,1:0|0:0|0:0,0:0:0:0:
228,283,165453,1,4,3:0:0:0:
228,283,165539,1,0,0:0:0:0:
228,283,165625,1,8,1:0:0:0:
380,136,165796,1,2,0:0:0:0:
314,308,165968,6,0,P|285:257|282:197,1,116.999994644165,4|0,3:0|0:0,0:0:0:0:
216,43,166310,2,0,L|188:167,1,116.999994644165,8|2,1:0|0:0,0:0:0:0:
56,80,166653,2,0,L|76:200,1,116.999994644165,0|4,0:0|3:0,0:0:0:0:
76,196,166910,1,2,0:0:0:0:
76,196,166996,1,8,1:0:0:0:
212,104,167168,1,0,0:0:0:0:
372,132,167339,6,0,B|400:140|400:140|456:124|456:124|460:176|432:212|432:212,1,175.499991966248,4|0,3:0|0:0,0:0:0:0:
408,252,167682,2,0,P|360:280|300:288,1,116.999994644165,8|2,1:0|0:0,0:0:0:0:
171,193,168025,1,0,0:0:0:0:
287,135,168196,2,0,L|275:57,2,58.4999973220826,4|2|8,3:0|0:0|1:0,0:0:0:0:
32,200,168539,1,0,0:0:0:0:
32,200,168710,6,0,L|51:320,1,116.999994644165,4|0,3:0|0:0,0:0:0:0:
207,319,169053,2,0,P|263:337|321:344,1,116.999994644165,8|2,1:0|0:0,0:0:0:0:
321,344,169310,1,0,1:0:0:0:
321,344,169396,1,2,0:0:0:0:
464,248,169568,1,4,3:0:0:0:
434,199,169653,1,2,0:0:0:0:
378,186,169739,1,8,1:0:0:0:
326,210,169825,1,0,1:0:0:0:
279,241,169910,1,2,0:0:0:0:
224,226,169996,1,2,0:0:0:0:
199,175,170082,5,4,0:0:0:0:
419,19,170253,1,0,0:0:0:0:
464,248,170425,1,8,1:0:0:0:
182,65,170596,1,2,0:0:0:0:
182,65,170682,1,2,0:0:0:0:
182,65,170768,2,0,P|239:76|293:120,1,116.999994644165,0|4,0:0|3:0,0:0:0:0:
378,312,171110,1,8,1:0:0:0:
404,162,171282,1,0,0:0:0:0:
203,291,171453,6,0,B|140:265|130:208|130:208|68:207|36:146,1,233.999989288331,4|8,3:0|1:0,0:0:0:0:
161,52,171968,1,2,0:0:0:0:
161,52,172053,1,0,0:0:0:0:
161,52,172139,1,2,0:0:0:0:
131,260,172310,1,4,3:0:0:0:
289,189,172482,1,8,1:0:0:0:
312,351,172653,1,2,0:0:0:0:
313,351,172825,6,0,P|385:343|445:263,1,175.499991966248,4|0,3:0|0:0,0:0:0:0:
448,216,173168,2,0,L|408:88,1,116.999994644165,8|0,1:0|0:0,0:0:0:0:
242,290,173510,1,2,0:0:0:0:
76,190,173682,1,4,3:0:0:0:
175,24,173853,1,8,1:0:0:0:
341,124,174025,1,2,0:0:0:0:
341,124,174196,5,4,3:0:0:0:
354,156,174282,1,0,1:0:0:0:
361,190,174368,2,0,P|362:219|358:248,1,58.4999973220826,2|4,0:0|3:0,0:0:0:0:
255,119,174625,1,0,1:0:0:0:
255,119,174710,2,0,P|262:90|276:64,1,58.4999973220826,4|0,3:0|0:0,0:0:0:0:
184,68,174882,6,0,P|168:128|176:184,1,116.999994644165,8|4,1:0|3:0,0:0:0:0:
399,317,175225,2,0,P|390:294|380:255,1,58.4999973220826,8|0,1:0|0:0,0:0:0:0:
256,192,175396,2,8,P|265:213|274:253,1,58.4999973220826,8|0,1:0|1:0,1:0:0:0:
255,346,175568,1,4,0:0:0:0:
256,192,175653,12,0,178310,0:0:0:0:
