osu file format v9

[General]
AudioFilename: NegaRen - Stark Raving Mad.mp3
AudioLeadIn: 0
PreviewTime: 123815
Countdown: 0
SampleSet: Normal
StackLeniency: 0.7
Mode: 1
LetterboxInBreaks: 0

[Editor]
Bookmarks: 18743,30172,38734,41601,50734,59886,69029,78172,87315,96458,105601,114744,123876,135315,153601,171315,174172,183315,192458,209601,229019
DistanceSpacing: 0
BeatDivisor: 4
GridSize: 4

[Metadata]
Title:Stark Raving Mad
Artist:NegaRen
Creator:vipto
Version:Taiko Collab
Source:
Tags:lapfox trax Loctav OnosakiHito Renard

[Difficulty]
HPDrainRate:5
CircleSize:5
OverallDifficulty:5
ApproachRate:5
SliderMultiplier:1.4
SliderTickRate:1

[Events]
//Background and Video events
//Break Periods
//Storyboard Layer 0 (Background)
Sprite,Background,Centre,"bg_taiko.jpg",320,240 M,0,0,,320,240 F,0,0,229045,0
//Storyboard Layer 1 (Fail)
//Storyboard Layer 2 (Pass)
//Storyboard Layer 3 (Foreground)
Sprite,Foreground,Centre,"bg_taiko_clear.jpg",320,240 M,0,0,,315,375 S,0,0,,0.625 F,0,0,228876,1 F,0,228876,229019,1,0
Sprite,Foreground,Centre,"loctav.png",320,240 M,0,0,,65,276 S,0,0,,0.63 F,0,18733,,0 F,0,18733,18948,0,1 F,0,123734,123876,1,0
Sprite,Foreground,Centre,"onosaki.png",320,240 M,0,123876,,65,276 S,0,123876,,0.63 F,0,123876,124019,0,1 F,0,124019,228876,1 F,0,228876,229019,1,0
//Storyboard Sound Samples
//Background Colour Transformations
3,100,0,0,0

[TimingPoints]
18734,285.714285714286,4,1,0,80,1,0
41591,-100,4,1,0,80,0,1
59876,-100,4,1,0,80,0,0
192448,-100,4,1,0,80,0,1
209591,-100,4,1,0,80,0,0

[Colours]
Combo1 : 0,0,255
Combo2 : 255,0,0

[HitObjects]
256,192,18733,1,4
256,192,19305,1,4
256,192,19876,1,4
256,192,20162,1,4
256,192,20448,1,4
256,192,20733,1,0
256,192,20805,5,8
256,192,20876,1,8
256,192,20948,1,8
256,192,21019,1,8
256,192,21162,5,0
256,192,21305,1,0
256,192,21448,5,8
256,192,21591,5,0
256,192,21876,1,0
256,192,22019,5,8
256,192,22162,5,0
256,192,22448,5,8
256,192,22591,5,0
256,192,22733,1,0
256,192,23019,5,8
256,192,23091,1,8
256,192,23162,5,0
256,192,23233,1,0
256,192,23305,1,0
256,192,23591,1,0
256,192,23733,5,8
256,192,23876,1,8
256,192,24162,5,0
256,192,24305,5,8
256,192,24448,1,8
256,192,24733,5,0
256,192,24876,5,8
256,192,25019,5,0
256,192,25305,1,0
256,192,25448,5,8
256,192,25591,5,0
256,192,25876,1,0
256,192,26019,5,8
256,192,26162,5,0
256,192,26448,1,0
256,192,26591,5,8
256,192,26733,1,8
256,192,27019,1,8
256,192,27162,5,0
256,192,27305,1,0
256,192,27591,5,8
256,192,27662,1,8
256,192,27733,1,8
256,192,27876,5,0
256,192,28162,1,0
256,192,28305,5,8
256,192,28448,1,8
256,192,28734,5,0
256,192,28876,5,8
256,192,29019,1,8
256,192,29305,5,0
256,192,29448,5,8
256,192,29591,5,0
256,192,30162,5,8
256,192,30305,5,0
256,192,30448,1,0
256,192,30519,1,0
256,192,30591,5,8
256,192,30734,5,0
256,192,30876,5,8
256,192,31019,5,0
256,192,31091,1,0
256,192,31162,5,8
256,192,31305,5,0
256,192,31448,5,8
256,192,31591,1,8
256,192,31662,1,8
256,192,31734,5,0
256,192,31876,1,0
256,192,31948,1,0
256,192,32019,1,0
256,192,32162,5,8
256,192,32234,1,8
256,192,32305,5,0
256,192,32376,1,0
256,192,32448,1,0
256,192,32591,5,8
256,192,32734,5,0
256,192,32805,1,0
256,192,32876,5,8
256,192,33019,5,8
256,192,33162,5,8
256,192,33305,1,0
256,192,33376,5,0
256,192,33448,1,8
256,192,33591,1,8
256,192,33734,5,8
256,192,33876,5,0
256,192,33948,1,0
256,192,34019,5,8
256,192,34162,5,0
256,192,34305,5,8
256,192,34448,5,0
256,192,34519,1,8
256,192,34591,5,8
256,192,34734,5,0
256,192,34876,1,0
256,192,34948,1,0
256,192,35019,5,8
256,192,35091,5,0
256,192,35162,5,8
256,192,35305,5,0
256,192,35376,1,0
256,192,35448,5,8
256,192,35591,1,8
256,192,35734,1,8
256,192,35805,5,0
256,192,35876,5,8
256,192,36019,1,8
256,192,36162,1,8
256,192,36305,5,0
256,192,36448,1,0
256,192,36591,5,8
256,192,36734,1,8
256,192,36805,1,8
256,192,36876,1,8
256,192,36948,5,0
256,192,37019,1,0
256,192,37162,1,0
256,192,37305,1,0
256,192,37376,1,0
256,192,37448,5,8
256,192,37591,1,8
256,192,37662,5,0
256,192,37734,1,0
256,192,37877,1,0
256,192,37948,5,8
256,192,38019,1,8
256,192,38162,1,8
256,192,38305,1,8
256,192,38448,5,0
256,192,38519,1,0
256,192,38591,5,8
256,192,38734,5,0
256,192,40448,5,8
256,192,40591,5,0
256,192,40662,1,0
256,192,40734,1,0
256,192,40805,1,0
256,192,40876,5,8
256,192,41019,1,8
256,192,41162,1,8
256,192,41210,1,8
256,192,41257,1,8
256,192,41305,1,8
256,192,41448,5,0
256,192,41591,1,0
256,192,41734,1,0
256,192,41876,5,8
256,192,42019,1,8
256,192,42162,5,0
256,192,42305,1,0
256,192,42376,1,0
256,192,42448,1,0
256,192,42591,5,8
256,192,42734,5,0
256,192,42876,1,0
256,192,43019,5,8
256,192,43162,1,8
256,192,43305,5,0
256,192,43448,5,8
256,192,43519,1,8
256,192,43591,5,0
256,192,43662,1,0
256,192,43734,5,8
256,192,43805,1,8
256,192,43876,5,0
256,192,44019,1,0
256,192,44162,5,8
256,192,44305,1,8
256,192,44448,5,0
256,192,44591,1,0
256,192,44662,1,0
256,192,44734,5,8
256,192,44876,1,8
256,192,45019,1,8
256,192,45162,1,8
256,192,45305,5,0
256,192,45448,1,0
256,192,45591,5,8
256,192,45734,1,8
256,192,45876,1,8
256,192,45948,5,0
256,192,46019,5,8
256,192,46091,5,0
256,192,46162,1,0
256,192,46305,1,0
256,192,46448,5,8
256,192,46591,1,8
256,192,46734,5,0
256,192,46805,1,0
256,192,46876,1,0
256,192,47019,5,8
256,192,47162,1,8
256,192,47305,5,0
256,192,47376,1,0
256,192,47448,1,0
256,192,47519,1,0
256,192,47591,5,8
256,192,47734,1,8
256,192,47876,5,0
256,192,48019,5,8
256,192,48091,1,8
256,192,48162,5,0
256,192,48234,1,0
256,192,48305,5,8
256,192,48448,5,0
256,192,48591,1,0
256,192,48734,5,8
256,192,48876,1,8
256,192,49019,5,0
256,192,49091,1,0
256,192,49162,1,0
256,192,49305,5,8
256,192,49448,1,8
256,192,49591,1,12
256,192,49734,1,12
256,192,49876,5,4
256,192,50019,1,4
256,192,50162,5,12
256,192,50305,5,4
256,192,50448,5,12
256,192,50591,5,4
256,192,50734,1,0
256,192,50876,1,0
256,192,50948,5,8
256,192,51019,1,8
256,192,51162,1,8
256,192,51305,1,8
256,192,51448,5,0
256,192,51591,5,8
256,192,51662,1,8
256,192,51734,1,8
256,192,51876,1,8
256,192,52019,5,0
256,192,52162,5,8
256,192,52234,1,8
256,192,52305,1,8
256,192,52448,1,8
256,192,52591,5,0
256,192,52662,5,8
256,192,52734,5,0
256,192,52805,5,8
256,192,52876,5,0
256,192,52948,5,8
256,192,53019,5,0
256,192,53091,5,8
256,192,53162,1,8
256,192,53305,1,8
256,192,53376,1,8
256,192,53448,1,8
256,192,53591,5,0
256,192,53734,5,0
256,192,53805,1,8
256,192,53876,1,8
256,192,54019,1,8
256,192,54162,1,8
256,192,54305,1,8
256,192,54448,5,0
256,192,54591,1,0
256,192,54734,5,8
256,192,54805,1,8
256,192,54876,1,8
256,192,55019,1,8
256,192,55162,5,0
256,192,55305,1,0
256,192,55447,1,0
256,192,55519,5,8
256,192,55590,1,8
256,192,55733,1,8
256,192,55876,1,8
256,192,56019,5,0
256,192,56162,5,8
256,192,56233,1,8
256,192,56305,1,8
256,192,56447,1,8
256,192,56590,5,0
256,192,56733,5,8
256,192,56805,1,8
256,192,56876,1,8
256,192,57019,1,8
256,192,57162,5,0
256,192,57233,5,8
256,192,57305,5,0
256,192,57376,5,8
256,192,57447,5,0
256,192,57519,5,8
256,192,57590,5,0
256,192,57733,1,8
256,192,57876,5,8
256,192,57947,1,8
256,192,58019,1,8
256,192,58162,5,0
256,192,58305,5,0
256,192,58376,1,8
256,192,58447,1,8
256,192,58590,1,8
256,192,58733,1,12
256,192,58876,1,12
256,192,59019,5,4
256,192,59162,1,4
256,192,59305,5,8
256,192,59447,1,8
256,192,59519,1,8
256,192,59590,1,8
256,192,59733,5,0
256,192,59876,5,8
256,192,60019,5,0
256,192,60162,5,8
256,192,60305,5,0
256,192,60448,1,0
256,192,60591,5,8
256,192,60876,1,8
256,192,61019,5,0
256,192,61162,1,0
256,192,61305,5,8
256,192,61448,5,0
256,192,61591,1,0
256,192,61734,5,8
256,192,61876,1,8
256,192,61948,5,0
256,192,62019,1,0
256,192,62162,1,0
256,192,62305,1,0
256,192,62448,5,8
256,192,62591,5,0
256,192,62734,1,0
256,192,62876,5,8
256,192,63019,1,8
256,192,63162,5,0
256,192,63305,1,0
256,192,63448,1,0
256,192,63591,5,8
256,192,63734,5,0
256,192,63876,1,0
256,192,64019,5,8
256,192,64305,5,0
256,192,64448,5,8
256,192,64591,1,8
256,192,64734,5,0
256,192,64876,5,8
256,192,65019,1,8
256,192,65162,5,0
256,192,65448,1,0
256,192,65591,5,8
256,192,65734,1,8
256,192,65876,5,0
256,192,66019,5,8
256,192,66162,1,8
256,192,66305,5,0
256,192,66591,1,0
256,192,66734,5,8
256,192,66876,1,8
256,192,67019,5,0
256,192,67162,5,8
256,192,67305,1,8
256,192,67448,5,0
256,192,67591,1,0
256,192,67734,1,0
256,192,67876,5,8
256,192,68019,1,8
256,192,68162,5,0
256,192,68305,5,8
256,192,68448,1,8
256,192,68591,5,0
256,192,68734,5,8
256,192,68876,5,0
256,192,69019,5,12
256,192,69162,5,0
256,192,69305,5,8
256,192,69448,5,0
256,192,69519,1,0
256,192,69591,5,8
256,192,69734,1,8
256,192,69876,5,0
256,192,69948,1,0
256,192,70019,1,0
256,192,70162,5,8
256,192,70305,1,8
256,192,70448,5,0
256,192,70591,5,8
256,192,70662,1,8
256,192,70734,1,8
256,192,70876,5,0
256,192,71019,5,8
256,192,71162,5,0
256,192,71305,1,0
256,192,71376,1,0
256,192,71448,1,0
256,192,71591,5,8
256,192,71734,5,0
256,192,71805,1,0
256,192,71876,1,0
256,192,72019,5,8
256,192,72162,5,0
256,192,72305,5,8
256,192,72448,5,0
256,192,72591,1,0
256,192,72734,5,8
256,192,72876,5,0
256,192,72948,1,0
256,192,73019,5,8
256,192,73162,1,8
256,192,73305,5,0
256,192,73376,1,0
256,192,73448,1,0
256,192,73591,5,8
256,192,73734,1,8
256,192,73876,5,0
256,192,74019,5,8
256,192,74091,1,8
256,192,74162,1,8
256,192,74305,1,8
256,192,74448,5,0
256,192,74591,5,8
256,192,74734,5,0
256,192,74876,1,0
256,192,75019,5,8
256,192,75162,5,0
256,192,75234,1,0
256,192,75305,1,0
256,192,75448,5,8
256,192,75591,1,8
256,192,75662,5,0
256,192,75734,1,0
256,192,75876,1,0
256,192,76019,1,0
256,192,76162,5,8
256,192,76234,1,8
256,192,76305,5,0
256,192,76448,1,0
256,192,76591,5,8
256,192,76734,5,0
256,192,76876,1,0
256,192,77019,5,8
256,192,77091,1,8
256,192,77162,1,8
256,192,77305,1,8
256,192,77448,5,0
256,192,77591,5,8
256,192,77662,1,8
256,192,77734,1,8
256,192,77876,1,8
256,192,78019,5,0
256,192,78162,1,0
256,192,78305,5,8
256,192,78376,1,8
256,192,78448,1,8
256,192,78734,5,0
256,192,78876,5,8
256,192,78948,5,0
256,192,79019,5,8
256,192,79091,1,8
256,192,79162,1,8
256,192,79448,5,0
256,192,79734,5,8
256,192,79876,1,8
256,192,80019,5,0
256,192,80091,1,0
256,192,80162,5,8
256,192,80305,5,0
256,192,80448,1,0
256,192,80591,5,8
256,192,80662,1,8
256,192,80734,1,8
256,192,81020,5,0
256,192,81162,5,8
256,192,81234,5,0
256,192,81305,5,8
256,192,81377,1,8
256,192,81448,1,8
256,192,81734,5,0
256,192,82020,5,8
256,192,82162,1,8
256,192,82305,5,0
256,192,82377,1,0
256,192,82448,5,8
256,192,82591,5,0
256,192,82734,1,0
256,192,82876,5,8
256,192,82948,1,8
256,192,83020,1,8
256,192,83306,5,0
256,192,83448,5,8
256,192,83520,5,0
256,192,83591,5,8
256,192,83663,1,8
256,192,83734,1,8
256,192,84020,5,0
256,192,84306,5,8
256,192,84448,1,8
256,192,84591,5,0
256,192,84663,1,0
256,192,84734,5,8
256,192,84877,5,0
256,192,85019,1,0
256,192,85162,5,8
256,192,85233,1,8
256,192,85305,1,8
256,192,85591,5,0
256,192,85733,5,8
256,192,85805,5,0
256,192,85876,5,8
256,192,85948,1,8
256,192,86019,1,8
256,192,86305,5,0
256,192,86591,5,8
256,192,86733,1,8
256,192,86876,5,0
256,192,86948,1,0
256,192,87019,5,8
256,192,87162,5,0
256,192,87305,1,0
256,192,87376,5,8
256,192,87448,1,8
256,192,87519,1,8
256,192,87591,1,8
256,192,87734,1,8
256,192,87876,5,0
256,192,87948,5,8
256,192,88019,1,8
256,192,88162,1,8
256,192,88234,1,8
256,192,88305,1,8
256,192,88448,5,0
256,192,88591,5,8
256,192,88662,1,8
256,192,88734,1,8
256,192,88877,1,8
256,192,89019,5,0
256,192,89091,5,8
256,192,89162,1,8
256,192,89234,1,8
256,192,89305,1,8
256,192,89448,1,8
256,192,89591,5,0
256,192,89734,5,8
256,192,89805,1,8
256,192,89877,1,8
256,192,90019,1,8
256,192,90162,5,0
256,192,90305,5,8
256,192,90377,1,8
256,192,90448,1,8
256,192,90519,1,8
256,192,90591,1,8
256,192,90734,5,0
256,192,90805,5,8
256,192,90877,1,8
256,192,91019,1,8
256,192,91163,1,8
256,192,91234,1,8
256,192,91305,5,0
256,192,91448,1,0
256,192,91520,1,0
256,192,91591,5,8
256,192,91734,5,0
256,192,91876,1,0
256,192,92019,5,8
256,192,92091,1,8
256,192,92162,1,8
256,192,92234,1,8
256,192,92305,1,8
256,192,92449,5,0
256,192,92591,5,8
256,192,92663,1,8
256,192,92734,1,8
256,192,92805,1,8
256,192,92876,1,8
256,192,92948,1,8
256,192,93019,5,0
256,192,93162,5,8
256,192,93305,1,8
256,192,93448,1,8
256,192,93519,1,8
256,192,93591,5,0
256,192,93734,5,8
256,192,93806,1,8
256,192,93877,1,8
256,192,93948,1,8
256,192,94019,1,8
256,192,94162,5,0
256,192,94305,5,8
256,192,94376,1,8
256,192,94448,1,8
256,192,94591,1,8
256,192,94734,5,0
256,192,94805,5,8
256,192,94876,1,8
256,192,94948,1,8
256,192,95019,1,8
256,192,95091,1,8
256,192,95162,1,8
256,192,95234,1,8
256,192,95305,5,0
256,192,95448,5,8
256,192,95591,1,8
256,192,95662,1,8
256,192,95734,1,8
256,192,95876,1,8
256,192,96019,1,8
256,192,96067,1,8
256,192,96114,1,8
256,192,96162,1,8
256,192,96305,1,8
256,192,96448,5,0
256,192,96734,1,0
256,192,96876,5,8
256,192,96948,1,8
256,192,97019,5,8
256,192,97162,1,0
256,192,97305,1,0
256,192,97448,1,0
256,192,97591,5,8
256,192,97734,5,8
256,192,97876,5,8
256,192,97948,1,8
256,192,98019,5,0
256,192,98162,1,0
256,192,98305,1,0
256,192,98448,1,0
256,192,98519,5,8
256,192,98591,5,0
256,192,98734,1,0
256,192,98876,5,8
256,192,99020,5,0
256,192,99162,5,8
256,192,99305,5,0
256,192,99448,1,0
256,192,99591,1,0
256,192,99734,1,0
256,192,99805,1,0
256,192,99876,1,0
256,192,100020,1,0
256,192,100162,5,8
256,192,100234,1,8
256,192,100305,5,0
256,192,100448,1,0
256,192,100591,1,0
256,192,100734,1,0
256,192,100805,1,0
256,192,100877,1,0
256,192,101019,1,0
256,192,101305,1,0
256,192,101376,5,8
256,192,101448,1,8
256,192,101590,5,0
256,192,101733,1,0
256,192,101876,1,0
256,192,102019,1,0
256,192,102091,1,0
256,192,102162,1,0
256,192,102305,1,0
256,192,102448,5,8
256,192,102519,1,8
256,192,102591,5,8
256,192,102733,1,0
256,192,102876,1,0
256,192,103019,1,0
256,192,103091,5,8
256,192,103162,5,0
256,192,103305,1,0
256,192,103448,5,8
256,192,103591,5,0
256,192,103662,1,0
256,192,103734,1,0
256,192,103876,1,0
256,192,104019,1,0
256,192,104162,1,0
256,192,104305,1,0
256,192,104591,1,0
256,192,104734,5,8
256,192,104805,1,8
256,192,104876,5,0
256,192,105019,1,0
256,192,105162,1,0
256,192,105234,5,8
256,192,105305,5,0
256,192,105448,1,0
256,192,105591,1,0
256,192,105877,1,0
256,192,105948,5,8
256,192,106019,1,8
256,192,106162,5,0
256,192,106305,1,0
256,192,106448,1,0
256,192,106591,1,0
256,192,106662,5,8
256,192,106734,1,8
256,192,106877,5,0
256,192,107019,5,8
256,192,107091,1,8
256,192,107162,5,0
256,192,107305,1,0
256,192,107448,1,0
256,192,107591,1,0
256,192,107662,5,8
256,192,107734,5,0
256,192,107805,5,8
256,192,107876,5,0
256,192,108162,1,8
256,192,108305,5,8
256,192,108376,1,8
256,192,108447,5,0
256,192,108590,1,0
256,192,108733,1,0
256,192,108876,1,0
256,192,108948,5,8
256,192,109019,1,8
256,192,109162,5,0
256,192,109305,5,8
256,192,109376,1,8
256,192,109447,5,0
256,192,109590,1,0
256,192,109733,1,0
256,192,109876,1,0
256,192,109948,5,8
256,192,110019,5,0
256,192,110162,1,0
256,192,110234,1,0
256,192,110305,1,0
256,192,110448,1,0
256,192,110591,5,8
256,192,110662,1,8
256,192,110733,5,0
256,192,110876,1,0
256,192,111019,1,0
256,192,111162,1,0
256,192,111305,5,8
256,192,111376,1,8
256,192,111448,5,0
256,192,111591,5,8
256,192,111662,1,8
256,192,111733,5,0
256,192,111876,1,0
256,192,112019,1,0
256,192,112162,1,0
256,192,112305,1,0
256,192,112448,1,0
256,192,112519,1,0
256,192,112591,1,0
256,192,112734,1,0
256,192,112876,5,8
256,192,112948,1,8
256,192,113019,5,8
256,192,113162,1,0
256,192,113305,1,0
256,192,113448,1,0
256,192,113734,1,0
256,192,113876,5,8
256,192,114019,1,8
256,192,114091,1,8
256,192,114162,1,8
256,192,114305,1,8
256,192,114448,1,8
256,192,114591,1,8
256,192,114734,5,0
256,192,115019,5,8
256,192,115162,5,0
256,192,115305,5,8
256,192,115591,5,0
256,192,115876,5,8
256,192,116019,1,8
256,192,116162,5,0
256,192,116305,5,8
256,192,116448,1,8
256,192,116734,5,0
256,192,117019,1,0
256,192,117305,5,8
256,192,117448,5,0
256,192,117591,5,8
256,192,117876,5,8
256,192,118162,5,8
256,192,118305,1,8
256,192,118448,5,0
256,192,118591,5,8
256,192,118734,1,8
256,192,119019,5,0
256,192,119305,1,0
256,192,119591,5,8
256,192,119734,5,0
256,192,119876,5,8
256,192,120162,5,0
256,192,120448,5,8
256,192,120591,1,8
256,192,120734,5,0
256,192,120876,5,8
256,192,121019,1,8
256,192,121305,5,0
256,192,121591,1,0
256,192,121876,5,8
256,192,122019,5,0
256,192,122162,5,8
256,192,122448,5,0
256,192,122734,5,8
256,192,122876,1,8
256,192,123019,5,0
256,192,123162,5,8
256,192,123305,5,4
256,192,123591,5,12
256,192,123876,5,0
256,192,124162,5,8
256,192,124448,1,8
256,192,124734,5,0
256,192,125019,5,8
256,192,125162,1,8
256,192,125305,5,0
256,192,125448,1,0
256,192,125591,5,8
256,192,125876,5,0
256,192,126162,1,0
256,192,126448,5,8
256,192,126734,1,8
256,192,127019,5,0
256,192,127305,5,8
256,192,127448,1,8
256,192,127591,5,0
256,192,127734,5,8
256,192,127876,1,8
256,192,128162,5,0
256,192,128448,1,0
256,192,128734,5,8
256,192,129019,1,8
256,192,129305,5,0
256,192,129591,5,8
256,192,129734,1,8
256,192,129876,5,0
256,192,130019,1,0
256,192,130162,5,8
256,192,130448,5,0
256,192,130734,1,0
256,192,131019,5,8
256,192,131305,1,8
256,192,131591,5,0
256,192,131876,5,8
256,192,132019,5,0
256,192,132091,1,0
256,192,132162,1,0
256,192,132305,1,0
256,192,132448,5,8
256,192,132734,5,0
256,192,133019,5,12
256,192,133591,1,12
256,192,134162,1,12
256,192,134448,1,12
256,192,134734,1,12
256,192,135019,5,0
256,192,135091,1,0
256,192,135162,5,8
256,192,135234,1,8
256,192,135305,5,0
256,192,135448,5,8
256,192,135591,5,0
256,192,135734,5,8
256,192,135876,5,0
256,192,136019,5,8
256,192,136162,5,0
256,192,136305,5,8
256,192,136376,1,8
256,192,136448,5,0
256,192,136591,5,8
256,192,136734,5,0
256,192,136877,5,8
256,192,137019,5,0
256,192,137162,5,8
256,192,137305,5,0
256,192,137376,1,0
256,192,137448,5,8
256,192,137519,1,8
256,192,137591,5,0
256,192,137734,5,8
256,192,137877,5,0
256,192,138020,5,8
256,192,138162,5,0
256,192,138305,5,8
256,192,138448,5,0
256,192,138519,1,0
256,192,138591,5,8
256,192,138734,5,0
256,192,138877,5,8
256,192,139020,5,0
256,192,139163,5,8
256,192,139305,5,0
256,192,139448,5,8
256,192,139591,5,0
256,192,139734,1,0
256,192,139876,1,0
256,192,140019,5,8
256,192,140162,5,0
256,192,140305,5,8
256,192,140448,5,0
256,192,140591,5,8
256,192,140876,1,8
256,192,140948,1,8
256,192,141019,5,0
256,192,141162,5,8
256,192,141305,5,0
256,192,141448,5,8
256,192,141590,5,0
256,192,141733,5,8
256,192,141876,5,0
256,192,141948,1,0
256,192,142019,5,8
256,192,142162,5,0
256,192,142305,5,8
256,192,142376,1,8
256,192,142448,5,0
256,192,142591,5,8
256,192,142734,5,0
256,192,142805,1,0
256,192,142876,5,8
256,192,142948,1,8
256,192,143019,5,0
256,192,143162,5,8
256,192,143305,5,0
256,192,143448,5,8
256,192,143519,1,8
256,192,143591,5,0
256,192,143734,5,8
256,192,143876,5,0
256,192,144019,1,0
256,192,144162,5,12
256,192,144448,1,12
256,192,144591,1,8
256,192,144662,1,8
256,192,144734,5,0
256,192,144805,1,0
256,192,144876,5,8
256,192,145019,5,0
256,192,145091,5,8
256,192,145162,1,8
256,192,145305,5,0
256,192,145376,5,8
256,192,145448,1,8
256,192,145519,1,8
256,192,145591,5,0
256,192,145734,5,8
256,192,145876,5,0
256,192,146019,5,8
256,192,146162,5,0
256,192,146234,5,8
256,192,146305,5,0
256,192,146448,5,8
256,192,146519,1,8
256,192,146591,1,8
256,192,146734,5,0
256,192,146805,1,0
256,192,146876,5,8
256,192,146948,1,8
256,192,147019,5,0
256,192,147162,5,8
256,192,147234,1,8
256,192,147305,5,0
256,192,147448,5,8
256,192,147591,5,0
256,192,147662,5,8
256,192,147734,1,8
256,192,147876,5,0
256,192,148019,5,8
256,192,148162,5,0
256,192,148305,5,8
256,192,148448,5,0
256,192,148591,5,8
256,192,148662,1,8
256,192,148734,5,0
256,192,148876,5,8
256,192,149019,5,0
256,192,149091,1,0
256,192,149162,5,8
256,192,149234,1,8
256,192,149305,5,0
256,192,149448,5,8
256,192,149591,5,0
256,192,149662,5,8
256,192,149734,1,8
256,192,149876,1,8
256,192,149948,1,8
256,192,150019,1,8
256,192,150091,1,8
256,192,150162,5,0
256,192,150305,5,12
256,192,150591,1,12
256,192,150734,5,0
256,192,150876,5,8
256,192,150948,1,8
256,192,151019,5,0
256,192,151091,5,8
256,192,151162,1,8
256,192,151234,1,8
256,192,151305,5,0
256,192,151448,5,8
256,192,151519,1,8
256,192,151591,5,0
256,192,151734,5,8
256,192,151876,5,0
256,192,151948,5,8
256,192,152019,1,8
256,192,152091,1,8
256,192,152162,5,0
256,192,152234,5,8
256,192,152305,1,8
256,192,152448,5,4
256,192,152734,1,4
256,192,153019,1,4
256,192,153305,1,4
256,192,153591,1,4
256,192,153876,5,8
256,192,154019,1,8
256,192,154448,1,8
256,192,154591,1,8
256,192,155019,1,8
256,192,155162,5,0
256,192,155448,1,0
256,192,155591,5,8
256,192,155662,5,0
256,192,155734,1,0
256,192,156019,5,0
256,192,156162,5,8
256,192,156305,1,8
256,192,156734,5,0
256,192,156876,5,8
256,192,157305,5,0
256,192,157448,5,8
256,192,157734,5,0
256,192,157876,5,8
256,192,158019,1,8
256,192,158448,5,0
256,192,158591,5,8
256,192,159019,5,0
256,192,159162,5,8
256,192,159448,1,8
256,192,159591,5,0
256,192,159734,1,0
256,192,160019,5,8
256,192,160162,5,0
256,192,160234,5,8
256,192,160305,5,0
256,192,160734,1,0
256,192,160876,5,8
256,192,161305,1,8
256,192,161448,1,8
256,192,161734,5,0
256,192,161876,5,8
256,192,162019,1,8
256,192,162162,5,4
256,192,162734,1,0
256,192,163019,5,8
256,192,163091,5,0
256,192,163162,5,8
256,192,163305,5,0
256,192,163448,5,8
256,192,163591,5,0
256,192,163662,5,8
256,192,163734,5,0
256,192,163876,5,8
256,192,164019,5,0
256,192,164162,5,8
256,192,164234,5,0
256,192,164305,5,8
256,192,164448,5,0
256,192,164591,1,0
256,192,164662,5,8
256,192,164734,5,0
256,192,164805,5,8
256,192,164876,1,8
256,192,164948,5,0
256,192,165019,1,0
256,192,165305,5,8
256,192,165376,5,0
256,192,165448,5,8
256,192,165591,5,0
256,192,165734,5,8
256,192,165876,5,0
256,192,165948,1,0
256,192,166019,5,8
256,192,166162,5,0
256,192,166305,5,8
256,192,166448,5,0
256,192,166519,1,0
256,192,166591,5,8
256,192,166734,5,0
256,192,166876,5,8
256,192,166948,1,8
256,192,167019,5,0
256,192,167091,1,0
256,192,167162,5,8
256,192,167305,5,4
256,192,167591,5,8
256,192,167662,5,0
256,192,167734,5,8
256,192,167876,5,0
256,192,168019,1,0
256,192,168162,5,8
256,192,168234,5,0
256,192,168305,5,8
256,192,168376,1,8
256,192,168448,5,0
256,192,168591,1,0
256,192,168734,5,8
256,192,168805,1,8
256,192,168876,5,0
256,192,169019,5,8
256,192,169162,1,8
256,192,169305,5,0
256,192,169376,5,8
256,192,169448,5,0
256,192,169591,1,0
256,192,169734,1,0
256,192,169876,5,8
256,192,169948,5,0
256,192,170019,5,8
256,192,170162,5,0
256,192,170305,1,0
256,192,170376,1,0
256,192,170448,1,0
256,192,170591,5,8
256,192,170734,5,0
256,192,170876,1,0
256,192,170948,1,0
256,192,171019,5,8
256,192,171162,1,8
256,192,171305,5,4
256,192,173019,1,0
256,192,173162,5,8
256,192,173234,1,8
256,192,173305,1,8
256,192,173376,1,8
256,192,173448,5,0
256,192,173591,1,0
256,192,173734,5,8
256,192,173805,1,8
256,192,173876,5,0
256,192,174019,5,8
256,192,174162,5,0
256,192,174448,5,12
256,192,174734,2,12,B|96:192,1,140
256,192,175305,1,8
256,192,175448,1,8
256,192,175591,5,0
256,192,175734,1,0
256,192,175876,5,8
256,192,176162,5,0
256,192,176448,1,0
256,192,176734,5,12
256,192,177019,2,12,B|96:192,1,140
256,192,177591,1,0
256,192,177734,1,0
256,192,177876,5,0
256,192,178019,5,8
256,192,178162,1,8
256,192,178448,5,0
256,192,178734,1,0
256,192,179019,5,12
256,192,179305,6,4,B|96:192,1,140
256,192,179876,5,8
256,192,180019,5,0
256,192,180162,1,0
256,192,180305,5,8
256,192,180448,1,8
256,192,180591,5,0
256,192,180734,1,0
256,192,180876,5,8
256,192,181019,5,0
256,192,181305,5,12
256,192,181591,1,8
256,192,182162,1,8
256,192,182305,1,8
256,192,182448,5,0
256,192,182591,5,8
256,192,182734,5,0
256,192,182876,1,0
256,192,183019,5,8
256,192,183091,1,8
256,192,183162,1,8
256,192,183234,1,8
256,192,183305,5,0
256,192,183448,1,0
256,192,183591,5,12
256,192,183876,1,12
256,192,184162,5,0
256,192,184448,5,8
256,192,184591,1,8
256,192,184734,5,0
256,192,184876,1,0
256,192,184948,1,0
256,192,185019,5,8
256,192,185305,5,0
256,192,185591,1,0
256,192,185876,5,12
256,192,186162,1,12
256,192,186448,5,0
256,192,186734,5,8
256,192,186876,1,8
256,192,187019,5,0
256,192,187162,5,8
256,192,187234,1,8
256,192,187305,1,8
256,192,187591,5,0
256,192,187876,1,0
256,192,188162,5,12
256,192,188448,1,12
256,192,188734,5,0
256,192,189019,5,8
256,192,189162,5,0
256,192,189305,1,0
256,192,189448,5,8
256,192,189591,1,8
256,192,189734,5,0
256,192,189876,1,0
256,192,190019,1,0
256,192,190162,1,0
256,192,190448,5,12
256,192,190591,5,0
256,192,190734,2,0,B|96:192,1,140
256,192,191162,5,8
256,192,191234,1,8
256,192,191305,5,0
256,192,191448,1,0
256,192,191591,5,8
256,192,191734,5,0
256,192,191876,5,8
256,192,192019,1,8
256,192,192162,1,8
256,192,192234,1,8
256,192,192305,1,8
256,192,192376,1,8
256,192,192448,5,0
256,192,192591,1,0
256,192,192662,1,0
256,192,192734,5,8
256,192,192876,1,8
256,192,193019,5,0
256,192,193162,5,8
256,192,193234,1,8
256,192,193305,5,0
256,192,193448,5,8
256,192,193591,5,0
256,192,193734,1,0
256,192,193805,1,0
256,192,193876,5,8
256,192,194019,1,8
256,192,194162,5,0
256,192,194305,5,8
256,192,194376,1,8
256,192,194448,5,0
256,192,194519,1,0
256,192,194591,5,8
256,192,194734,5,0
256,192,194876,1,0
256,192,194948,1,0
256,192,195019,5,8
256,192,195162,1,8
256,192,195305,5,0
256,192,195448,5,8
256,192,195519,5,0
256,192,195591,1,0
256,192,195734,5,8
256,192,195876,1,8
256,192,195948,5,0
256,192,196019,5,8
256,192,196162,5,0
256,192,196234,5,8
256,192,196305,5,0
256,192,196448,5,12
256,192,196591,5,4
256,192,196734,5,12
256,192,196876,5,4
256,192,197019,1,0
256,192,197162,1,0
256,192,197234,1,0
256,192,197305,5,8
256,192,197448,1,8
256,192,197591,5,0
256,192,197734,5,8
256,192,197805,5,0
256,192,197876,5,8
256,192,198019,1,8
256,192,198162,5,0
256,192,198305,1,0
256,192,198376,1,0
256,192,198448,5,8
256,192,198591,1,8
256,192,198734,5,0
256,192,198876,5,8
256,192,198948,1,8
256,192,199019,5,0
256,192,199091,5,8
256,192,199162,1,8
256,192,199234,1,8
256,192,199305,5,0
256,192,199448,1,0
256,192,199591,5,8
256,192,199662,5,0
256,192,199734,5,8
256,192,199876,5,0
256,192,200019,5,8
256,192,200091,1,8
256,192,200162,5,0
256,192,200305,1,0
256,192,200448,5,8
256,192,200591,1,8
256,192,200734,5,0
256,192,200876,5,8
256,192,201019,5,4
256,192,201162,5,12
256,192,201305,1,12
256,192,201448,5,4
256,192,201591,1,0
256,192,201734,5,8
256,192,201805,1,8
256,192,201876,5,0
256,192,202019,1,0
256,192,202162,5,8
256,192,202305,5,0
256,192,202376,1,0
256,192,202448,5,8
256,192,202519,1,8
256,192,202591,1,8
256,192,202662,1,8
256,192,202734,5,0
256,192,202876,1,0
256,192,203019,5,8
256,192,203162,5,0
256,192,203234,1,0
256,192,203305,5,8
256,192,203448,1,8
256,192,203519,1,8
256,192,203591,5,0
256,192,203734,1,0
256,192,203876,5,8
256,192,204019,5,0
256,192,204091,5,8
256,192,204162,1,8
256,192,204305,5,0
256,192,204448,5,8
256,192,204591,5,0
256,192,204662,1,0
256,192,204734,5,8
256,192,204805,1,8
256,192,204876,1,8
256,192,205019,1,8
256,192,205091,5,0
256,192,205162,5,8
256,192,205305,5,0
256,192,205376,5,8
256,192,205448,5,0
256,192,205591,1,4
256,192,205734,5,12
256,192,205876,5,4
256,192,206019,5,12
256,192,206162,5,0
256,192,206305,5,8
256,192,206376,1,8
256,192,206448,1,8
256,192,206591,5,0
256,192,206734,5,8
256,192,206876,5,0
256,192,206948,1,0
256,192,207019,5,8
256,192,207091,1,8
256,192,207162,1,8
256,192,207305,5,0
256,192,207448,5,8
256,192,207519,1,8
256,192,207591,5,0
256,192,207734,5,12
256,192,208019,5,0
256,192,208091,1,0
256,192,208162,5,8
256,192,208234,5,0
256,192,208305,5,8
256,192,208376,1,8
256,192,208448,5,0
256,192,208591,5,8
256,192,208662,1,8
256,192,208734,5,0
256,192,208805,1,0
256,192,208876,5,8
256,192,209019,1,8
256,192,209162,5,0
256,192,209234,1,0
256,192,209305,5,8
256,192,209376,1,8
256,192,209448,1,8
256,192,209591,5,0
256,192,209734,5,12
256,192,210019,1,12
256,192,210305,1,12
256,192,210448,1,8
256,192,210519,1,8
256,192,210591,5,0
256,192,210662,1,0
256,192,210734,1,0
256,192,210876,5,8
256,192,211019,5,0
256,192,211162,5,8
256,192,211305,5,0
256,192,211448,5,8
256,192,211519,1,8
256,192,211591,5,0
256,192,211662,1,0
256,192,211734,1,0
256,192,211805,1,0
256,192,211876,1,0
256,192,212019,5,8
256,192,212162,5,0
256,192,212305,5,8
256,192,212448,5,0
256,192,212591,5,8
256,192,212662,1,8
256,192,212734,1,8
256,192,212876,1,8
256,192,213019,5,0
256,192,213162,5,8
256,192,213305,5,0
256,192,213448,5,8
256,192,213591,5,0
256,192,213734,5,8
256,192,213805,1,8
256,192,213876,5,0
256,192,213948,1,0
256,192,214019,1,0
256,192,214091,1,0
256,192,214162,1,0
256,192,214305,5,8
256,192,214448,5,0
256,192,214591,5,8
256,192,214662,5,0
256,192,214805,1,0
256,192,214877,5,8
256,192,215019,5,0
256,192,215162,5,8
256,192,215305,5,0
256,192,215448,5,8
256,192,215591,5,0
256,192,215734,5,8
256,192,215877,5,0
256,192,216020,5,8
256,192,216091,1,8
256,192,216162,5,0
256,192,216234,1,0
256,192,216305,5,8
256,192,216448,5,0
256,192,216591,5,8
256,192,216734,5,0
256,192,216877,5,8
256,192,217020,5,0
256,192,217163,5,8
256,192,217234,1,8
256,192,217305,1,8
256,192,217448,1,8
256,192,217591,5,0
256,192,217734,5,8
256,192,217877,5,0
256,192,218020,5,8
256,192,218163,5,0
256,192,218306,5,8
256,192,218376,1,8
256,192,218448,5,0
256,192,218519,1,0
256,192,218591,5,8
256,192,218734,5,0
256,192,218877,5,8
256,192,219020,5,0
256,192,219163,5,8
256,192,219234,5,0
256,192,219376,1,0
256,192,219449,5,8
256,192,219591,5,0
256,192,219734,5,8
256,192,219876,5,0
256,192,220019,1,0
256,192,220162,5,8
256,192,220448,5,0
256,192,220591,5,8
256,192,220662,1,8
256,192,220734,5,0
256,192,220876,5,8
256,192,221019,5,0
256,192,221162,1,0
256,192,221305,5,8
256,192,221591,5,0
256,192,221734,5,8
256,192,221805,5,0
256,192,221948,1,0
256,192,222019,5,8
256,192,222162,5,0
256,192,222305,1,0
256,192,222448,5,8
256,192,222734,5,0
256,192,222876,5,8
256,192,222948,1,8
256,192,223019,5,0
256,192,223162,5,8
256,192,223305,5,0
256,192,223376,1,0
256,192,223448,5,8
256,192,223591,1,8
256,192,223662,5,0
256,192,223805,5,8
256,192,223876,5,0
256,192,224019,1,0
256,192,224162,5,8
256,192,224448,5,0
256,192,224591,1,0
256,192,224734,5,8
256,192,225019,5,0
256,192,225162,5,8
256,192,225234,1,8
256,192,225305,5,0
256,192,225448,5,8
256,192,225591,5,0
256,192,225734,1,0
256,192,225876,5,8
256,192,226162,5,0
256,192,226305,5,8
256,192,226448,1,8
256,192,226591,1,8
256,192,226734,5,0
256,192,226876,1,0
256,192,227019,5,8
256,192,227305,5,0
256,192,227448,5,8
256,192,227519,1,8
256,192,227591,5,0
256,192,227734,5,8
256,192,227876,5,0
256,192,228019,1,0
256,192,228162,5,8
256,192,228305,5,0
256,192,228376,5,8
256,192,228519,1,8
256,192,228591,5,0
256,192,228734,5,8
256,192,228876,1,8
256,192,229019,5,4
