osu file format v9

[General]
AudioFilename: NegaRen - Stark Raving Mad.mp3
AudioLeadIn: 0
PreviewTime: 123815
Countdown: 0
SampleSet: Soft
StackLeniency: 0.7
Mode: 0
LetterboxInBreaks: 0

[Editor]
Bookmarks: 18743,30172,41601,59886,69029,78172,87315,96458,105601,114744,135315,153601,171315,174172,183315,192458,209601
DistanceSpacing: 1
BeatDivisor: 4
GridSize: 4

[Metadata]
Title:Stark Raving Mad
Artist:NegaRen
Creator:vipto
Version:Raving Mad
Source:
Tags:lapfox trax Loctav OnosakiHito Renard

[Difficulty]
HPDrainRate:6
CircleSize:4
OverallDifficulty:8
ApproachRate:9
SliderMultiplier:1.7
SliderTickRate:2

[Events]
//Background and Video events
0,0,"yeap.jpg"
//Break Periods
2,38934,40991
2,60076,68419
2,171505,173562
//Storyboard Layer 0 (Background)
//Storyboard Layer 1 (Fail)
//Storyboard Layer 2 (Pass)
//Storyboard Layer 3 (Foreground)
//Storyboard Sound Samples
//Background Colour Transformations
3,100,163,162,255

[TimingPoints]
18734,285.714285714286,4,1,0,60,1,0
30162,-100,4,1,0,75,0,0
41591,-71.4285714285714,4,1,0,75,0,0
59734,-71.4285714285714,4,1,0,45,0,0
69019,-100,4,2,0,65,0,0
87305,-100,4,1,0,45,0,0
88448,-100,4,1,0,55,0,0
89591,-100,4,1,0,65,0,0
90734,-100,4,1,0,75,0,0
96448,-71.4285714285714,4,1,0,75,0,0
105519,-71.4285714285714,4,1,0,75,0,0
113448,-71.4285714285714,4,1,0,55,0,0
114448,-100,4,2,0,75,0,0
114734,-100,4,2,0,65,0,0
123234,-100,4,1,0,75,0,0
123876,-100,4,1,0,70,0,0
132948,-100,4,1,0,80,0,0
135305,-71.4285714285714,4,1,0,75,0,1
152376,-71.4285714285714,4,2,0,80,0,0
153591,-100,4,1,0,75,0,0
174162,-100,4,2,0,45,0,0
183305,-100,4,1,0,60,0,0
192162,-100,4,1,0,75,0,0
192448,-71.4285714285714,4,1,0,75,0,0
209591,-71.4285714285714,4,1,0,65,0,0
210701,-100,4,1,0,65,0,0
229082,-100,4,1,0,15,0,0

[Colours]
Combo1 : 255,143,89
Combo2 : 4,208,147
Combo3 : 112,221,13
Combo4 : 9,192,202

[HitObjects]
120,81,18733,1,4
431,142,19305,5,4
142,255,19876,5,4
220,286,20162,1,4
302,264,20448,1,4
383,288,20733,1,0
412,281,20805,1,0
438,267,20876,1,0
460,247,20948,1,0
476,222,21019,2,0,B|504:146|459:87,1,127.5,4|0
436,96,21305,2,2,B|408:52|340:64,1,85
298,122,21591,6,0,B|239:163|149:139,1,127.5
156,124,21876,2,2,B|136:80|84:76,1,85
68,180,22162,2,0,B|31:240|76:299,1,127.5
105,302,22448,2,2,B|148:283|194:305,1,85
253,248,22733,6,0,B|314:282|386:251,1,127.5
404,244,23019,1,2
427,226,23091,1,2
440,199,23162,1,2
390,129,23305,2,0,B|347:64|263:78,1,127.5
253,86,23591,2,2,B|218:51|165:66,1,85
168,148,23876,6,0,B|92:153|67:233,1,127.5
84,248,24162,2,2,B|124:280|108:332,1,85
207,337,24448,6,0,B|268:362|338:331,1,127.5
352,312,24734,2,2,B|392:284|448:312,1,85
335,215,25019,2,0,B|296:141|355:77,1,127.5
321,71,25305,2,6,B|287:44|230:68,1,85,6|6
168,110,25591,5,0
180,192,25876,1,0
344,110,26162,1,8
332,192,26447,1,0
75,88,26734,5,0
75,88,27019,1,0
437,88,27305,1,8
437,88,27591,1,0
30,265,27876,6,0,B|64:286|126:267|141:204|114:168,1,170
256,64,28448,1,8
256,192,28734,1,2
482,265,29019,2,0,B|448:286|386:267|371:204|398:168,1,170
256,64,29591,1,4
343,68,30162,5,4
401,129,30305,1,0
345,193,30448,2,0,B|371:241,2,42.5,0|0|0
263,219,30734,1,0
222,232,30805,1,0
179,223,30876,1,0
223,150,31019,1,0
144,116,31162,1,0
71,159,31305,2,0,B|37:207|60:297|122:303,1,170
197,304,31734,1,0
181,223,31876,6,0,B|246:217|284:162|256:88,1,170,0|0
246,73,32234,1,0
221,55,32305,1,0
174,126,32448,2,0,B|112:77|45:116,1,127.5
35,127,32734,2,0,B|-6:152,2,42.5,0|0|0
99,183,33019,1,0
185,201,33162,1,0
154,280,33305,6,0,B|202:303|249:256,1,85,0|0
228,360,33591,2,0,B|295:347|327:299|333:239,1,170,0|0
300,168,34019,1,0
384,176,34162,2,0,B|429:201|418:262,1,85
332,242,34448,1,0
432,106,34591,1,0
350,83,34734,6,0,B|296:50|215:58|174:95,1,170
104,67,35162,1,0
96,151,35305,1,0
159,199,35448,1,0
117,274,35591,1,0
197,276,35733,1,0
204,362,35876,2,0,B|285:355|298:264|256:223,1,170
203,178,36305,1,0
280,142,36448,6,0,B|325:148|347:176|347:176|374:126|437:133,1,170
447,140,36805,1,0
468,153,36876,1,0
414,219,37019,2,0,B|374:268|323:247|323:247|333:294|297:314,1,170
289,328,37376,1,0
264,336,37448,1,0
204,275,37591,2,0,B|161:302|115:280,1,85
48,241,37876,2,0,B|7:210|19:156,1,85
120,204,38162,2,0,B|83:141|129:74|190:69,1,170
197,160,38591,1,0
120,204,38734,1,0
60,179,41591,6,0,B|79:114|147:109,1,118.999997162819
180,200,41876,1,8
240,124,42019,1,0
284,208,42162,1,0
340,132,42305,1,0
340,132,42376,1,0
340,132,42448,1,8
424,176,42591,1,0
372,256,42734,2,0,B|342:316|264:312,1,118.999996368408
196,260,43019,2,0,B|132:236|72:272,1,118.999997162819,8|0
144,340,43305,1,0
240,348,43448,5,0
259,334,43519,1,0
281,325,43591,1,8
304,321,43662,1,0
327,320,43734,1,0
419,342,43876,2,0,B|492:317|487:250,1,118.999997162819
391,245,44162,1,8
485,161,44305,1,0
406,107,44448,5,0
384,97,44519,1,0
360,93,44591,1,0
336,95,44662,1,0
314,105,44734,2,0,B|251:138|194:106,1,118.999997162819,8|0
106,88,45019,6,2,B|88:151|147:191,1,118.999997162819
406,296,45305,2,2,B|424:233|365:193,1,118.999997162819,10|2
360,42,45591,2,2,B|297:24|257:83,1,118.999997162819
152,342,45876,2,0,B|215:360|255:301,1,118.999997162819,10|2
172,252,46162,5,0
172,252,46234,1,0
172,252,46305,1,0
210,163,46448,2,0,B|258:212|324:186,1,118.999997162819,8|0
282,99,46734,1,0
376,106,46876,2,0,B|406:56,2,59.4999985814095,0|0|8
318,188,47162,1,0
371,267,47305,6,0,B|440:289|475:230,1,118.999997162819
281,264,47591,2,0,B|212:242|176:296,1,118.999997162819,8|0
107,235,47876,1,0
107,235,47948,1,0
107,235,48019,1,0
106,83,48162,1,8
122,100,48234,1,0
140,114,48305,1,0
160,125,48376,1,0
183,131,48448,2,0,B|247:150|299:94,1,118.999997162819
474,146,48734,2,0,B|410:127|358:183,1,118.999997162819,8|0
443,229,49019,5,0
441,252,49091,1,0
432,274,49162,1,0
415,290,49234,1,0
394,300,49305,2,0,B|318:327|280:265,1,118.999997162819,8|0
176,64,49591,1,0
176,64,49734,5,0
240,192,49876,1,10
176,320,50019,1,2
104,196,50162,1,2
176,64,50305,1,2
240,192,50448,5,10
384,192,50591,1,2
427,274,50734,2,0,B|366:305|318:256,1,118.999997162819,4|0
344,104,51019,2,0,B|403:72|454:124,1,118.999997162819,8|0
384,192,51305,1,0
427,274,51448,2,0,B|488:312,2,59.4999981842042,0|0|8
367,348,51734,1,0
324,267,51876,2,0,B|286:286|286:286|270:315|270:315|230:328,1,118.999997162819
214,248,52162,2,0,B|173:262|173:262|157:291|157:291|119:310,1,118.999997162819,8|0
45,248,52448,1,0
93,166,52591,5,0
115,171,52662,1,0
138,174,52734,1,8
161,170,52805,1,0
182,161,52876,1,0
227,77,53019,2,0,B|283:49|348:77,1,118.999996368408
398,152,53305,2,0,B|339:178|283:150,1,118.999996368408,8|0
224,225,53591,2,0,B|179:271,2,59.4999981842042
319,227,53876,1,8
270,308,54019,1,0
182,267,54162,5,2
182,267,54305,1,2
182,116,54448,1,10
182,116,54591,1,2
240,328,54734,2,0,B|186:363|127:330,1,118.999997162819,2|2
127,54,55019,2,0,B|186:21|240:56,1,118.999997162819,10|2
270,241,55305,5,0
290,230,55376,1,0
310,219,55448,1,0
268,133,55591,2,0,B|326:100|398:147,1,118.999996368408,8|0
395,230,55876,1,0
351,314,56019,2,0,B|401:349,2,59.4999985814095,0|0|8
255,324,56305,1,0
185,258,56448,6,0,B|132:289|132:289|59:301,1,118.999996368408
327,126,56734,2,0,B|380:95|380:95|453:83,1,118.999996368408,8|0
312,38,57019,1,0
216,52,57162,1,0
193,61,57234,1,0
171,70,57305,1,8
80,40,57448,1,0
104,133,57591,6,0,B|154:185|233:151,1,118.999997162819
408,133,57876,2,0,B|358:185|279:151,1,118.999997162819,8|0
279,252,58162,1,0
219,326,58305,2,0,B|298:367,2,59.4999981842042,0|0|8
123,324,58591,1,0
139,231,58734,5,2
139,231,58876,1,2
256,136,59019,1,2
373,231,59162,1,2
373,231,59305,6,0,B|444:226|466:145,1,118.999997162819,0|0
466,138,59519,1,0
466,114,59591,1,0
348,132,59734,1,0
488,296,59876,1,4
84,162,69019,6,0,B|110:107|203:106|240:153,1,170,4|0
256,60,69448,1,0
280,144,69591,2,0,B|316:110|401:108|428:162,1,170,8|0
389,237,70019,5,0
403,320,70162,1,0
324,292,70305,1,0
238,292,70448,1,0
156,316,70591,1,0
123,237,70734,6,0,B|103:146,1,85,8|0
26,187,71019,2,0,B|8:93,1,85
166,103,71305,2,0,B|148:9,1,85
227,168,71591,1,0
227,168,71734,1,0
308,145,71876,6,0,B|320:72|416:57|457:112,1,170,8|0
390,167,72305,1,0
471,190,72448,2,0,B|459:263|363:278|322:223,1,170,0|0
307,316,72876,1,0
236,269,73019,2,0,B|187:250|135:276,1,85,8|0
193,343,73305,2,0,B|144:362|92:336,1,85
54,278,73591,6,0,B|28:209|62:148|114:121,1,170
151,197,74019,1,0
185,119,74162,2,0,B|225:92|278:116,1,85,8|0
238,192,74448,2,0,B|301:254,1,85
350,183,74733,2,0,B|413:245,1,85
350,183,75019,2,0,B|413:121,1,85
336,80,75305,2,0,B|380:18|456:32|485:83,1,170,8|0
410,123,75733,5,0
458,193,75876,2,0,B|470:237|470:237|467:300,1,85
382,278,76162,2,0,B|366:335|310:339|310:339|280:322|280:322|215:319,1,170,0|8
173,273,76591,1,0
237,217,76734,1,0
165,173,76876,1,0
216,105,77019,2,0,B|204:58|158:34|110:52,2,127.5
301,100,77591,2,0,B|346:71|422:90|433:161,1,170,8|0
347,173,78019,5,0
347,173,78162,2,0,B|356:224|416:240,1,85,4|0
428,316,78448,2,0,B|480:348,2,42.5
342,306,78733,2,0,B|281:262|209:304,1,127.5
209,319,79019,2,0,B|165:342|109:312,1,85
166,245,79305,1,0
82,227,79448,2,0,B|99:153|202:157,1,127.5
197,171,79733,2,0,B|243:179|290:136,2,85
212,86,80162,1,0
293,61,80305,1,0
370,95,80448,6,0,B|405:123|455:109,2,85,0|0|0
313,158,80876,1,0
382,206,81019,2,0,B|409:264|374:338|299:326,1,170
311,241,81448,2,0,B|257:238|229:291,1,85
158,244,81733,1,0
135,326,81876,2,0,B|84:310|74:258,1,85
93,185,82162,2,0,B|87:129|46:104,2,85
174,158,82591,1,0
235,216,82733,6,0,B|275:238|322:216,2,85
249,132,83162,1,0
324,93,83305,2,0,B|398:67|449:119|443:181,1,170
357,171,83733,2,0,B|356:225|414:253,1,85
472,276,84019,1,0
405,329,84162,2,0,B|344:330|318:263,1,85
209,316,84448,1,0
209,316,84591,1,0
107,244,84733,5,0
49,181,84876,1,0
121,136,85019,2,0,B|155:34,1,85
223,95,85305,2,0,B|322:122|399:84,2,170
199,176,86019,1,0
249,244,86162,2,0,B|162:327,1,85
125,244,86448,2,0,B|38:327,1,85
387,140,86733,2,0,B|474:57,1,85
263,140,87019,2,0,B|350:57,1,85
120,136,87305,6,0,B|84:100,2,42.5
118,221,87591,1,0
196,187,87733,1,0
220,182,87805,1,0
245,180,87876,1,0
270,182,87948,1,0
294,188,88019,1,0
309,271,88162,2,0,B|400:261,2,85
223,269,88591,1,0
218,293,88662,1,0
225,317,88733,1,0
242,336,88805,1,0
264,346,88876,5,0
349,346,89019,1,0
417,295,89162,1,0
489,338,89305,2,0,B|514:284|480:241,1,85
421,204,89591,1,0
421,204,89662,1,0
421,204,89734,1,0
463,130,89876,1,0
399,73,90019,5,0
369,67,90091,1,0
339,64,90162,1,0
309,66,90233,1,0
280,73,90305,1,0
195,85,90448,2,0,B|149:80|149:80|115:44,2,85
246,153,90876,1,0
180,209,91019,5,0
160,194,91090,1,0
140,180,91162,1,0
145,280,91305,1,0
166,294,91376,1,0
186,309,91448,1,0
206,324,91519,1,0
226,338,91591,1,0
290,282,91733,5,0
347,343,91876,2,0,B|438:311,1,85
377,244,92162,2,0,B|468:212,1,85
419,138,92448,1,0
419,138,92519,1,0
419,138,92591,1,0
341,103,92734,1,0
271,151,92876,2,0,B|225:137,2,42.5
282,235,93162,1,0
236,306,93305,1,0
211,310,93376,1,0
185,311,93448,1,0
160,306,93519,1,0
136,295,93591,1,0
163,214,93733,5,0
79,201,93876,2,0,B|61:152|90:109,1,85
163,43,94162,2,0,B|187:77|169:126,1,85
241,172,94448,2,0,B|264:206,2,42.5
257,88,94733,1,0
257,88,94805,1,0
257,88,94876,1,0
310,153,95019,1,0
364,87,95162,1,0
389,87,95233,1,0
413,91,95305,1,0
435,102,95376,1,0
455,117,95448,1,0
408,192,95591,5,0
357,260,95734,1,0
439,277,95876,2,0,B|429:330|375:346,1,85
304,332,96162,1,0
272,252,96305,1,0
136,344,96448,6,0,B|63:330|35:268,1,118.999996368408,4|0
131,247,96734,2,0,B|79:194|92:127,1,118.999996368408,8|0
179,173,97019,1,0
256,232,97162,1,0
333,173,97305,1,8
387,242,97448,2,0,B|487:229|499:97|407:65,1,237.999992736817
312,64,97876,1,8
200,64,98019,1,0
330,142,98162,5,0
181,142,98305,1,0
324,160,98448,5,8
188,160,98591,1,0
136,232,98733,6,0,B|44:316,1,118.999997162819
376,232,99019,2,0,B|468:316,1,118.999997162819,8|0
256,236,99305,2,0,B|256:360,2,118.999997162819,0|0|8
210,72,99734,5,0
208,168,99876,1,0
304,168,100019,1,0
302,72,100162,1,8
302,72,100305,2,0,B|372:80|388:144,1,118.999997162819
360,236,100591,1,0
432,296,100733,6,0,B|380:348|312:316,1,118.999997162819,8|0
80,296,101019,2,0,B|132:348|200:316,1,118.999997162819
364,236,101305,2,0,B|300:216|252:264,1,118.999997162819,8|0
144,236,101591,2,0,B|208:216|256:264,1,118.999997162819
304,148,101876,1,8
207,148,102019,2,0,B|182:92|100:63|32:119|33:190,1,237.999994325638
125,188,102448,1,8
387,188,102591,1,0
304,148,102734,1,0
256,224,102876,6,0,B|248:268|248:268|264:308|264:308|256:344,2,118.999996368408,0|8|0
432,244,103305,1,0
80,244,103591,1,8
256,344,103876,2,0,B|256:216,1,118.999997162819
172,176,104162,1,8
160,80,104305,2,0,B|200:16|256:80|256:80|312:16|352:80,1,237.999994325638
341,175,104734,5,8
256,216,104876,1,0
184,280,105019,2,0,B|136:320|136:320|76:320,1,118.999997162819
328,280,105305,2,0,B|376:320|376:320|436:320,1,118.999997162819,8|0
404,228,105591,6,0,B|356:180|356:180|296:180,1,118.999997162819,4|0
228,124,105876,1,8
204,124,105948,1,0
180,124,106019,1,0
106,184,106162,1,0
164,259,106305,1,0
164,259,106376,1,0
164,259,106448,1,8
250,217,106591,1,0
271,309,106733,1,0
360,341,106876,1,0
344,246,107019,2,0,B|412:231|450:291,1,118.999996368408,8|0
436,152,107305,5,0
414,145,107376,1,0
392,138,107448,1,0
296,136,107591,1,8
279,118,107662,1,0
263,100,107733,1,0
247,82,107805,1,0
231,64,107876,1,0
144,104,108019,1,0
62,54,108162,2,0,B|20:115|77:177,1,118.999996368408,8|0
26,246,108448,5,0
44,270,108519,1,0
68,287,108591,1,0
96,296,108662,1,0
126,298,108734,1,8
215,329,108876,1,0
286,265,109019,1,0
364,318,109162,1,0
438,258,109305,2,0,B|468:200,2,59.4999985814095,8|0|0
354,212,109591,5,0
361,189,109662,1,0
364,165,109733,1,0
362,141,109805,1,0
351,120,109876,1,8
267,165,110019,1,0
282,71,110162,6,0,B|227:26|156:66,1,118.999997162819
121,140,110448,2,0,B|53:98,2,59.4999985814095,8|0|0
148,232,110733,1,0
148,232,110805,1,0
148,232,110876,1,0
105,311,111019,1,8
196,340,111162,1,0
215,330,111233,1,0
237,322,111305,1,0
328,344,111448,1,0
360,252,111591,6,0,B|412:220|480:240,1,118.999997162819,8|0
336,168,111876,2,0,B|284:200|216:180,1,118.999997162819
166,102,112162,1,8
166,102,112234,1,0
166,102,112305,1,0
70,100,112448,2,0,B|60:39,2,59.4999985814095
120,181,112733,1,8
93,271,112876,1,0
171,324,113019,1,0
193,332,113091,1,0
216,334,113162,1,0
239,330,113233,1,0
260,320,113305,1,8
258,212,113448,5,0
348,269,113591,2,0,B|400:213|356:143,1,118.999997162819
295,93,113876,1,0
271,98,113948,1,0
247,101,114019,1,0
223,100,114091,1,0
199,96,114162,1,0
176,89,114233,1,0
153,82,114305,1,0
129,82,114376,1,0
107,80,114448,2,4,B|50:78|12:121,1,85,4|0
75,177,114733,6,0,B|156:179|182:262|138:317,1,170,0|0
72,263,115162,1,0
232,204,115305,2,0,B|322:168|403:246,1,170
326,291,115733,1,0
412,153,115876,2,0,B|385:122|337:115,1,85
256,88,116162,1,0
256,240,116305,1,0
158,112,116448,6,0,B|104:169|138:251|207:266,1,170,0|2
220,177,116876,1,0
268,246,117019,2,0,B|276:300|219:328,1,85,2|0
150,331,117305,2,0,B|95:320|85:262,1,85
51,150,117591,1,0
127,187,117734,1,0
180,251,117876,1,0
255,212,118019,1,0
332,251,118162,2,0,B|424:280,1,85
462,206,118448,2,0,B|370:177,1,85
428,109,118733,6,0,B|383:70|297:96|292:167,1,170,0|2
256,236,119162,1,0
218,157,119305,2,0,B|211:98|129:70|84:109,1,170,2|0
132,180,119733,1,0
131,180,119876,2,0,B|50:206,1,85
80,288,120162,5,0
164,272,120305,1,0
212,344,120448,1,0
300,344,120591,1,0
348,272,120733,1,0
432,288,120876,1,0
424,204,121019,2,2,B|360:180|344:104|404:52,1,170
452,125,121448,1,0
314,34,121591,5,0
298,117,121734,1,0
224,75,121876,2,0,B|197:118|223:161|223:161|173:167|157:225,1,170
240,244,122305,1,0
168,289,122448,2,0,B|195:333|261:326,1,85
326,332,122733,2,0,B|401:313|416:234|379:187,1,170
312,152,123162,1,0
229,130,123305,2,0,B|234:83|299:38|368:82,1,170,8|8
126,57,123876,6,0,B|72:136,1,85,4|0
136,192,124162,1,0
120,276,124305,1,0
120,276,124448,2,0,B|151:331|234:336|279:289,1,170,8|0
357,292,124876,1,0
314,219,125019,2,0,B|349:190|432:203|443:279,1,170
202,166,125448,1,0
202,166,125591,2,0,B|163:199|77:185|65:105,1,170,8|0
152,95,126019,5,0
236,85,126162,2,0,B|281:99|289:150,1,85
261,229,126448,1,0
318,291,126591,1,0
351,212,126734,2,0,B|388:185|443:195,1,85,8|0
409,275,127019,2,0,B|462:279|498:247,2,85
339,324,127448,1,0
255,338,127591,1,0
172,322,127733,1,0
98,364,127876,2,0,B|55:347|27:268|88:221,1,170,8|0
170,204,128305,1,0
152,120,128448,6,0,B|200:98|254:126,1,85
249,201,128734,1,0
277,280,128876,1,0
362,277,129019,2,0,B|411:266|423:209,1,85,8|0
397,131,129305,2,0,B|353:147|339:192,1,85
431,57,129591,1,0
347,49,129733,1,0
266,76,129876,1,0
184,51,130019,1,0
198,134,130162,2,0,B|153:146|83:100|104:25,2,170,8|0|0
261,190,130876,5,0
182,223,131019,2,0,B|130:305,1,85
203,348,131305,2,0,B|248:276,1,85,8|0
323,316,131591,1,0
407,321,131733,1,0
464,259,131876,2,0,B|431:227|385:241|385:241|391:199|351:164,1,170
301,234,132305,1,0
248,166,132448,1,8
165,188,132591,1,0
129,265,132734,1,0
182,330,132876,1,0
64,94,133019,5,4
86,263,133591,5,4
248,256,134162,5,4
285,170,134448,1,4
363,219,134733,2,0,B|409:123,1,85,4|0
438,260,135019,2,0,B|401:336,1,85,4|0
312,300,135305,6,2,B|192:300,1,118.999997162819
144,192,135591,2,2,B|24:192,1,118.999997162819
193,84,135876,2,2,B|312:84,1,118.999997162819
487,192,136162,2,2,B|368:192,2,118.999997162819,2|2|0
448,304,136591,5,2
336,264,136733,1,0
256,352,136876,1,2
176,264,137019,1,0
64,304,137162,1,2
84,188,137305,6,2,B|60:68,1,118.999997162819
164,132,137591,2,2,B|164:8,1,118.999997162819
348,13,137876,2,2,B|348:132,1,118.999997162819
451,71,138162,2,2,B|428:188,1,118.999997162819
364,288,138448,5,0
256,236,138591,1,2
148,288,138733,1,0
256,224,138876,1,2
170,182,139019,2,0,B|119:149|119:149|106:86,1,118.999996368408,0|2
202,93,139305,1,0
284,140,139448,2,2,B|290:78|290:78|258:20,2,118.999996368408
448,72,139876,6,2,B|492:136|436:208,1,118.999997162819
356,344,140162,2,2,B|312:280|368:208,1,118.999997162819
264,72,140448,2,2,B|308:136|252:208,1,118.999997162819
172,344,140733,2,2,B|128:280|184:208,2,118.999997162819,2|2|0
256,260,141162,1,2
340,344,141305,5,0
408,192,141448,1,2
340,40,141591,1,0
272,192,141733,1,2
204,96,141876,6,2,B|80:68,1,118.999997162819
204,288,142162,2,2,B|80:316,1,118.999997162819
321,98,142448,2,2,B|249:118|177:86,1,118.999997162819
321,286,142733,2,2,B|249:266|177:298,1,118.999997162819
132,192,143019,2,2,B|8:192,2,118.999997162819,2|2|0
224,116,143448,5,2
328,172,143591,1,0
424,100,143733,1,2
468,208,143876,2,0,B|464:272|464:272|416:328,1,118.999997162819,0|2
320,260,144162,2,2,B|284:236|248:232|248:232|220:244|220:244|180:240|132:260|132:260,1,178.499995744228,2|0
136,244,144448,6,0,B|96:192|24:200,1,118.999997162819,4|0
52,292,144733,2,0,B|24:352,2,59.4999985814095,8|0|0
132,340,145019,1,0
155,340,145091,1,0
178,340,145162,1,0
248,276,145305,1,8
328,328,145448,1,0
378,247,145591,2,0,B|485:304,1,118.999997162819,0|0
330,123,145876,2,8,B|437:180,1,118.999997162819,8|0
256,64,146162,1,0
256,64,146234,1,0
256,64,146305,1,0
192,136,146448,6,0,B|131:126|123:72|123:72|74:59|28:80|16:192,1,237.999994325638,8|0
320,248,146876,1,0
320,248,147019,2,0,B|381:258|389:312|389:312|438:325|484:304|496:192,1,237.999994325638,8|0
408,164,147448,1,0
312,160,147591,2,0,B|182:160,1,118.999997162819,8|0
100,148,147876,2,0,B|96:76|32:40,1,118.999996368408
52,224,148162,2,0,B|56:296|120:332,1,118.999996368408,8|0
177,258,148448,1,0
268,283,148591,2,2,B|325:268|325:268|389:284,2,118.999997162819,2|10|2
243,190,149019,6,0,B|220:122|279:76,1,118.999996368408
330,158,149305,1,8
330,158,149448,1,0
421,185,149591,1,0
439,277,149733,1,0
427,297,149805,1,0
407,309,149876,1,8
383,312,149948,1,0
360,306,150019,1,0
264,301,150162,6,0,B|206:283|206:283|149:298,1,118.999997162819
76,235,150448,2,8,B|93:177|93:177|78:120,1,118.999997162819,8|0
151,58,150733,2,0,B|208:75|208:75|265:60,1,118.999997162819
281,154,151019,6,0,B|346:100|405:125|405:125|431:177|490:171,1,237.999994325638,8|0
231,230,151448,1,0
231,230,151591,2,0,B|166:284|107:259|107:259|81:207|15:213,1,237.999994325638,8|0
26,307,152019,1,0
113,344,152162,2,0,B|179:366|249:311,1,118.999996368408,8|0
308,275,152448,5,4
362,196,152733,5,4
346,102,153019,5,4
267,48,153305,5,4
171,47,153591,6,0,B|103:61|103:61|57:111,1,127.5
64,128,153876,2,2,B|77:223,1,85,2|2
24,280,154162,2,0,B|80:324|148:312,1,127.5,8|0
168,308,154448,2,2,B|212:300|212:300|268:324,1,85
215,211,154733,2,0,B|277:180|348:224,1,127.5
356,236,155019,2,2,B|384:260|384:260|436:272,1,85
431,164,155305,2,0,B|406:102|406:102|416:40,1,127.5,8|0
386,50,155591,1,2
357,57,155662,1,2
328,65,155733,1,2
294,142,155876,6,0,B|212:140|168:72,1,127.5
160,76,156162,2,2,B|124:44|64:52,1,85
92,136,156448,2,0,B|60:190|60:190|54:270,1,127.5
58,280,156733,2,2,B|61:327|108:352,1,85
160,288,157019,6,0,B|294:288,1,127.5
312,289,157305,2,2,B|349:294|349:294|402:280,1,85
428,196,157591,2,0,B|410:123|410:123|358:89,1,127.5
340,96,157876,2,2,B|272:36,1,85
196,68,158162,2,0,B|120:70|88:144,1,127.5
84,156,158448,2,2,B|72:198|72:198|104:245,1,85
16,264,158733,6,0,B|23:335|103:352,1,127.5,8|0
124,348,159019,2,2,B|164:330|208:345,1,85
228,260,159305,2,0,B|270:206|347:229,1,127.5
364,240,159591,2,2,B|408:260|408:312,1,85
446,189,159876,2,0,B|434:123|434:123|385:77,1,127.5
360,85,160162,1,2
331,76,160233,1,2
302,66,160305,1,2
238,122,160448,6,0,B|110:68,1,127.5
104,97,160733,2,2,B|8:79,1,85
10,165,161019,2,0,B|8:234|58:293,1,127.5
76,288,161305,2,2,B|106:320|151:328,1,85
216,256,161591,2,0,B|290:238|290:238|345:253,1,127.5
364,260,161876,2,2,B|407:268|407:268|440:302,2,85
175,85,162733,5,0
135,159,162876,1,0
162,239,163019,1,0
162,239,163091,1,0
162,239,163162,1,0
224,179,163305,2,0,B|257:221|238:265|238:265|288:255|322:283,1,170,0|0
319,192,163733,1,0
261,345,163876,1,0
383,242,164018,1,0
402,325,164162,2,0,B|452:359,2,42.5
384,241,164448,6,0,B|416:205|416:205|418:162|418:162|455:139|456:90,1,170
451,71,164805,1,0
435,50,164876,1,0
410,41,164948,1,0
384,43,165019,2,0,B|334:47|314:82|314:82|289:127|223:123,1,170
240,37,165448,1,0
162,71,165591,2,0,B|94:41,2,42.5
173,155,165876,1,0
87,167,166019,5,0
87,167,166162,2,0,B|90:222|158:266|218:230,1,170
254,307,166591,1,0
279,305,166662,1,0
304,302,166733,2,0,B|365:296|365:296|395:257|395:257|485:250,1,170
441,168,167162,1,0
375,113,167305,2,0,B|387:60,2,42.5
289,114,167591,2,0,B|232:108|212:56,1,85
289,114,167876,6,0,B|228:97|162:126|151:193,1,170,0|0
234,210,168305,1,0
309,248,168448,2,0,B|311:278|300:317|231:350|175:310,1,170
122,249,168876,1,0
37,258,169019,2,0,B|16:323,2,42.5
32,172,169305,1,0
32,172,169376,1,0
32,172,169448,1,0
116,160,169591,6,0,B|101:88|172:43|219:64,1,170
241,73,169948,1,0
266,76,170019,1,0
291,74,170091,1,0
315,78,170162,2,0,B|395:103|377:205,1,127.5
383,200,170448,2,0,B|386:240|386:240|431:271,1,85
366,336,170733,6,0,B|308:291|232:313,1,127.5
222,319,171019,2,0,B|175:327|175:327|130:315,1,85
93,188,171305,1,4
142,71,174162,6,0,B|83:144|135:243,1,170,4|0
214,234,174591,2,0,B|209:281,2,42.5
230,150,174876,1,0
308,112,175019,1,0
308,112,175091,1,0
308,112,175162,1,0
308,112,175234,1,0
308,112,175305,1,2
374,165,175448,1,2
414,90,175591,1,2
475,149,175734,1,2
481,233,175876,1,2
453,313,176019,5,0
370,334,176162,2,0,B|332:366,2,42.5
371,248,176448,1,0
371,248,176519,1,0
371,248,176591,1,0
294,285,176734,2,0,B|212:245|112:283,1,170
55,321,177162,1,0
52,235,177305,1,0
116,179,177448,2,2,B|108:135,2,42.5
196,207,177734,5,2
196,207,177876,1,2
279,191,178019,1,2
316,114,178162,1,2
316,114,178234,1,0
316,114,178305,1,0
399,133,178448,2,0,B|417:81,2,42.5,2|0|2
370,213,178734,6,0,B|356:279|417:332|489:314,2,170
290,242,179448,2,0,B|306:297,2,42.5
219,291,179734,1,0
203,212,179876,1,2
85,162,180019,1,2
135,44,180162,1,2
252,93,180305,1,2
324,47,180448,2,2,B|384:120,1,85,2|0
372,198,180734,2,0,B|425:263,1,85
360,318,181019,6,0,B|273:278|185:316,1,170
133,252,181448,1,0
78,317,181591,2,0,B|48:292|51:255|51:255|6:222|30:148,1,170
102,129,182019,1,0
102,129,182091,1,2
102,129,182162,1,2
180,162,182305,5,2
210,82,182448,2,0,B|302:101,1,85,2|0
309,183,182734,2,0,B|353:223,2,42.5
379,135,183019,1,2
379,135,183091,1,0
379,135,183162,1,2
453,175,183305,5,4
460,259,183448,1,0
395,314,183591,1,0
310,304,183734,1,0
310,304,183805,1,0
310,304,183876,1,0
310,304,183948,1,0
310,304,184019,1,0
254,241,184162,1,0
254,241,184234,1,0
254,241,184305,1,0
254,241,184376,1,0
254,241,184448,1,0
172,264,184591,1,0
129,190,184734,1,0
179,122,184876,1,0
259,150,185019,6,0,B|282:111,2,42.5
344,152,185305,1,0
392,221,185448,1,0
445,154,185591,2,0,B|507:193|485:283|426:301,1,170
354,301,186019,1,0
354,301,186091,1,0
354,301,186162,1,0
292,244,186305,1,0
212,276,186448,5,0
186,276,186519,1,0
160,276,186591,1,0
134,276,186662,1,0
108,276,186734,1,0
104,192,186876,1,0
152,120,187019,1,0
104,52,187162,1,0
228,164,187305,6,0,B|316:168,1,85,0|0
308,84,187591,2,0,B|408:108,1,85
400,188,187876,2,0,B|448:224|448:224|472:288|420:332,1,170
364,268,188305,1,0
280,284,188448,1,0
280,284,188519,1,0
280,284,188591,1,0
196,272,188734,1,0
196,272,188805,1,0
196,272,188876,2,0,B|160:320,2,42.5
156,196,189162,1,0
208,128,189305,1,0
168,52,189448,1,0
92,88,189591,5,0
11,100,189734,1,0
11,283,189876,1,0
92,296,190019,1,0
24,192,190162,2,0,B|72:184|72:184|144:200|144:200|212:192,1,170
191,194,190591,1,0
214,276,190734,2,0,B|276:262|293:205|276:147|234:120,1,170
189,88,191162,2,0,B|134:84,2,42.5
266,50,191448,1,0
301,127,191591,2,0,B|397:84,1,85
441,149,191876,5,0
441,149,191948,1,0
441,149,192019,1,0
445,233,192162,1,0
423,244,192234,1,0
400,255,192305,1,0
378,266,192376,1,0
355,277,192448,2,0,B|244:333,1,118.999996368408,4|0
152,334,192734,5,0
144,240,192876,1,0
60,196,193019,1,0
88,104,193162,1,0
88,104,193234,1,0
88,104,193305,1,0
173,146,193448,1,0
217,61,193591,2,0,B|288:94|267:184,1,118.999997162819
288,333,193876,6,0,B|217:300|238:210,1,118.999997162819
332,248,194162,1,0
408,304,194305,1,0
431,301,194376,1,0
452,290,194448,1,0
468,273,194519,1,0
478,251,194591,1,0
398,198,194734,2,0,B|450:159|450:159|473:107,1,118.999997162819
316,154,195019,2,0,B|263:192|263:192|240:244,1,118.999997162819
296,320,195305,1,0
201,331,195448,2,0,B|141:358,2,59.4999985814095
176,238,195734,1,0
87,203,195876,6,2,B|109:77,1,118.999997162819
404,85,196162,2,2,B|425:203,1,118.999997162819
178,152,196448,5,2
334,152,196591,1,2
168,146,196734,5,2
343,146,196877,1,2
256,208,197019,5,0
256,231,197091,1,0
256,254,197162,1,0
172,300,197305,1,0
172,300,197448,1,0
256,348,197591,2,0,B|336:348|348:264,1,118.999997162819
368,283,197805,1,0
391,283,197876,2,0,B|399:347|479:347,1,118.999997162819
398,209,198162,6,0,B|402:165|402:165|390:129|390:129|394:81,1,118.999997162819
303,13,198448,2,0,B|299:57|299:57|311:93|311:93|307:141,1,118.999997162819
215,104,198734,1,0
152,174,198876,1,0
130,163,198948,1,0
106,159,199019,1,0
82,159,199091,1,0
59,165,199162,1,0
97,252,199305,6,0,B|111:306|111:306|159:351,1,118.999997162819
253,348,199591,2,0,B|308:348|308:348|364:313,1,118.999997162819
289,253,199876,1,0
233,175,200019,1,0
327,164,200162,1,0
327,164,200305,1,0
415,129,200448,6,2,B|370:84|370:84|303:75,1,118.999997162819
97,129,200734,2,2,B|142:84|142:84|209:75,1,118.999997162819
175,169,201019,2,2,B|90:257,1,118.999997162819
337,169,201305,2,2,B|422:257,1,118.999997162819
328,284,201591,6,0,B|379:333,2,59.4999985814095,4|0|0
184,284,201876,2,0,B|133:333,2,59.4999985814095,8|0|0
133,202,202162,1,0
158,110,202305,1,0
245,72,202448,2,0,B|299:47|366:72,1,118.999997162819,8|0
302,145,202734,6,0,B|356:170|423:145,1,118.999997162819
499,242,203019,2,0,B|445:217|378:242,1,118.999997162819,8|0
403,333,203305,1,0
312,300,203448,1,0
288,300,203519,1,0
264,300,203591,1,8
240,300,203662,1,0
216,300,203734,1,0
132,260,203876,6,0,B|16:312,1,118.999997162819
68,200,204162,2,0,B|184:148,1,118.999997162819,8|0
198,58,204448,1,0
272,117,204591,2,0,B|268:186,2,59.4999985814095,0|0|8
355,70,204876,1,0
435,120,205019,6,2,B|435:249,1,118.999997162819
196,320,205305,2,2,B|316:320,1,118.999997162819,10|2
77,120,205591,2,2,B|77:249,1,118.999997162819
316,64,205876,2,2,B|196:64,1,118.999997162819,10|2
228,156,206162,6,0,B|164:156,2,59.4999985814095
288,228,206448,2,0,B|412:228,1,118.999997162819,8|0
472,300,206734,1,0
400,360,206876,1,0
376,360,206948,1,0
352,360,207019,1,8
328,360,207091,1,0
304,360,207162,1,0
232,296,207305,6,0,B|168:304|168:304|120:344,1,118.999997162819
24,272,207591,2,0,B|88:264|88:264|136:224,1,118.999997162819,8|0
48,176,207876,1,0
116,112,208019,2,0,B|84:64,2,59.4999985814095,0|0|8
188,176,208305,1,0
240,96,208448,6,0,B|308:76|368:96,1,118.999997162819
304,172,208734,2,0,B|372:192|432:172,1,118.999997162819,8|0
479,99,209019,1,0
511,188,209162,2,0,B|503:245,2,59.4999985814095,0|0|8
308,314,209448,5,0
308,314,209591,1,0
226,263,209734,2,2,B|88:263,1,118.999997162819
55,182,210019,2,2,B|193:182,1,118.999997162819
186,86,210305,1,2
210,86,210376,1,2
233,86,210448,1,2
256,86,210519,1,2
279,86,210591,1,2
302,86,210662,1,2
325,86,210734,6,0,B|420:86,1,85,4|0
452,160,211019,2,0,B|376:224,1,85,8|0
440,284,211305,1,0
386,214,211448,1,0
301,210,211591,2,0,B|221:298,1,85,8|0
159,263,211876,1,0
243,272,212019,1,0
207,196,212162,2,0,B|122:145,1,85,8|0
48,152,212448,2,0,B|21:196,2,42.5
93,79,212734,6,0,B|135:55|200:75,1,85,8|0
243,120,213019,1,0
243,120,213091,1,0
243,120,213162,1,0
312,71,213305,2,0,B|360:69|408:117,1,85,8|0
402,185,213591,1,0
389,100,213734,1,0
329,228,213876,2,0,B|380:308,1,85,8|0
456,275,214162,1,0
456,275,214234,1,0
456,275,214305,1,0
283,323,214448,6,0,B|183:311,1,85,8|0
206,226,214734,2,0,B|106:214,1,85
76,144,215019,1,8
91,125,215091,1,0
108,106,215162,1,0
124,87,215234,1,0
140,68,215305,1,0
208,117,215448,1,0
286,83,215591,6,0,B|388:72,1,85,8|0
435,128,215876,1,0
435,128,216019,1,0
364,175,216162,2,0,B|352:271,1,85,8|0
353,259,216448,1,0
219,332,216591,1,0
219,332,216734,2,0,B|133:285,1,85,8|0
214,242,217019,1,0
214,242,217091,1,0
214,242,217162,1,0
140,198,217305,6,0,B|199:132,1,85,8|0
44,63,217591,2,0,B|147:76,1,85
287,152,217876,2,0,B|356:95,1,85,8|0
433,125,218162,1,0
433,125,218305,1,0
392,200,218448,2,0,B|450:282,1,85,8|0
494,202,218734,1,0
441,269,218876,1,0
377,326,219019,6,0,B|289:305,1,85,8|0
318,223,219305,1,0
236,246,219448,1,0
159,282,219591,2,0,B|133:218,1,42.5,8|0
106,221,219734,2,0,B|109:160,1,42.5
77,149,219876,2,0,B|93:44,1,85
162,111,220162,2,0,B|268:113,1,85,8|0
267,29,220448,5,0
267,29,220519,1,0
267,29,220591,1,0
329,87,220734,2,0,B|412:104,1,85,8|0
412,104,221019,1,0
350,172,221162,1,0
262,197,221305,2,0,B|308:280,1,85,8|0
225,306,221591,2,0,B|181:296,2,42.5
300,346,221876,6,0,B|401:323,1,85,8|0
377,241,222162,1,0
292,234,222305,1,0
321,154,222448,2,0,B|426:119,1,85,8|0
385,42,222734,1,0
385,42,222876,1,0
495,179,223019,6,0,B|455:263,1,85,8|0
465,341,223305,1,0
465,341,223448,1,0
328,235,223591,2,0,B|240:273,1,85,8|0
228,186,223876,1,0
228,186,224019,1,0
206,346,224162,5,8
172,337,224234,1,0
138,337,224305,1,0
104,342,224376,1,0
69,339,224448,1,0
85,255,224591,1,0
31,188,224734,2,0,B|76:108,1,85,8|0
153,141,225019,2,0,B|151:190,2,42.5
198,68,225305,6,0,B|278:108,1,85,8|0
276,191,225591,1,0
347,145,225734,1,0
425,176,225876,2,0,B|431:91,1,85,8|0
360,240,226162,1,0
360,240,226234,1,0
360,240,226305,1,0
411,307,226448,6,0,B|331:347,1,85,8|0
275,286,226734,1,0
215,345,226876,1,0
154,284,227019,1,8
93,344,227162,1,0
72,210,227305,2,0,B|23:178,2,42.5
121,80,227591,6,0,B|148:161,1,85,8|0
232,164,227876,1,0
232,164,227948,1,0
232,164,228019,1,0
286,98,228162,1,8
269,181,228305,1,0
428,144,228448,2,0,B|412:227,1,85,0|0
336,272,228734,1,0
296,256,228805,1,0
254,250,228876,1,0
212,257,228948,1,0
173,273,229019,1,0
