osu file format v14

[General]
AudioFilename: NeLiME - Leviathan.mp3
AudioLeadIn: 0
PreviewTime: 80984
Countdown: 0
SampleSet: Normal
StackLeniency: 0.7
Mode: 0
LetterboxInBreaks: 0
WidescreenStoryboard: 1

[Editor]
Bookmarks: 10054
DistanceSpacing: 1.8
BeatDivisor: 4
GridSize: 4
TimelineZoom: 1.3

[Metadata]
Title:Leviathan
TitleUnicode:Leviathan
Artist:NeLiME
ArtistUnicode:NeLiME
Creator:TheKoala
Version:Insane
Source:Deemo
Tags:
BeatmapID:714927
BeatmapSetID:321378

[Difficulty]
HPDrainRate:7
CircleSize:3.7
OverallDifficulty:7
ApproachRate:9
SliderMultiplier:1.5
SliderTickRate:1

[Events]
//Background and Video events
0,0,"687474703a2f2f6661796574746576696c6c65667265657a6f6e652e636f6d2f77702d636f6e74656e742f75706c6f6164732f323031342f31302f4c657669617468696e2e6a7067.jpg",0,0
//Break Periods
2,58157,67735
//Storyboard Layer 0 (Background)
//Storyboard Layer 1 (Fail)
//Storyboard Layer 2 (Pass)
//Storyboard Layer 3 (Foreground)
//Storyboard Sound Samples

[TimingPoints]
251,340.909090909091,4,1,0,40,1,0
771,340.909090909091,4,1,0,40,1,0
8618,344.827586206897,4,1,0,37,1,0
8948,379.746835443038,4,1,0,35,1,0
9305,387.096774193548,4,1,0,33,1,0
9682,461.538461538462,4,1,0,30,1,0
10111,461.538461538462,4,1,0,30,1,0
10536,413.793103448276,4,1,0,37,1,0
13828,-90.9090909090909,4,1,0,45,0,0
13849,324.324324324324,4,1,0,45,1,0
26821,-111.111111111111,4,1,0,37,0,0
29416,-105.263157894737,4,1,0,40,0,0
32011,-100,4,1,0,45,0,0
34605,-90.9090909090909,4,1,0,50,0,0
37200,-80,4,1,0,65,0,1
47578,-90.9090909090909,4,1,0,50,0,0
57957,-133.333333333333,4,1,0,40,0,0
68335,-83.3333333333333,4,1,0,65,0,0
81308,-83.3333333333333,4,1,0,65,0,1
91362,-83.3333333333333,4,1,0,65,0,0
91686,-83.3333333333333,4,1,0,65,0,1
95497,-83.3333333333333,4,1,0,65,0,0
95578,-71.4285714285714,4,1,0,65,0,1
96876,-83.3333333333333,4,1,0,65,0,1
99470,-74.0740740740741,4,1,0,65,0,1
102065,-86.9565217391304,4,1,0,55,0,0
112443,-86.9565217391304,4,1,0,60,0,1
122659,-86.9565217391304,4,1,0,45,0,0
123146,-86.9565217391304,4,1,0,65,0,0
123227,-86.9565217391304,4,1,0,60,0,0
124119,-86.9565217391304,4,1,0,55,0,0
125416,-86.9565217391304,4,1,0,45,0,0
126713,-86.9565217391304,4,1,0,35,0,0
127930,-86.9565217391304,4,1,0,5,0,0

[Colours]
Combo1 : 128,128,128
Combo2 : 64,128,128
Combo3 : 128,64,64
Combo4 : 128,128,64

[HitObjects]
116,248,251,6,0,L|128:160,1,75
184,104,591,1,0,0:0:0:0:
240,224,771,6,0,P|268:264|384:260,1,150
408,204,1282,1,0,0:0:0:0:
324,196,1452,2,0,P|324:140|348:72,2,112.5
240,224,2134,6,0,P|236:156|264:48,1,150
320,28,2646,1,0,0:0:0:0:
388,84,2816,2,0,L|408:164,1,75
316,256,3157,2,0,P|324:196|332:164,1,75
404,312,3498,6,0,P|352:288|256:332,1,150
76,240,4180,2,0,P|128:216|224:260,1,150
360,192,4861,5,0,0:0:0:0:
360,192,5373,2,0,L|336:140,2,37.5
320,276,5714,1,0,0:0:0:0:
260,152,5884,2,0,P|264:108|280:60,1,75
260,152,6225,6,0,P|204:208|116:232,2,150
360,52,7248,1,0,0:0:0:0:
396,144,7418,1,0,0:0:0:0:
372,28,7589,5,0,0:0:0:0:
300,224,8100,2,0,L|320:256,2,37.5
188,184,8441,2,0,L|128:240,1,75
168,320,8790,2,0,L|222:268,1,75
268,116,9327,5,0,0:0:0:0:
176,56,9682,1,0,0:0:0:0:
120,120,10111,1,0,0:0:0:0:
128,164,10536,1,0,0:0:0:0:
256,192,11156,12,0,13639,0:0:0:0:
164,152,13849,6,0,L|144:232,1,75
208,312,14173,2,0,L|226:239,1,75
300,188,14497,1,0,0:0:0:0:
352,260,14659,1,0,0:0:0:0:
312,160,14821,2,0,B|300:132|300:132|292:124|292:124|272:84,1,75
220,204,15146,6,0,B|232:232|232:232|240:240|240:240|260:280,1,75
340,308,15470,1,0,0:0:0:0:
412,256,15632,1,0,0:0:0:0:
412,256,15713,1,0,0:0:0:0:
412,256,15794,2,0,P|424:216|408:100,1,150
340,56,16281,1,0,0:0:0:0:
304,168,16443,6,0,P|248:208|180:220,2,112.5
392,168,17092,2,0,P|454:196|499:249,2,112.5
304,168,17740,6,0,L|276:200,3,37.5
256,204,18065,2,0,L|228:236,3,37.5
208,236,18389,2,0,L|180:268,3,37.5
156,264,18713,2,0,L|128:296,3,37.5
100,292,19038,6,0,P|72:240|76:148,1,150
104,124,19443,2,0,L|140:100,1,37.5
216,144,19686,1,0,0:0:0:0:
256,52,19848,1,0,0:0:0:0:
232,176,20011,2,0,P|232:232|244:280,1,75
252,272,20254,1,0,0:0:0:0:
276,288,20335,6,0,L|364:312,1,75
440,240,20659,2,0,L|367:220,1,75
304,140,20984,1,0,0:0:0:0:
304,140,21308,1,0,0:0:0:0:
188,124,21632,6,0,L|128:192,3,75
188,296,22281,6,0,L|248:228,3,75
384,164,22930,6,0,L|324:232,3,75
280,56,23578,5,0,0:0:0:0:
280,56,23740,1,0,0:0:0:0:
280,56,23903,1,0,0:0:0:0:
280,56,24065,1,0,0:0:0:0:
256,192,24227,12,0,26659,0:0:0:0:
176,264,26821,6,0,P|152:216|132:124,2,134.999995880127
248,304,27632,1,0,0:0:0:0:
308,252,27794,2,0,L|392:264,1,67.4999979400635
256,180,28281,6,0,L|189:170,1,67.4999979400635
140,104,28605,1,0,0:0:0:0:
92,212,28767,1,0,0:0:0:0:
92,212,29092,1,0,0:0:0:0:
248,304,29416,5,0,0:0:0:0:
284,228,29578,1,0,0:0:0:0:
320,152,29740,2,0,P|260:208|184:196,1,142.49999619484
128,172,30227,2,0,L|44:212,1,71.2499980974198
128,172,30551,2,0,P|152:128|156:32,1,142.49999619484
240,120,31038,6,0,P|236:192|232:220,1,71.2499980974198
296,68,31362,2,0,L|280:0,2,35.6249990487099
332,144,31686,1,0,0:0:0:0:
208,72,31848,1,0,0:0:0:0:
184,156,32011,6,0,P|168:208|104:284,1,150
24,304,32497,1,0,0:0:0:0:
0,228,32659,2,0,L|44:140,1,75
108,132,32984,2,0,L|152:44,1,75
344,48,33632,5,0,0:0:0:0:
304,192,33957,2,0,P|292:124|296:88,1,75
392,188,34281,2,0,B|392:232|392:232|372:280,1,75
292,324,34605,6,0,P|240:308|164:244,1,150
144,164,35091,1,0,0:0:0:0:
220,140,35253,2,0,L|308:184,1,75
316,248,35578,2,0,L|404:292,1,75
144,68,36227,2,0,L|92:84,2,41.2500012588501
240,120,36551,2,0,L|292:136,2,41.2500012588501
164,160,36876,1,0,0:0:0:0:
236,44,37038,1,0,0:0:0:0:
300,200,37200,6,0,P|348:248|392:272,1,93.75
212,200,37524,2,0,P|164:248|120:272,1,93.75
40,152,37848,2,0,B|60:96|60:96|64:84|64:84|88:48,1,93.75
152,8,38173,1,0,0:0:0:0:
176,148,38335,2,0,P|208:212|324:264,1,187.5
384,216,38821,5,0,0:0:0:0:
399,123,38984,2,0,L|383:219,1,93.75
296,168,39308,2,0,L|312:72,1,93.75
248,4,39632,1,0,0:0:0:0:
180,128,39794,6,0,P|136:168|92:192,1,93.75
144,320,40119,2,0,L|196:224,1,93.75
292,104,40443,2,0,P|296:208|304:240,1,93.75
348,276,40767,1,0,0:0:0:0:
376,92,40930,2,0,P|344:36|216:64,1,187.5
184,176,41416,6,0,P|180:128|164:72,1,93.75
112,232,41740,1,0,0:0:0:0:
168,344,41903,1,0,0:0:0:0:
240,200,42065,1,0,0:0:0:0:
184,88,42228,1,0,0:0:0:0:
224,280,42389,6,0,L|264:320|292:348,1,93.75
340,176,42713,2,0,L|300:136|272:108,1,93.75
233,289,43038,2,0,L|280:321|312:344,1,93.75
330,166,43362,2,0,L|283:134|251:111,1,93.75
88,204,43686,6,0,P|152:184|196:148,1,93.75
36,140,44011,1,0,0:0:0:0:
20,268,44173,1,0,0:0:0:0:
64,120,44335,2,0,P|44:56|8:12,1,93.75
168,60,44659,2,0,L|192:104,3,46.875
188,144,44984,6,0,P|240:120|352:184,1,187.5
340,260,45470,2,0,L|424:68,1,187.5
424,172,45957,2,0,P|432:220|436:284,1,93.75
384,344,46281,6,0,P|384:280|256:248,1,187.5
264,332,46767,2,0,B|264:200|264:200|256:112,1,187.5
188,84,47254,1,0,0:0:0:0:
144,180,47416,1,0,0:0:0:0:
164,56,47578,6,0,P|216:28|376:108,1,247.500007553101
376,128,48146,1,0,0:0:0:0:
372,156,48227,2,0,P|344:192|336:276,1,123.75000377655
348,292,48551,2,0,L|252:236,1,82.5000025177003
224,176,48876,6,0,B|264:324|264:324|264:360,1,165.000005035401
168,320,49362,2,0,B|128:172|128:172|128:136,1,165.000005035401
188,84,49848,1,0,0:0:0:0:
188,84,50173,6,0,P|232:116|320:136,1,123.75000377655
336,116,50497,2,0,P|304:160|284:248,1,123.75000377655
304,256,50821,2,0,L|192:220,1,82.5000025177003
96,264,51146,2,0,L|174:289,1,82.5000025177003
88,188,51470,6,0,B|36:196|-4:252|36:312|36:312|-32:224,1,247.500007553101
96,264,52119,2,0,P|144:244|164:196,1,82.5000025177003
152,144,52443,2,0,P|110:112|59:119,1,82.5000025177003
88,188,52767,6,0,B|212:136|212:136|244:136,2,165.000005035401
188,236,53578,2,0,P|180:176|104:72,1,165.000005035401
52,56,54065,5,0,0:0:0:0:
184,32,54227,1,0,0:0:0:0:
184,32,54308,1,0,0:0:0:0:
184,32,54389,2,0,L|244:92,1,82.5000025177003
260,168,54713,2,0,L|318:226,1,82.5000025177003
180,152,55038,2,0,L|121:93,1,82.5000025177003
132,248,55362,5,0,0:0:0:0:
184,304,55524,1,0,0:0:0:0:
256,328,55686,1,0,0:0:0:0:
332,304,55848,2,0,L|172:376,1,165.000005035401
260,248,56335,2,0,P|288:208|304:160,1,82.5000025177003
144,248,56659,6,0,L|156:344,2,82.5000025177003
196,176,57146,1,0,0:0:0:0:
244,104,57308,2,0,L|233:22,2,82.5000025177003
296,216,57794,1,0,0:0:0:0:
336,64,57957,5,0,0:0:0:0:
168,280,68335,5,0,0:0:0:0:
92,252,68497,2,0,B|116:200|172:200|172:200|152:152|180:104,1,179.999994506836
244,160,68984,2,0,P|268:104|376:100,1,179.999994506836
304,228,69470,2,0,B|184:172|184:172|104:168,1,179.999994506836
236,316,69957,2,0,B|344:240|344:240|387:172,1,179.999994506836
384,120,70443,1,0,0:0:0:0:
268,68,70605,2,0,P|288:124|316:156,1,89.9999972534181
284,32,70930,5,0,0:0:0:0:
188,100,71092,2,0,B|148:132|56:104|56:104|100:156,1,179.999994506836
156,192,71578,2,0,P|92:92|84:16,1,179.999994506836
168,60,72065,2,0,P|228:92|320:28,1,179.999994506836
288,120,72551,2,0,B|300:180|300:180|328:228|328:228|340:296,1,179.999994506836
416,196,73038,1,0,0:0:0:0:
384,120,73200,1,0,0:0:0:0:
296,76,73362,1,0,0:0:0:0:
220,164,73524,5,0,0:0:0:0:
128,152,73686,2,0,B|196:184|208:244|208:244|168:320,1,179.999994506836
96,308,74173,2,0,B|28:276|16:216|16:216|56:140,1,179.999994506836
108,228,74659,2,0,B|44:76|44:76|84:96,1,179.999994506836
156,120,75146,2,0,P|216:124|336:56,1,179.999994506836
368,176,75632,2,0,L|356:224,2,44.999998626709
424,268,75957,1,0,0:0:0:0:
304,300,76119,5,0,0:0:0:0:
212,248,76281,2,0,B|128:136|128:136|132:180,1,179.999994506836
184,284,76767,2,0,B|322:267|322:267|282:248,1,179.999994506836
166,241,77254,2,0,B|111:369|111:369|147:344,1,179.999994506836
240,196,77740,2,0,P|216:124|132:28,1,179.999994506836
120,44,78146,2,0,L|64:64,3,44.999998626709
28,136,78551,1,0,0:0:0:0:
132,228,78713,5,0,0:0:0:0:
256,192,78794,12,0,80984,0:0:0:0:
180,156,81308,6,0,B|200:224|200:224|224:272,1,89.9999972534181
256,100,81632,2,0,P|208:72|160:52,1,89.9999972534181
148,64,81876,2,0,L|88:96,1,44.999998626709
68,164,82119,1,0,0:0:0:0:
120,244,82281,2,0,P|132:292|132:340,1,89.9999972534181
276,176,82605,6,0,L|264:292,1,89.9999972534181
280,296,82848,1,0,0:0:0:0:
292,324,82930,2,0,B|188:212|188:212|192:248,1,179.999994506836
168,320,83416,1,0,0:0:0:0:
240,160,83578,2,0,P|220:108|188:52,1,89.9999972534181
332,140,83903,6,0,B|384:276|384:276|352:248,1,179.999994506836
228,112,84389,1,0,0:0:0:0:
228,112,84470,1,0,0:0:0:0:
228,112,84551,2,0,P|264:68|348:32,2,134.999995880127
196,260,85200,6,0,L|160:152,1,89.9999972534181
72,84,85524,2,0,L|43:169,1,89.9999972534181
64,292,85848,2,0,L|104:328,2,44.999998626709
112,200,86173,1,0,0:0:0:0:
184,296,86335,1,0,0:0:0:0:
224,116,86497,6,0,P|280:212|356:248,1,179.999994506836
304,80,86984,1,0,0:0:0:0:
160,180,87146,2,0,P|96:176|48:152,1,89.9999972534181
56,144,87389,2,0,L|40:88,1,44.999998626709
88,24,87632,1,0,0:0:0:0:
140,160,87794,6,0,P|192:188|288:192,1,134.999995880127
296,176,88119,2,0,L|260:276,1,89.9999972534181
320,160,88443,2,0,P|312:92|204:44,1,179.999994506836
208,244,89092,6,0,L|240:280,2,44.999998626709
124,216,89416,1,0,0:0:0:0:
204,348,89578,2,0,P|260:352|308:320,1,89.9999972534181
304,312,89821,2,0,L|316:260,3,44.999998626709
264,160,90227,1,0,0:0:0:0:
176,280,90389,6,0,P|112:288|28:248,1,134.999995880127
36,232,90713,2,0,B|92:104|92:104|104:168,1,179.999994506836
124,232,91200,1,0,0:0:0:0:
8,112,91362,1,0,0:0:0:0:
148,32,91524,1,0,0:0:0:0:
164,44,91605,1,0,0:0:0:0:
184,48,91686,6,0,P|180:116|200:168,1,89.9999972534181
252,228,92011,2,0,L|224:324,1,89.9999972534181
352,216,92335,2,0,L|320:116,1,89.9999972534181
224,72,92659,1,0,0:0:0:0:
196,196,92821,1,0,0:0:0:0:
108,40,92984,6,0,L|136:148,1,89.9999972534181
72,272,93308,2,0,P|144:256|212:352,1,179.999994506836
64,296,93794,2,0,B|48:240|48:240|44:176,1,89.9999972534181
112,116,94119,1,0,0:0:0:0:
204,224,94281,6,0,B|264:200|344:208|344:208|304:176,1,179.999994506836
180,204,94767,2,0,P|180:284|184:320,2,89.9999972534181
128,100,95254,1,0,0:0:0:0:
216,24,95416,1,0,0:0:0:0:
402,143,95578,5,0,0:0:0:0:
212,106,95821,1,0,0:0:0:0:
176,296,96065,1,0,0:0:0:0:
365,332,96308,1,0,0:0:0:0:
124,236,96551,2,0,P|100:168|104:124,1,104.999996795654
176,64,96876,6,0,P|108:124|72:240,1,179.999994506836
188,332,97362,2,0,P|216:268|320:316,1,179.999994506836
168,240,97848,2,0,B|148:224|148:224|128:200,3,44.999998626709
144,164,98173,6,0,L|224:76,1,89.9999972534181
336,72,98497,2,0,L|275:138,1,89.9999972534181
264,176,98740,2,0,L|264:232,1,44.999998626709
340,312,98984,1,0,0:0:0:0:
392,184,99146,1,0,0:0:0:0:
248,96,99308,1,0,0:0:0:0:
180,312,99470,6,0,P|156:248|128:192,1,101.250000386238
28,128,99794,1,0,0:0:0:0:
144,140,99957,1,0,0:0:0:0:
20,96,100119,2,0,P|12:160|8:220,1,101.250000386238
96,328,100443,2,0,L|76:204,1,101.250000386238
224,312,100767,5,0,0:0:0:0:
264,196,100930,1,0,0:0:0:0:
236,328,101092,1,0,0:0:0:0:
176,168,101254,1,0,0:0:0:0:
320,284,101416,2,0,P|376:264|412:236,1,101.250000386238
352,56,101740,2,0,L|328:176,1,101.250000386238
208,256,102065,6,0,P|148:212|44:248,1,172.500003290176
164,184,102551,2,0,B|184:144|184:144|196:84,1,86.2500016450882
288,32,102876,2,0,P|312:104|332:136,1,86.2500016450882
392,172,103200,2,0,B|252:140|252:140|272:176,1,172.500003290176
336,244,103686,6,0,P|360:296|360:332,1,86.2500016450882
150,324,104011,2,0,P|154:281|175:243,1,86.2500016450882
256,320,104335,2,0,L|256:368,2,43.1250008225441
204,136,104659,6,0,P|160:88|112:64,1,86.2500016450882
308,136,104984,2,0,P|352:88|400:64,1,86.2500016450882
332,216,105308,1,0,0:0:0:0:
224,156,105470,2,0,B|196:160|196:160|168:172,2,43.1250008225441
180,264,105794,2,0,P|116:232|64:112,1,172.500003290176
144,40,106281,6,0,P|188:72|232:76,1,86.2500016450882
328,40,106605,2,0,L|312:128,1,86.2500016450882
444,48,106930,2,0,L|428:136,1,86.2500016450882
396,312,107254,6,0,P|396:244|392:204,1,86.2500016450882
304,272,107578,2,0,P|304:204|300:164,1,86.2500016450882
208,272,107903,2,0,P|207:228|209:185,1,86.2500016450882
116,312,108227,2,0,P|115:268|117:225,1,86.2500016450882
148,96,108551,6,0,B|256:164|256:164|220:88,2,172.500003290176
272,48,109362,2,0,P|304:76|324:120,1,86.2500016450882
320,216,109686,1,0,0:0:0:0:
228,264,109848,6,0,P|304:252|364:332,1,172.500003290176
216,300,110335,2,0,B|188:212|188:212|192:120,1,172.500003290176
312,140,110821,2,0,P|364:116|396:68,1,86.2500016450882
280,124,111146,6,0,B|332:252|332:252|336:208,1,172.500003290176
400,164,111632,2,0,P|316:224|276:316,1,172.500003290176
148,208,112119,2,0,L|132:96,1,86.2500016450882
148,208,112443,6,0,P|232:224|272:324,1,172.500003290176
240,376,112930,1,0,0:0:0:0:
344,336,113092,2,0,B|364:288|364:288|364:236,1,86.2500016450882
320,160,113416,1,0,0:0:0:0:
352,72,113578,2,0,P|332:132|208:128,1,172.500003290176
191,46,114065,6,0,P|232:58|272:76,1,86.2500016450882
252,244,114389,2,0,P|210:232|171:214,1,86.2500016450882
108,84,114713,2,0,P|100:60|96:32,3,43.1250008225441
64,20,115038,6,0,P|36:84|24:200,1,172.500003290176
96,260,115524,1,0,0:0:0:0:
120,252,115605,1,0,0:0:0:0:
144,256,115686,2,0,L|216:184,1,86.2500016450882
300,200,116011,1,0,0:0:0:0:
144,256,116173,2,0,P|104:204|76:80,1,172.500003290176
200,104,116659,6,0,P|224:84|240:60,3,43.1250008225441
240,36,116984,2,0,B|264:52|284:92|284:92|284:64,1,86.2500016450882
416,124,117308,2,0,B|392:108|372:68|372:68|372:96,1,86.2500016450882
344,244,117632,6,0,L|324:144,1,86.2500016450882
184,159,117957,2,0,L|168:244,1,86.2500016450882
292,320,118281,2,0,P|344:280|440:328,1,172.500003290176
296,356,118767,1,0,0:0:0:0:
232,264,118930,6,0,P|232:204|260:88,1,172.500003290176
344,60,119416,1,0,0:0:0:0:
384,196,119578,2,0,L|412:100,1,86.2500016450882
296,192,119903,2,0,L|320:274,1,86.2500016450882
296,192,120227,6,0,P|240:228|116:192,1,172.500003290176
308,152,120713,2,0,B|292:256|292:256|304:324,1,172.500003290176
180,356,121200,2,0,L|200:244,1,86.2500016450882
176,160,121524,6,0,P|168:224|52:280,1,172.500003290176
96,120,122011,1,0,0:0:0:0:
232,212,122173,2,0,P|276:188|332:144,1,86.2500016450882
208,0,122497,2,0,P|164:24|108:68,1,86.2500016450882
156,252,123146,5,0,0:0:0:0:
256,192,123227,12,0,128011,0:0:0:0:
