osu file format v14

[General]
AudioFilename: First Gate ~OVERDRIVE~.mp3
AudioLeadIn: 0
PreviewTime: 112922
Countdown: 0
SampleSet: Normal
StackLeniency: 0.7
Mode: 0
LetterboxInBreaks: 1
WidescreenStoryboard: 0

[Editor]
DistanceSpacing: 0.8
BeatDivisor: 4
GridSize: 4
TimelineZoom: 1

[Metadata]
Title:First Gate ~OVERDRIVE~
TitleUnicode:First Gate ~OVERDRIVE~
Artist:NeLiME
ArtistUnicode:NeLiME
Creator:[ B l u e ]
Version:MAXIMUM
Source:Cytus
Tags:electronic electro chapter 10 ios android rayark inc BrosephStalin Osuology
BeatmapID:744982
BeatmapSetID:336636

[Difficulty]
HPDrainRate:6
CircleSize:4
OverallDifficulty:8
ApproachRate:9
SliderMultiplier:2.3
SliderTickRate:1

[Events]
//Background and Video events
0,0,"first gate.jpg",0,0
//Break Periods
2,78922,80694
2,82008,82923
2,88523,89802
//Storyboard Layer 0 (Background)
//Storyboard Layer 1 (Fail)
//Storyboard Layer 2 (Pass)
//Storyboard Layer 3 (Foreground)
//Storyboard Sound Samples

[TimingPoints]
551,342.857142857143,4,1,0,40,1,0
1922,-133.333333333333,4,1,0,40,0,0
11865,-100,4,1,0,40,0,0
113008,-100,4,1,0,40,0,1
134951,-100,4,2,0,5,0,0

[HitObjects]
256,192,551,12,0,1751,0:0:0:0:
160,184,1923,6,0,P|220:228|260:52,1,345.000013160706,0|2,0:0|0:0,0:0:0:0:
240,136,2780,2,0,L|156:80,2,86.2500032901765
408,224,3294,6,0,P|392:272|144:292,1,345.000013160706,0|2,0:0|0:0,0:0:0:0:
148,204,4151,1,0,0:0:0:0:
224,164,4323,1,0,0:0:0:0:
308,176,4494,1,0,0:0:0:0:
183,47,4666,6,0,P|143:31|163:199,1,345.000013160706,0|2,0:0|0:0,0:0:0:0:
300,124,5694,1,0,0:0:0:0:
132,80,6037,2,0,P|148:176|376:288,2,345.000013160706,0|2|0,0:0|0:0|0:0,0:0:0:0:
304,96,7751,1,0,0:0:0:0:
216,244,8094,1,2,0:0:0:0:
388,240,8437,5,0,0:0:0:0:
408,156,8608,1,0,0:0:0:0:
388,240,8780,2,0,P|304:260|212:240,1,172.500006580353
96,124,9466,1,2,0:0:0:0:
284,128,9808,5,0,0:0:0:0:
224,64,9980,1,0,0:0:0:0:
284,128,10151,2,0,B|320:160|360:272|360:272|288:240|172:248|136:356|136:356|220:320|348:356|348:356|316:308,1,690.000026321412
132,120,11866,5,4,0:0:0:0:
240,160,12037,1,0,0:0:0:0:
248,44,12208,5,0,0:0:0:0:
296,48,12294,1,0,0:0:0:0:
336,72,12380,1,0,0:0:0:0:
356,112,12466,1,0,0:0:0:0:
360,156,12551,1,4,0:0:0:0:
340,196,12637,1,0,0:0:0:0:
300,220,12723,1,4,0:0:0:0:
256,224,12808,1,0,0:0:0:0:
212,216,12894,6,0,P|172:164|176:96,1,115
56,192,13237,1,2,0:0:0:0:
172,116,13408,1,0,0:0:0:0:
248,280,13751,1,0,0:0:0:0:
248,280,13837,1,0,0:0:0:0:
248,280,13923,1,2,0:0:0:0:
356,196,14094,1,0,0:0:0:0:
356,196,14437,6,0,L|288:176,1,57.5
172,116,14608,2,0,P|124:156|116:228,1,115,2|0,0:0|0:0,0:0:0:0:
200,284,14951,5,0,0:0:0:0:
244,280,15037,1,0,0:0:0:0:
284,256,15123,1,0,0:0:0:0:
304,216,15208,1,0,0:0:0:0:
308,172,15294,1,0,0:0:0:0:
300,128,15380,1,0,0:0:0:0:
272,92,15466,1,0,0:0:0:0:
228,76,15551,1,0,0:0:0:0:
116,36,15808,5,2,0:0:0:0:
364,32,15980,1,2,0:0:0:0:
248,264,16151,1,2,0:0:0:0:
248,264,16494,6,0,L|248:184,2,57.5,0|0|2,0:0|0:0|0:0,0:0:0:0:
120,192,16837,1,0,0:0:0:0:
392,192,17008,5,2,0:0:0:0:
404,148,17094,1,0,0:0:0:0:
392,104,17180,1,0,0:0:0:0:
356,76,17266,1,0,0:0:0:0:
308,72,17351,1,0,0:0:0:0:
264,88,17437,1,0,0:0:0:0:
240,128,17523,1,0,0:0:0:0:
248,172,17608,1,0,0:0:0:0:
284,204,17694,5,2,0:0:0:0:
316,240,17780,1,0,0:0:0:0:
320,288,17866,1,0,0:0:0:0:
292,324,17951,1,0,0:0:0:0:
252,348,18037,1,2,0:0:0:0:
204,344,18123,1,0,0:0:0:0:
164,320,18208,1,0,0:0:0:0:
152,276,18294,1,0,0:0:0:0:
152,228,18380,6,0,L|240:124,1,115,12|0,0:0|0:0,0:0:0:0:
328,216,18723,1,8,0:0:0:0:
348,104,18894,1,0,0:0:0:0:
440,204,19066,6,0,P|428:264|384:296,1,115,8|0,0:0|0:0,0:0:0:0:
316,284,19323,1,0,0:0:0:0:
316,284,19408,1,8,0:0:0:0:
256,160,19580,5,0,0:0:0:0:
188,280,19751,2,0,P|128:240|120:184,1,115,8|0,0:0|0:0,0:0:0:0:
140,136,20008,1,0,0:0:0:0:
140,136,20094,1,8,0:0:0:0:
256,64,20266,1,0,0:0:0:0:
384,120,20437,6,0,L|408:188,1,57.5,8|0,0:0|0:0,0:0:0:0:
288,176,20608,2,0,L|312:236,1,57.5
192,228,20780,2,0,L|216:288,1,57.5,8|0,0:0|0:0,0:0:0:0:
96,272,20951,2,0,L|124:336,1,57.5
164,336,21123,5,8,0:0:0:0:
380,244,21294,6,0,P|440:208|456:144,1,115,0|8,0:0|0:0,0:0:0:0:
448,32,21637,1,0,0:0:0:0:
348,124,21808,2,0,P|288:144|224:128,1,115,8|0,0:0|0:0,0:0:0:0:
212,124,22066,1,0,0:0:0:0:
184,124,22151,1,8,0:0:0:0:
156,136,22237,1,0,0:0:0:0:
140,160,22323,1,0,0:0:0:0:
136,188,22408,1,0,0:0:0:0:
144,216,22494,6,0,P|192:256|260:260,1,115,8|0,0:0|0:0,0:0:0:0:
292,216,22751,1,0,0:0:0:0:
292,216,22837,1,0,0:0:0:0:
288,80,23008,1,0,0:0:0:0:
288,80,23351,5,0,0:0:0:0:
408,152,23523,1,0,0:0:0:0:
424,196,23608,1,0,0:0:0:0:
416,240,23694,1,0,0:0:0:0:
380,268,23780,1,0,0:0:0:0:
336,276,23866,6,0,P|276:244|256:200,1,115
144,124,24208,6,0,L|112:184,1,57.5,8|0,0:0|0:0,0:0:0:0:
340,160,24466,2,0,L|365:108,1,57.5
264,272,24723,1,0,0:0:0:0:
204,148,24894,1,8,0:0:0:0:
340,160,25066,1,0,0:0:0:0:
204,148,25237,6,0,P|268:120|280:68,1,115
280,80,25494,1,0,0:0:0:0:
280,80,25580,1,8,0:0:0:0:
204,148,25751,1,0,0:0:0:0:
204,148,25837,1,0,0:0:0:0:
204,148,25923,1,0,0:0:0:0:
132,208,26094,1,0,0:0:0:0:
132,208,26180,1,0,0:0:0:0:
132,208,26266,6,0,P|196:236|252:224,1,115,8|0,0:0|0:0,0:0:0:0:
288,100,26608,1,0,0:0:0:0:
288,100,26694,1,0,0:0:0:0:
152,92,26866,1,0,0:0:0:0:
152,92,26951,1,8,0:0:0:0:
236,288,27123,5,0,0:0:0:0:
356,220,27294,1,0,0:0:0:0:
356,84,27466,1,0,0:0:0:0:
232,24,27637,1,8,0:0:0:0:
108,84,27808,1,0,0:0:0:0:
104,224,27980,5,0,0:0:0:0:
104,224,28066,1,0,0:0:0:0:
104,224,28151,2,0,L|144:280,1,57.5
252,192,28323,1,8,0:0:0:0:
252,192,28408,1,0,0:0:0:0:
252,192,28494,2,0,L|292:248,1,57.5
384,144,28666,5,0,0:0:0:0:
340,132,28751,1,0,0:0:0:0:
296,120,28837,1,0,0:0:0:0:
252,108,28923,1,0,0:0:0:0:
208,96,29008,2,0,P|136:108|120:160,1,115,8|0,0:0|0:0,0:0:0:0:
128,284,29266,5,0,0:0:0:0:
128,284,29351,2,0,B|192:288|192:288|248:256,1,115,0|0,0:0|0:0,0:0:0:0:
132,172,29694,2,0,L|76:120,1,57.5,8|0,0:0|0:0,0:0:0:0:
280,56,29951,1,0,0:0:0:0:
280,56,30037,1,0,0:0:0:0:
388,140,30208,1,0,0:0:0:0:
328,264,30380,1,8,0:0:0:0:
388,140,30551,1,0,0:0:0:0:
252,168,30723,6,0,P|176:152|144:240,1,172.5
192,272,31066,1,8,0:0:0:0:
324,228,31237,1,0,0:0:0:0:
348,92,31408,6,0,L|292:56,3,57.5
232,68,31751,2,0,L|176:96,3,57.5,8|0|0|0,0:0|0:0|0:0|0:0,0:0:0:0:
124,136,32094,6,0,L|80:192,1,57.5
192,272,32351,1,0,0:0:0:0:
192,272,32437,1,8,0:0:0:0:
304,192,32608,1,0,0:0:0:0:
412,104,32780,6,0,P|432:180|408:240,1,115
88,213,33123,2,0,P|80:157|100:104,1,115,8|0,0:0|0:0,0:0:0:0:
228,48,33466,5,0,0:0:0:0:
332,140,33637,1,0,0:0:0:0:
200,184,33808,1,8,0:0:0:0:
200,184,33894,1,0,0:0:0:0:
200,184,33980,1,0,0:0:0:0:
304,44,34151,5,0,0:0:0:0:
344,200,34323,1,0,0:0:0:0:
168,156,34494,1,8,0:0:0:0:
168,156,34580,1,0,0:0:0:0:
168,156,34666,1,0,0:0:0:0:
168,156,34751,1,0,0:0:0:0:
168,156,34837,6,0,P|192:224|160:276,1,115
108,252,35094,1,0,0:0:0:0:
108,252,35180,1,8,0:0:0:0:
232,312,35351,1,0,0:0:0:0:
388,176,35523,1,0,0:0:0:0:
388,176,35608,1,0,0:0:0:0:
388,176,35694,1,0,0:0:0:0:
440,48,35866,5,8,0:0:0:0:
304,76,36037,1,0,0:0:0:0:
388,176,36208,1,0,0:0:0:0:
412,312,36380,1,0,0:0:0:0:
412,312,36466,1,0,0:0:0:0:
412,312,36551,1,8,0:0:0:0:
388,176,36723,6,0,P|304:152|260:264,1,230
228,112,37237,5,8,0:0:0:0:
188,88,37323,1,0,0:0:0:0:
144,84,37408,1,0,0:0:0:0:
100,96,37494,1,0,0:0:0:0:
72,132,37580,2,0,P|64:200|84:248,1,115
136,260,37837,1,0,0:0:0:0:
136,260,37923,1,8,0:0:0:0:
280,192,38094,5,0,0:0:0:0:
456,296,38266,1,0,0:0:0:0:
456,296,38351,1,0,0:0:0:0:
456,296,38437,1,0,0:0:0:0:
448,160,38608,1,8,0:0:0:0:
340,72,38780,1,0,0:0:0:0:
208,112,38951,5,0,0:0:0:0:
152,240,39123,1,0,0:0:0:0:
152,240,39208,1,0,0:0:0:0:
152,240,39294,1,8,0:0:0:0:
256,332,39466,1,0,0:0:0:0:
340,72,39808,5,0,0:0:0:0:
208,112,39980,1,8,0:0:0:0:
216,156,40066,1,0,0:0:0:0:
224,200,40151,1,0,0:0:0:0:
232,244,40237,1,0,0:0:0:0:
240,288,40323,2,0,P|312:268|360:124,1,230,0|8,0:0|0:0,0:0:0:0:
296,40,40837,1,0,0:0:0:0:
128,96,41180,6,0,L|96:148,1,57.5
260,96,41351,2,0,L|260:160,1,57.5,8|0,0:0|0:0,0:0:0:0:
384,96,41523,2,0,L|416:148,1,57.5
144,256,41866,5,0,0:0:0:0:
260,96,42037,1,8,0:0:0:0:
368,256,42208,1,0,0:0:0:0:
128,96,42380,1,0,0:0:0:0:
128,96,42551,1,0,0:0:0:0:
384,96,42723,6,0,L|424:148,1,57.5,8|0,0:0|0:0,0:0:0:0:
386,174,42894,2,0,L|352:128,1,57.5
156,180,43066,6,0,L|204:136,1,57.5
284,240,43237,2,0,L|268:168,1,57.5
424,168,43408,2,0,L|352:144,1,57.5,8|0,0:0|0:0,0:0:0:0:
428,56,43580,2,0,L|368:56,1,57.5
256,52,43751,5,0,0:0:0:0:
212,60,43837,1,0,0:0:0:0:
172,80,43923,1,0,0:0:0:0:
148,120,44008,1,0,0:0:0:0:
148,168,44094,1,8,0:0:0:0:
164,212,44180,1,0,0:0:0:0:
204,236,44266,1,0,0:0:0:0:
248,240,44351,1,0,0:0:0:0:
296,240,44437,6,0,P|356:220|396:156,1,115
408,116,44694,1,0,0:0:0:0:
388,52,44780,1,8,0:0:0:0:
324,28,44866,1,0,0:0:0:0:
256,52,44951,1,0,0:0:0:0:
256,52,45294,5,0,0:0:0:0:
116,148,45466,1,8,0:0:0:0:
132,192,45551,1,0,0:0:0:0:
168,220,45637,1,0,0:0:0:0:
212,228,45723,1,0,0:0:0:0:
256,216,45808,2,0,P|296:168|296:104,1,115
208,144,46066,5,0,0:0:0:0:
208,144,46151,1,8,0:0:0:0:
100,228,46323,1,0,0:0:0:0:
224,288,46494,1,0,0:0:0:0:
224,288,46580,1,0,0:0:0:0:
224,288,46666,6,0,L|304:276,1,57.5
332,168,46837,2,0,L|380:116,1,57.5,8|0,0:0|0:0,0:0:0:0:
232,72,47008,2,0,L|220:12,1,57.5
124,104,47180,1,0,0:0:0:0:
220,200,47351,5,0,0:0:0:0:
220,200,47437,1,0,0:0:0:0:
220,200,47523,1,8,0:0:0:0:
316,100,47694,2,0,P|356:168|288:316,1,230
264,312,48123,1,0,0:0:0:0:
220,312,48208,1,8,0:0:0:0:
180,288,48294,5,0,0:0:0:0:
152,252,48380,1,0,0:0:0:0:
148,208,48466,1,0,0:0:0:0:
168,168,48551,1,0,0:0:0:0:
244,92,48723,6,0,P|284:160|336:164,1,115,0|8,0:0|0:0,0:0:0:0:
368,56,49066,1,0,0:0:0:0:
368,56,49151,1,0,0:0:0:0:
368,56,49237,2,0,L|244:88,1,115
212,96,49494,1,0,0:0:0:0:
168,108,49580,1,8,0:0:0:0:
72,208,49751,1,0,0:0:0:0:
180,288,49923,5,0,0:0:0:0:
308,236,50094,1,0,0:0:0:0:
308,236,50180,1,0,0:0:0:0:
308,236,50266,1,8,0:0:0:0:
316,96,50437,1,0,0:0:0:0:
316,96,50523,1,0,0:0:0:0:
316,96,50608,6,0,L|288:156,1,57.5
192,72,50780,1,0,0:0:0:0:
192,72,50866,1,0,0:0:0:0:
192,72,50951,2,0,L|200:148,1,57.5,8|0,0:0|0:0,0:0:0:0:
44,108,51123,6,0,L|72:168,1,57.5
84,204,51294,1,0,0:0:0:0:
124,224,51380,1,0,0:0:0:0:
168,228,51466,1,0,0:0:0:0:
212,216,51551,1,0,0:0:0:0:
244,180,51637,1,8,0:0:0:0:
256,136,51723,1,0,0:0:0:0:
244,92,51808,1,0,0:0:0:0:
208,64,51894,1,0,0:0:0:0:
236,76,51980,5,0,0:0:0:0:
264,84,52066,1,0,0:0:0:0:
292,84,52151,1,0,0:0:0:0:
320,76,52237,1,0,0:0:0:0:
340,56,52323,1,8,0:0:0:0:
356,80,52408,1,0,0:0:0:0:
368,108,52494,1,0,0:0:0:0:
372,136,52580,1,0,0:0:0:0:
368,164,52666,6,0,L|324:216,1,57.5
144,164,52837,2,0,L|188:216,1,57.5
260,300,53008,2,0,L|260:224,3,57.5,8|0|0|0,0:0|0:0|0:0|0:0,0:0:0:0:
260,196,53351,5,0,0:0:0:0:
252,152,53437,1,0,0:0:0:0:
220,120,53523,1,0,0:0:0:0:
176,108,53608,1,0,0:0:0:0:
132,116,53694,1,8,0:0:0:0:
96,144,53780,1,0,0:0:0:0:
84,188,53866,1,0,0:0:0:0:
96,232,53951,1,0,0:0:0:0:
132,264,54037,6,0,L|196:268,1,57.5
376,120,54208,2,0,L|312:120,1,57.5
272,128,54380,1,8,0:0:0:0:
232,148,54466,1,0,0:0:0:0:
204,184,54551,1,0,0:0:0:0:
212,228,54637,1,0,0:0:0:0:
244,260,54723,6,0,L|296:296,1,57.5
464,220,54894,2,0,L|416:184,1,57.5
380,156,55066,1,8,0:0:0:0:
340,132,55151,1,0,0:0:0:0:
296,116,55237,1,0,0:0:0:0:
252,104,55323,1,0,0:0:0:0:
208,96,55408,6,0,P|144:112|104:168,1,115
112,147,55666,1,0,0:0:0:0:
112,147,55751,1,8,0:0:0:0:
144,280,55923,1,0,0:0:0:0:
144,280,56008,1,0,0:0:0:0:
144,280,56094,2,0,L|188:320,7,57.5,0|0|0|0|8|0|0|0,0:0|0:0|0:0|0:0|0:0|0:0|0:0|0:0,0:0:0:0:
252,296,56780,6,0,L|312:256,1,57.5
264,204,56951,2,0,L|324:164,1,57.5
348,144,57123,1,0,0:0:0:0:
352,100,57208,1,0,0:0:0:0:
324,64,57294,1,0,0:0:0:0:
280,48,57380,1,0,0:0:0:0:
236,52,57466,6,0,L|204:100,3,57.5
108,80,57808,2,0,L|72:124,3,57.5
108,224,58151,6,0,B|152:272|216:280|216:280|272:264|272:264|324:272,1,230,2|2,0:0|0:0,0:0:0:0:
384,296,58580,1,0,0:0:0:0:
384,296,58666,1,0,0:0:0:0:
404,160,58837,1,0,0:0:0:0:
404,160,59008,2,0,P|344:200|364:48,1,345,0|2,0:0|0:0,0:0:0:0:
332,88,59608,5,0,0:0:0:0:
296,116,59694,1,0,0:0:0:0:
252,136,59780,1,0,0:0:0:0:
208,132,59866,1,0,0:0:0:0:
168,112,59951,1,0,0:0:0:0:
136,76,60037,6,0,L|76:120,1,57.5,2|0,0:0|0:0,0:0:0:0:
52,208,60208,1,0,0:0:0:0:
76,248,60294,1,0,0:0:0:0:
120,264,60380,1,0,0:0:0:0:
164,256,60466,1,0,0:0:0:0:
204,232,60551,2,0,L|240:184,1,57.5,2|0,0:0|0:0,0:0:0:0:
396,160,60723,2,0,L|360:216,1,57.5,2|0,0:0|0:0,0:0:0:0:
344,252,60894,6,0,P|284:304|232:196,1,230
336,116,61408,1,2,0:0:0:0:
208,60,61580,2,0,P|96:60|112:172,1,230
376,204,62266,5,2,0:0:0:0:
360,248,62351,1,0,0:0:0:0:
324,280,62437,1,0,0:0:0:0:
280,292,62523,1,0,0:0:0:0:
236,292,62608,1,0,0:0:0:0:
192,276,62694,1,0,0:0:0:0:
160,244,62780,1,0,0:0:0:0:
148,200,62866,1,0,0:0:0:0:
180,168,62951,5,0,0:0:0:0:
200,128,63037,1,0,0:0:0:0:
244,140,63123,1,0,0:0:0:0:
264,100,63208,1,0,0:0:0:0:
312,100,63294,1,0,0:0:0:0:
328,56,63380,1,0,0:0:0:0:
372,64,63466,1,0,0:0:0:0:
392,24,63551,1,0,0:0:0:0:
436,40,63637,6,0,P|480:96|460:264,1,230,2|2,0:0|0:0,0:0:0:0:
252,180,64323,6,0,P|168:224|272:296,1,230
232,244,65008,1,2,0:0:0:0:
232,128,65180,1,0,0:0:0:0:
331,186,65351,1,0,0:0:0:0:
165,214,65523,1,2,0:0:0:0:
273,82,65694,1,0,0:0:0:0:
357,226,65866,1,0,0:0:0:0:
164,144,66037,1,0,0:0:0:0:
412,140,66208,1,0,0:0:0:0:
280,320,66380,5,2,0:0:0:0:
164,144,66551,1,0,0:0:0:0:
200,116,66637,1,0,0:0:0:0:
244,100,66723,1,0,0:0:0:0:
288,116,66808,1,0,0:0:0:0:
320,148,66894,1,0,0:0:0:0:
320,148,67237,5,2,0:0:0:0:
120,216,67408,1,0,0:0:0:0:
164,228,67494,1,0,0:0:0:0:
208,240,67580,1,0,0:0:0:0:
252,252,67666,1,0,0:0:0:0:
296,264,67751,2,0,P|360:268|284:36,1,460,2|0,0:0|0:0,0:0:0:0:
192,112,68608,1,0,0:0:0:0:
60,68,68780,1,0,0:0:0:0:
104,200,68951,1,0,0:0:0:0:
240,228,69123,6,0,B|332:220|380:144|360:64|360:64|340:76|340:76|336:52|336:52|312:76|312:76|296:48|296:48|280:80|280:80|260:64|260:64|196:72|172:132|172:132|124:112|80:116|44:148|48:212|112:240|112:240|164:212|164:212|156:252|176:296|240:312,1,920,2|2,0:0|0:0,0:0:0:0:
348,308,70666,1,0,0:0:0:0:
428,196,70837,1,2,0:0:0:0:
336,96,71008,1,0,0:0:0:0:
428,196,71180,1,0,0:0:0:0:
292,172,71351,1,0,0:0:0:0:
168,232,71523,1,0,0:0:0:0:
292,172,71694,1,0,0:0:0:0:
180,92,71866,6,0,L|120:56,1,57.5,2|0,0:0|0:0,0:0:0:0:
128,168,72037,2,0,L|64:180,1,57.5
200,224,72208,2,0,L|192:280,1,57.5
300,192,72380,2,0,L|344:248,1,57.5
364,112,72551,2,0,P|324:56|92:164,1,345,0|2,0:0|0:0,0:0:0:0:
256,192,73237,5,2,0:0:0:0:
300,176,73323,1,0,0:0:0:0:
344,184,73408,1,0,0:0:0:0:
380,216,73494,1,0,0:0:0:0:
392,260,73580,1,2,0:0:0:0:
376,304,73666,1,0,0:0:0:0:
336,328,73751,1,0,0:0:0:0:
288,328,73837,1,0,0:0:0:0:
252,300,73923,5,2,0:0:0:0:
224,264,74008,1,0,0:0:0:0:
220,220,74094,1,0,0:0:0:0:
196,180,74180,1,0,0:0:0:0:
160,152,74266,1,2,0:0:0:0:
124,124,74351,1,0,0:0:0:0:
116,80,74437,1,0,0:0:0:0:
148,48,74523,1,0,0:0:0:0:
192,40,74608,5,2,0:0:0:0:
236,56,74694,1,0,0:0:0:0:
276,76,74780,1,0,0:0:0:0:
320,84,74866,1,0,0:0:0:0:
364,100,74951,1,2,0:0:0:0:
408,112,75037,1,0,0:0:0:0:
436,148,75123,1,0,0:0:0:0:
424,192,75208,1,0,0:0:0:0:
384,212,75294,6,0,L|352:160,3,57.5,2|0|0|0,0:0|0:0|0:0|0:0,0:0:0:0:
276,256,75637,2,0,L|312:320,3,57.5,2|0|0|0,0:0|0:0|0:0|0:0,0:0:0:0:
236,308,75980,5,2,0:0:0:0:
356,236,76151,1,2,0:0:0:0:
240,160,76323,1,2,0:0:0:0:
280,332,76494,1,2,0:0:0:0:
400,152,76666,1,2,0:0:0:0:
156,124,76837,1,2,0:0:0:0:
276,196,77008,5,0,0:0:0:0:
276,196,77094,1,0,0:0:0:0:
276,196,77180,1,0,0:0:0:0:
276,196,77266,1,0,0:0:0:0:
276,196,77351,6,4,B|336:144|320:48|268:24|204:12|164:76|164:76|104:92|48:40|48:40|116:112|104:156|104:156|80:180|80:180|128:200|128:200|72:224|72:224|124:240|124:240|88:276|88:276|136:332|196:324,1,920
88,140,81294,5,0,0:0:0:0:
364,140,81637,1,0,0:0:0:0:
88,140,81808,1,0,0:0:0:0:
88,140,83523,5,0,0:0:0:0:
360,148,83694,1,0,0:0:0:0:
232,40,83866,5,0,0:0:0:0:
232,68,83951,1,0,0:0:0:0:
232,96,84037,1,0,0:0:0:0:
232,124,84123,1,0,0:0:0:0:
232,152,84208,6,0,P|180:180|200:232,1,115,2|0,0:0|0:0,0:0:0:0:
191,225,84466,1,0,0:0:0:0:
392,248,84637,1,0,0:0:0:0:
328,128,84808,1,0,0:0:0:0:
88,140,85066,5,0,0:0:0:0:
88,140,85237,1,0,0:0:0:0:
88,140,85408,1,0,0:0:0:0:
88,140,85580,2,0,L|68:204,3,57.5,2|0|0|0,0:0|0:0|0:0|0:0,0:0:0:0:
220,188,85923,2,0,L|240:252,3,57.5
424,244,86266,2,0,L|444:180,3,57.5
292,196,86608,2,0,L|272:132,3,57.5
152,172,86951,6,0,L|152:104,1,57.5,2|0,0:0|0:0,0:0:0:0:
304,80,87123,2,0,L|236:80,1,57.5
324,212,87294,2,0,L|324:136,1,57.5
196,264,87466,2,0,L|272:264,1,57.5
155,226,87637,6,0,L|121:167,1,57.5,2|0,0:0|0:0,0:0:0:0:
241,71,87808,2,0,L|182:105,1,57.5
324,175,87980,2,0,L|286:109,1,57.5
240,284,88151,2,0,L|305:246,1,57.5
416,168,88323,1,2,0:0:0:0:
212,104,90723,5,0,0:0:0:0:
216,148,90808,1,0,0:0:0:0:
220,192,90894,1,0,0:0:0:0:
224,236,90980,1,0,0:0:0:0:
228,280,91066,2,0,P|304:280|400:160,1,230,0|8,0:0|0:0,0:0:0:0:
304,72,91580,5,0,0:0:0:0:
304,72,91666,1,0,0:0:0:0:
304,72,91751,1,0,0:0:0:0:
124,112,91923,1,0,0:0:0:0:
296,216,92094,1,8,0:0:0:0:
304,72,92266,6,0,P|364:112|368:284,1,230
248,284,92780,1,8,0:0:0:0:
248,284,92951,1,0,0:0:0:0:
168,168,93123,5,0,0:0:0:0:
168,168,93208,1,0,0:0:0:0:
168,168,93294,1,0,0:0:0:0:
296,216,93466,2,0,P|280:160|304:104,1,115,8|0,0:0|0:0,0:0:0:0:
265,300,93808,6,0,P|209:296|160:324,1,115
120,248,94151,1,8,0:0:0:0:
104,204,94237,1,0,0:0:0:0:
88,160,94323,1,0,0:0:0:0:
296,216,94494,1,0,0:0:0:0:
360,92,94666,1,0,0:0:0:0:
232,144,94837,1,8,0:0:0:0:
144,40,95008,1,0,0:0:0:0:
144,40,95351,5,0,0:0:0:0:
76,104,95523,1,8,0:0:0:0:
152,160,95694,1,0,0:0:0:0:
272,92,95866,1,0,0:0:0:0:
284,136,95951,1,0,0:0:0:0:
296,180,96037,1,0,0:0:0:0:
308,224,96123,1,0,0:0:0:0:
268,248,96208,5,8,0:0:0:0:
228,268,96294,1,0,0:0:0:0:
188,288,96380,1,0,0:0:0:0:
148,308,96466,1,0,0:0:0:0:
108,328,96551,6,0,P|64:264|104:120,1,230,0|8,0:0|0:0,0:0:0:0:
224,188,97066,1,0,0:0:0:0:
224,188,97151,1,0,0:0:0:0:
224,188,97237,2,0,P|280:140|356:140,1,115
300,272,97580,1,8,0:0:0:0:
164,260,97751,6,0,P|128:208|264:112,1,230
312,192,98266,1,8,0:0:0:0:
396,80,98437,5,0,0:0:0:0:
312,192,98608,1,0,0:0:0:0:
276,164,98694,1,0,0:0:0:0:
240,136,98780,1,0,0:0:0:0:
400,164,98951,6,0,P|396:236|340:268,2,115,8|0|0,0:0|0:0|0:0,0:0:0:0:
284,88,99466,1,0,0:0:0:0:
176,176,99637,1,8,0:0:0:0:
196,220,99723,1,0,0:0:0:0:
216,260,99808,1,0,0:0:0:0:
348,300,99980,5,0,0:0:0:0:
440,196,100151,1,0,0:0:0:0:
332,108,100323,1,8,0:0:0:0:
244,212,100494,1,0,0:0:0:0:
244,212,100837,5,0,0:0:0:0:
156,104,101008,1,8,0:0:0:0:
116,236,101180,1,0,0:0:0:0:
224,324,101351,5,0,0:0:0:0:
224,324,101437,1,0,0:0:0:0:
224,324,101523,2,0,L|288:300,1,57.5
244,212,101694,1,8,0:0:0:0:
244,212,101780,1,0,0:0:0:0:
244,212,101866,2,0,L|288:156,1,57.5
212,120,102037,6,0,P|272:88|348:212,1,230,0|8,0:0|0:0,0:0:0:0:
228,248,102551,1,0,0:0:0:0:
228,248,102637,1,0,0:0:0:0:
228,248,102723,1,0,0:0:0:0:
116,168,102894,1,0,0:0:0:0:
160,36,103066,1,8,0:0:0:0:
300,32,103237,2,0,B|352:76|380:136|380:136|356:232,1,230
116,168,103751,5,8,0:0:0:0:
248,132,103923,1,0,0:0:0:0:
208,264,104094,1,0,0:0:0:0:
208,264,104180,1,0,0:0:0:0:
208,264,104266,1,0,0:0:0:0:
248,132,104437,1,8,0:0:0:0:
116,168,104608,1,0,0:0:0:0:
208,264,104780,6,0,P|284:276|324:256,1,115
248,132,105123,1,8,0:0:0:0:
212,104,105208,1,0,0:0:0:0:
176,76,105294,1,0,0:0:0:0:
112,200,105466,1,0,0:0:0:0:
244,244,105637,1,0,0:0:0:0:
368,184,105808,1,8,0:0:0:0:
244,244,105980,1,0,0:0:0:0:
244,244,106323,5,0,0:0:0:0:
192,116,106494,1,8,0:0:0:0:
328,136,106666,1,0,0:0:0:0:
328,136,106837,5,0,0:0:0:0:
328,184,106923,1,0,0:0:0:0:
316,228,107008,1,0,0:0:0:0:
288,264,107094,1,0,0:0:0:0:
244,272,107180,1,8,0:0:0:0:
200,264,107265,1,0,0:0:0:0:
160,236,107351,1,0,0:0:0:0:
152,192,107436,1,0,0:0:0:0:
176,152,107523,6,0,P|240:136|152:72,1,230,0|8,0:0|0:0,0:0:0:0:
60,124,108037,1,0,0:0:0:0:
60,124,108123,1,0,0:0:0:0:
60,124,108208,1,0,0:0:0:0:
68,264,108380,1,0,0:0:0:0:
136,144,108551,6,0,P|124:80|80:44,1,115,8|0,0:0|0:0,0:0:0:0:
212,112,108894,2,0,P|276:120|344:96,1,115
444,40,109237,1,8,0:0:0:0:
460,176,109408,1,0,0:0:0:0:
336,240,109580,1,0,0:0:0:0:
336,240,109666,1,0,0:0:0:0:
336,240,109751,1,0,0:0:0:0:
472,228,109923,5,8,0:0:0:0:
344,180,110094,1,0,0:0:0:0:
408,304,110266,1,0,0:0:0:0:
408,304,110437,1,0,0:0:0:0:
272,292,110608,5,8,0:0:0:0:
272,292,110694,1,0,0:0:0:0:
272,292,110780,1,0,0:0:0:0:
136,312,110951,1,0,0:0:0:0:
200,188,111123,1,0,0:0:0:0:
148,60,111294,1,8,0:0:0:0:
76,180,111466,1,0,0:0:0:0:
200,188,111637,1,0,0:0:0:0:
200,188,112323,6,0,L|248:112,3,57.5
332,176,112666,2,0,L|292:240,3,57.5
260,280,113008,5,6,0:0:0:0:
124,260,113180,1,0,0:0:0:0:
124,260,113266,1,0,0:0:0:0:
76,128,113437,1,0,0:0:0:0:
184,44,113608,2,0,P|228:88|216:156,1,115
164,112,113866,5,0,0:0:0:0:
292,56,114037,1,8,0:0:0:0:
376,164,114208,1,8,0:0:0:0:
376,164,114380,5,6,0:0:0:0:
372,208,114466,1,0,0:0:0:0:
344,244,114551,1,0,0:0:0:0:
300,260,114637,1,0,0:0:0:0:
256,264,114723,1,8,0:0:0:0:
212,252,114808,1,0,0:0:0:0:
172,228,114894,1,0,0:0:0:0:
148,188,114980,1,0,0:0:0:0:
176,152,115066,5,6,0:0:0:0:
220,136,115151,1,0,0:0:0:0:
260,156,115237,1,0,0:0:0:0:
292,192,115323,1,0,0:0:0:0:
300,236,115408,1,8,0:0:0:0:
296,280,115494,1,0,0:0:0:0:
256,304,115580,1,0,0:0:0:0:
212,312,115666,1,0,0:0:0:0:
164,280,115751,5,6,0:0:0:0:
112,256,115837,1,0,0:0:0:0:
88,204,115923,1,0,0:0:0:0:
92,148,116008,1,0,0:0:0:0:
112,96,116094,1,8,0:0:0:0:
152,64,116180,1,0,0:0:0:0:
208,68,116266,1,0,0:0:0:0:
264,56,116351,1,0,0:0:0:0:
320,68,116437,5,6,0:0:0:0:
360,108,116523,1,0,0:0:0:0:
368,164,116608,1,0,0:0:0:0:
320,196,116694,1,0,0:0:0:0:
264,184,116780,1,8,0:0:0:0:
212,160,116866,1,0,0:0:0:0:
160,184,116951,1,0,0:0:0:0:
116,224,117037,1,0,0:0:0:0:
128,280,117123,6,0,P|144:312|144:344,2,57.5,6|0|0,0:0|0:0|0:0,0:0:0:0:
284,264,117466,6,0,P|252:312|256:336,2,57.5,8|0|0,0:0|0:0|0:0,0:0:0:0:
428,168,117808,5,6,0:0:0:0:
428,168,117894,1,0,0:0:0:0:
428,168,117980,1,0,0:0:0:0:
292,176,118151,5,8,0:0:0:0:
292,176,118237,1,0,0:0:0:0:
292,176,118323,1,0,0:0:0:0:
256,44,118494,6,0,P|192:80|184:136,1,115,6|0,0:0|0:0,0:0:0:0:
181,116,118751,1,0,0:0:0:0:
204,252,118923,1,0,0:0:0:0:
336,288,119094,1,0,0:0:0:0:
336,288,119351,5,0,0:0:0:0:
404,168,119523,1,8,0:0:0:0:
320,56,119694,1,8,0:0:0:0:
184,60,119866,6,0,L|116:80,1,57.5,6|0,0:0|0:0,0:0:0:0:
204,152,120037,2,0,L|140:172,1,57.5
328,116,120208,2,0,L|396:136,1,57.5,8|0,0:0|0:0,0:0:0:0:
308,208,120380,2,0,L|372:228,1,57.5
392,260,120551,1,6,0:0:0:0:
408,304,120637,1,0,0:0:0:0:
380,340,120723,1,0,0:0:0:0:
336,356,120808,1,0,0:0:0:0:
292,348,120894,1,8,0:0:0:0:
248,336,120980,1,0,0:0:0:0:
204,328,121066,1,0,0:0:0:0:
160,340,121151,1,0,0:0:0:0:
112,344,121237,6,0,P|92:316|96:280,1,57.5,6|0,0:0|0:0,0:0:0:0:
300,132,121408,2,0,P|320:160|316:196,1,57.5
71,282,121580,6,0,P|68:248|89:219,1,57.5,8|0,0:0|0:0,0:0:0:0:
340,193,121751,2,0,P|343:227|322:256,1,57.5
288,252,121923,1,6,0:0:0:0:
244,240,122008,1,0,0:0:0:0:
212,208,122094,1,0,0:0:0:0:
176,180,122180,1,0,0:0:0:0:
132,176,122266,1,8,0:0:0:0:
92,200,122351,1,0,0:0:0:0:
76,244,122437,1,0,0:0:0:0:
96,284,122523,1,0,0:0:0:0:
140,300,122608,5,6,0:0:0:0:
184,308,122694,1,0,0:0:0:0:
228,316,122780,1,0,0:0:0:0:
340,300,122951,1,8,0:0:0:0:
380,256,123037,1,0,0:0:0:0:
416,212,123123,1,0,0:0:0:0:
344,92,123294,5,6,0:0:0:0:
276,88,123380,1,0,0:0:0:0:
208,84,123466,1,0,0:0:0:0:
96,200,123637,1,8,0:0:0:0:
176,208,123723,1,0,0:0:0:0:
256,216,123808,1,0,0:0:0:0:
356,124,123980,5,6,0:0:0:0:
284,240,124151,1,0,0:0:0:0:
284,240,124237,1,0,0:0:0:0:
420,248,124408,1,0,0:0:0:0:
356,124,124580,2,0,P|272:92|172:140,1,172.5
88,200,125008,1,8,0:0:0:0:
144,328,125180,1,8,0:0:0:0:
272,276,125351,5,6,0:0:0:0:
272,276,125437,1,0,0:0:0:0:
272,276,125523,2,0,L|340:288,1,57.5
252,168,125694,1,8,0:0:0:0:
252,168,125780,1,0,0:0:0:0:
252,168,125866,2,0,L|320:136,1,57.5
176,92,126037,5,6,0:0:0:0:
176,92,126123,1,0,0:0:0:0:
176,92,126208,2,0,L|224:40,1,57.5
56,88,126380,1,8,0:0:0:0:
56,88,126466,1,0,0:0:0:0:
56,88,126551,2,0,L|24:24,1,57.5
60,176,126722,5,2,0:0:0:0:
104,188,126808,1,0,0:0:0:0:
148,196,126893,2,0,L|208:208,1,57.5
160,308,127065,1,8,0:0:0:0:
204,316,127151,1,0,0:0:0:0:
248,324,127236,2,0,L|320:332,1,57.5
384,236,127408,5,2,0:0:0:0:
344,212,127493,1,0,0:0:0:0:
316,176,127579,2,0,P|304:144|304:96,1,57.5
212,268,127751,1,8,0:0:0:0:
172,244,127836,1,0,0:0:0:0:
144,208,127922,2,0,P|132:176|132:128,1,57.5
312,76,128093,6,0,L|372:40,2,57.5,2|0|0,0:0|0:0|0:0,0:0:0:0:
232,120,128437,2,0,L|176:96,1,57.5,8|0,0:0|0:0,0:0:0:0:
136,76,128608,1,0,0:0:0:0:
160,276,128780,5,6,0:0:0:0:
160,276,128866,1,0,0:0:0:0:
160,276,128951,1,0,0:0:0:0:
280,228,129123,2,0,B|344:200,1,57.5,8|0,0:0|0:0,0:0:0:0:
372,184,129294,1,0,0:0:0:0:
292,72,129466,5,6,0:0:0:0:
180,152,129637,1,0,0:0:0:0:
180,152,129723,1,0,0:0:0:0:
308,200,129894,1,0,0:0:0:0:
292,72,130066,1,0,0:0:0:0:
84,56,130323,1,0,0:0:0:0:
88,192,130494,1,8,0:0:0:0:
196,280,130666,1,8,0:0:0:0:
308,200,130837,5,6,0:0:0:0:
352,180,130923,1,0,0:0:0:0:
396,180,131008,1,0,0:0:0:0:
436,204,131094,1,0,0:0:0:0:
448,248,131180,1,8,0:0:0:0:
424,288,131266,1,0,0:0:0:0:
384,308,131351,1,0,0:0:0:0:
340,304,131437,1,0,0:0:0:0:
296,288,131523,6,0,P|256:280|228:280,1,57.5,6|0,0:0|0:0,0:0:0:0:
104,320,131694,1,0,0:0:0:0:
72,288,131780,1,0,0:0:0:0:
68,244,131866,1,8,0:0:0:0:
92,204,131951,1,0,0:0:0:0:
136,188,132037,1,0,0:0:0:0:
172,160,132123,1,0,0:0:0:0:
212,136,132208,6,0,P|244:124|296:144,1,57.5,6|0,0:0|0:0,0:0:0:0:
408,196,132380,1,0,0:0:0:0:
432,236,132466,1,0,0:0:0:0:
428,284,132551,1,8,0:0:0:0:
392,316,132637,1,0,0:0:0:0:
344,316,132723,1,0,0:0:0:0:
308,288,132808,1,0,0:0:0:0:
304,244,132894,6,0,P|312:212|304:176,1,57.5,6|0,0:0|0:0,0:0:0:0:
228,64,133066,1,0,0:0:0:0:
172,84,133151,1,0,0:0:0:0:
148,136,133237,1,8,0:0:0:0:
184,184,133323,1,0,0:0:0:0:
232,212,133408,1,0,0:0:0:0:
244,268,133494,1,0,0:0:0:0:
204,308,133580,6,0,P|128:312|88:288,1,115,6|2,0:0|0:0,0:0:0:0:
68,188,133923,1,8,0:0:0:0:
68,188,134008,1,0,0:0:0:0:
68,188,134094,1,2,0:0:0:0:
148,300,134266,5,2,0:0:0:0:
284,280,134437,1,6,0:0:0:0:
196,172,134608,1,12,0:0:0:0:
196,172,134694,1,0,0:0:0:0:
196,172,134780,1,0,0:0:0:0:
196,172,134866,1,0,0:0:0:0:
256,192,134951,12,4,137694,0:0:0:0:
