osu file format v9

[General]
AudioFilename: Ne-Yo - So Sick (2006).mp3
AudioLeadIn: 0
PreviewTime: 60214
Countdown: 0
SampleSet: Soft
StackLeniency: 0.7
Mode: 0
LetterboxInBreaks: 1

[Editor]
Bookmarks: 9723
DistanceSpacing: 0.9
BeatDivisor: 4
GridSize: 8

[Metadata]
Title:So Sick
Artist:Ne-Yo
Creator:dkun
Version:Insomnia!
Source:
Tags:Nexy

[Difficulty]
HPDrainRate:6
CircleSize:4
OverallDifficulty:6
ApproachRate:7
SliderMultiplier:1.8
SliderTickRate:1

[Events]
//Background and Video events
0,0,"ws_Shooting_star_1024x768.jpg"
//Break Periods
//Storyboard Layer 0 (Background)
//Storyboard Layer 1 (Fail)
//Storyboard Layer 2 (Pass)
//Storyboard Layer 3 (Foreground)
//Storyboard Sound Samples
//Background Colour Transformations
3,100,163,162,255

[TimingPoints]
10320,631.578947368421,4,2,2,40,1,0
60846,-100,4,2,2,40,0,1
78508,-100,4,2,2,40,0,0
101267,-100,4,2,2,40,0,1
118951,-100,4,2,2,40,0,0
141688,-100,4,2,2,40,0,1
179583,-100,4,2,2,40,0,0

[Colours]
Combo1 : 128,0,64
Combo2 : 0,128,0
Combo3 : 0,64,128

[HitObjects]
256,40,10319,1,2
256,144,10793,1,0
256,144,10951,1,8
256,344,11583,1,2
256,240,12056,1,0
256,240,12214,1,8
464,192,12846,5,2
360,192,13319,1,0
360,192,13477,1,8
48,192,14109,1,2
152,192,14583,1,0
152,192,14741,1,8
256,72,15372,6,0,B|256:16,2,45,2|0|0
296,136,15846,2,0,B|336:104,2,45,0|0|0
216,136,16319,2,0,B|176:104,2,45,0|0|0
296,208,16793,2,0,B|336:192,2,45,0|0|0
216,208,17267,2,8,B|176:192,2,45,8|0|0
320,280,17741,2,0,B|368:272,2,45,0|0|0
192,280,18214,2,0,B|144:272,2,45,0|0|0
256,328,18688,2,0,B|256:376,2,45,0|0|0
256,256,19162,1,0
256,224,19320,1,0
256,192,19477,1,0
256,160,19635,1,0
256,128,19793,1,8
336,88,20109,5,0
256,32,20425,1,0
48,192,21056,1,8
256,352,21688,1,0
464,192,22320,1,8
256,40,22951,1,0
208,120,23267,1,0
264,176,23583,2,0,B|312:128,2,45,8|0|0
176,176,24214,2,0,B|128:128,2,45
256,192,24846,1,8
256,280,25162,5,0
176,320,25477,2,0,B|240:368|280:368|344:312,1,180,0|8
408,264,26425,1,0
488,216,26741,2,0,B|488:312,2,90,0|0|8
432,144,27688,1,0
400,64,28004,2,0,B|296:32,1,90
256,112,28635,2,0,B|256:176,2,45,8|0|0
198,37,29267,2,0,B|112:64,1,90
56,128,29898,1,8
120,192,30214,1,0
56,256,30530,5,0
56,256,30688,1,0
56,256,30846,1,0
128,312,31162,1,8
200,264,31477,1,0
256,336,31793,1,0
256,336,31951,1,0
256,336,32109,1,0
312,264,32425,1,8
384,312,32741,1,0
456,256,33056,5,0
392,192,33372,2,0,B|352:144,1,45
440,112,33846,2,0,B|400:64,1,45
320,56,34320,1,0
256,120,34635,1,0
192,56,34951,1,8
112,280,35583,6,0,B|64:184|120:88,1,180,0|8
200,96,36530,1,0
256,168,36846,2,0,B|256:352,1,180,0|8
352,312,37793,1,0
432,264,38109,2,0,B|432:360,2,90,0|0|8
352,224,39056,2,0,B|352:112,1,90
392,56,39688,1,0
352,40,39846,1,0
312,56,40004,1,8
256,344,40635,6,0,B|256:152,1,180,0|8
192,104,41583,2,0,B|176:40,2,45
256,40,42214,1,0
320,104,42530,2,0,B|336:40,2,45,8|0|0
344,192,43162,2,0,B|248:240|152:184,1,180,0|8
88,232,44109,1,0
168,272,44425,2,0,B|264:320|360:264,1,180,0|8
424,232,45372,1,0
408,144,45688,5,0
376,112,45846,1,0
336,88,46004,1,0
256,120,46320,2,0,B|256:232,2,90,8|0|0
176,88,47267,1,0
136,112,47425,1,0
104,144,47583,1,8
104,232,47898,1,0
184,272,48214,6,0,B|184:360,2,90,0|0|8
256,216,49162,1,0
328,272,49477,2,0,B|328:360,2,90,0|0|8
256,216,50425,1,0
208,136,50741,2,0,B|208:80,2,45
304,136,51372,2,0,B|304:80,2,45,8|0|0
384,184,52004,1,0
336,256,52320,1,0
296,280,52477,1,0
256,296,52635,1,8
216,280,52793,1,0
176,256,52951,1,0
128,184,53267,5,0
256,48,53898,1,8
384,184,54214,1,0
256,152,54530,1,0
256,200,54688,1,0
256,248,54846,1,0
256,296,55004,1,0
256,344,55162,1,8
344,328,55477,5,0
416,272,55793,1,0
344,216,56109,1,0
416,160,56425,1,8
416,160,56583,1,0
416,160,56741,1,0
344,104,57056,1,0
304,80,57214,1,0
256,64,57372,1,0
208,80,57530,1,0
168,104,57688,1,8
96,160,58004,1,0
168,216,58320,5,0
208,256,58477,1,0
256,280,58635,1,0
304,256,58793,1,0
344,216,58951,1,8
424,248,59267,1,0
384,328,59583,2,0,B|288:344,1,90
216,344,60214,2,0,B|120:328,1,90,8|0
184,256,60846,6,0,B|184:56,1,180,0|8
256,128,61793,1,0
328,72,62109,2,0,B|328:256,1,180,0|8
400,304,63056,1,0
440,224,63372,2,0,B|488:184,1,45
400,144,63846,2,0,B|352:104,1,45,0|8
328,32,64320,1,0
256,80,64635,2,0,B|200:104,1,45
224,184,65109,2,0,B|280:208,1,45,0|8
352,232,65583,1,0
344,320,65898,6,0,B|248:352|144:312,1,180,0|8
80,288,66846,1,0
144,224,67162,2,0,B|144:112,1,90
216,80,67793,2,0,B|216:184,1,90,8|0
168,264,68425,2,0,B|256:312|360:256,1,180,0|8
424,240,69372,2,0,B|424:336,2,90
408,152,70320,1,8
336,96,70635,1,0
256,48,70951,6,0,B|256:240,1,180,0|8
168,288,71898,2,0,B|264:320|368:280,1,180
432,264,72846,2,0,B|432:352,2,90,8|0|0
376,192,73793,1,0
352,152,73951,1,0
320,120,74109,1,8
256,64,74425,1,0
192,120,74741,1,0
160,152,74898,1,0
136,192,75056,1,0
80,264,75372,1,8
256,264,76004,6,0,B|256:328,2,45,2|0|0
336,216,76635,2,0,B|336:280,2,45
332,128,77267,2,0,B|292:72|208:72|172:136,1,180,0|8
112,184,78214,2,0,B|112:80,2,90
96,272,79162,1,8
176,312,79477,1,0
216,336,79635,1,0
256,344,79793,1,0
296,336,79951,1,0
336,312,80109,1,0
416,272,80425,1,8
480,208,80741,1,0
416,144,81056,6,0,B|416:48,2,90,0|0|8
344,208,82004,2,0,B|256:232,1,90
254,231,82635,2,0,B|168:208,1,90,0|8
72,120,83425,2,0,B|32:152,1,45
64,232,83898,2,0,B|104:264,1,45
104,304,84214,1,8
192,328,84530,1,0
256,248,84846,1,0
320,328,85162,1,0
320,328,85320,1,0
320,328,85477,1,8
408,304,85793,1,0
448,224,86109,6,0,B|448:120|328:120,1,180,0|8
256,64,87056,1,0
182,120,87372,2,0,B|64:120|64:224,1,180,0|8
112,296,88320,2,0,B|216:320,1,90
312,316,88951,2,0,B|400:296,1,90,0|8
480,248,89583,2,0,B|480:304,2,45
408,192,90214,2,0,B|408:136,2,45,0|0|8
328,128,90846,5,0
256,72,91162,1,0
184,128,91477,1,0
168,216,91793,2,0,B|168:328,1,90,8|0
256,360,92425,2,0,B|256:256,1,90
344,216,93056,2,0,B|344:328,1,90,8|0
432,288,93688,2,0,B|432:336,2,45
488,216,94320,1,8
440,136,94635,1,0
376,72,94951,1,0
304,120,95267,1,0
256,40,95583,1,8
208,120,95898,1,0
128,72,96214,6,0,B|40:152|144:240,1,180,0|8
88,304,97162,1,0
176,296,97477,2,0,B|256:368|344:288,1,180,0|8
424,304,98425,2,0,B|424:368,2,45
472,240,99056,1,0
408,192,99372,1,8
472,144,99688,1,0
408,88,100004,2,0,B|488:32,2,90,0|0|8
336,56,100951,1,0
256,48,101267,6,0,B|256:232,1,180,0|8
344,296,102214,2,0,B|256:344|152:288,1,180
96,264,103162,2,0,B|96:344,2,45,8|0|0
56,192,103793,1,0
96,120,104109,1,0
176,104,104425,1,8
256,80,104741,1,0
336,104,105056,1,0
416,120,105372,1,0
456,192,105688,1,8
256,344,106320,6,0,B|256:160,1,180,0|8
176,152,107267,1,0
168,72,107583,2,0,B|256:24|344:72,2,180,0|8|0
96,136,109162,2,0,B|24:72,2,90,0|8|0
184,200,110109,1,0
216,224,110267,1,0
256,240,110425,1,0
296,224,110583,1,0
328,200,110741,1,8
416,136,111056,5,0
344,72,111372,2,0,B|248:24|136:88,1,180,0|8
96,136,112320,1,0
160,192,112635,2,0,B|160:304,1,90
256,304,113267,2,0,B|256:208,1,90,8|0
352,192,113898,2,0,B|352:304,2,90,0|0|8
392,120,114846,5,0
336,56,115162,1,0
256,32,115477,1,0
176,56,115793,1,8
120,120,116109,1,0
80,192,116425,6,0,B|80:304|224:304,1,180,0|8
256,248,117372,1,0
316,302,117688,2,0,B|432:304|432:192,1,180,0|8
352,128,118635,2,0,B|352:32,2,90
256,144,119583,2,0,B|256:264,2,90,8|0|0
160,128,120530,2,0,B|160:32,2,90,0|8|0
256,192,121477,12,0,124004
192,248,124635,6,0,B|192:344,2,90,8|0|0
320,248,125583,2,0,B|320:344,2,90,0|8|0
256,192,126530,12,0,130004
184,128,130635,6,0,B|184:24,1,90,0|8
256,80,131267,1,0
328,40,131583,2,0,B|328:144,1,90
336,216,132214,2,0,B|256:280|152:208,2,180,8|0|8
416,232,133793,2,0,B|440:288,2,45
360,296,134425,1,0
296,352,134741,1,8
216,352,135056,1,0
152,296,135372,1,0
256,40,136004,5,8
256,80,136162,1,0
256,120,136320,1,0
192,208,136635,1,0
216,240,136793,1,0
256,256,136951,1,0
296,240,137109,1,0
320,208,137267,1,8
384,160,137583,2,0,B|440:240,1,90
480,168,138214,2,0,B|424:88,1,90,0|8
352,72,138846,5,0
352,72,139004,1,0
352,72,139162,1,0
256,48,139477,1,0
256,48,139635,1,0
256,48,139793,1,8
160,72,140109,1,0
160,72,140267,1,0
160,72,140425,1,0
256,136,140741,2,0,B|256:320,1,180
168,272,141688,5,0
208,344,142004,1,0
304,344,142320,1,8
344,272,142635,1,0
256,248,142951,2,0,B|256:48,1,180,0|8
336,56,143898,1,0
416,72,144214,2,0,B|416:256,1,180,0|8
336,224,145162,1,0
352,304,145477,2,0,B|168:304,1,180,0|8
152,224,146425,1,0
72,192,146741,6,0,B|72:304,2,90,0|0|8
112,120,147688,1,0
176,72,148004,1,0
256,64,148320,1,0
336,72,148635,1,8
400,120,148951,1,0
432,192,149267,2,0,B|520:120,2,90,0|0|8
352,192,150214,2,0,B|264:120,2,90
392,264,151162,1,8
328,312,151477,1,0
256,344,151793,6,0,B|256:152,1,180,0|8
176,152,152741,2,0,B|176:48,1,90
256,40,153372,2,0,B|256:128,1,90,0|8
336,152,154004,2,0,B|336:48,2,90
328,232,154951,2,0,B|280:296,1,45,8|0
211,268,155425,2,0,B|184:232,1,45
112,192,155898,1,0
112,192,156056,1,0
112,192,156214,1,8
256,40,156846,6,0,B|256:144,1,90
256,208,157477,2,0,B|176:272,1,90,8|0
256,208,158109,2,0,B|336:272,1,90
392,312,158741,1,8
392,312,158898,1,0
392,312,159056,1,0
256,192,159372,12,0,161583
256,336,161898,6,0,B|256:152,1,180,0|8
168,88,162846,2,0,B|256:40|360:96,1,180
416,120,163793,2,0,B|416:40,2,45,8|0|0
456,192,164425,1,0
416,264,164741,1,0
336,280,165056,1,8
256,304,165372,1,0
176,280,165688,1,0
96,264,166004,1,0
56,192,166320,1,8
256,40,166951,6,0,B|256:224,1,180,0|8
336,232,167898,1,0
344,312,168214,2,0,B|256:360|168:312,2,180,0|8|0
416,248,169793,2,0,B|488:312,2,90,0|8|0
328,184,170741,1,0
296,160,170898,1,0
256,144,171056,1,0
216,160,171214,1,0
184,184,171372,1,8
96,248,171688,5,0
168,312,172004,2,0,B|264:360|376:296,1,180,0|8
416,248,172951,1,0
352,192,173267,2,0,B|352:80,1,90
256,80,173898,2,0,B|256:176,1,90,8|0
160,192,174530,2,0,B|160:80,2,90,0|0|8
120,264,175477,5,0
176,328,175793,1,0
256,352,176109,1,0
336,328,176425,1,8
392,264,176741,1,0
432,192,177056,6,0,B|432:80|288:80,1,180,0|8
256,136,178004,1,0
196,82,178320,2,0,B|80:80|80:192,1,180,0|8
160,256,179267,2,0,B|160:352,2,90
256,240,180214,2,0,B|256:120,2,90,8|0|0
352,256,181162,2,0,B|352:352,2,90
328,128,182109,6,0,B|328:328,1,180,0|8
256,256,183056,1,0
184,312,183372,2,0,B|184:128,1,180,0|8
112,80,184320,1,0
72,160,184635,2,0,B|24:200,1,45
112,240,185109,2,0,B|160:280,1,45,0|8
184,352,185583,1,0
256,304,185898,2,0,B|312:280,1,45
288,200,186372,2,0,B|232:176,1,45,0|8
160,152,186846,1,0
168,64,187162,6,0,B|264:32|368:72,1,180,0|8
432,96,188109,1,0
368,160,188425,2,0,B|368:272,1,90
296,304,189056,2,0,B|296:200,1,90,8|0
344,120,189688,2,0,B|256:72|152:128,1,180,0|8
88,144,190635,2,0,B|88:48,2,90
104,232,191583,1,8
176,288,191898,1,0
256,336,192214,6,0,B|256:144,1,180,0|8
344,96,193162,2,0,B|248:64|144:104,1,180
80,120,194109,2,0,B|80:32,2,90,8|0|0
136,192,195056,1,0
160,232,195214,1,0
192,264,195372,1,8
256,320,195688,1,0
320,264,196004,1,0
352,232,196162,1,0
376,192,196320,1,0
432,120,196635,1,8
256,120,197267,6,0,B|256:56,2,45
176,168,197898,2,0,B|176:104,2,45
180,256,198530,2,0,B|220:312|304:312|340:248,1,180,0|8
392,200,199477,1,0
256,192,199793,12,0,204846
