osu file format v7

[General]
AudioFilename: Ne-Yo - Miss Independent.mp3
AudioLeadIn: 0
PreviewTime: 67076
Countdown: 1
SampleSet: Normal
StackLeniency: 0.7
Mode: 0
LetterboxInBreaks: 1

[Editor]
Bookmarks: 22425,89402,100565
DistanceSpacing: 1
BeatDivisor: 4
GridSize: 8

[Metadata]
Title:Miss Independent
Artist:Ne-Yo
Creator:lesjuh
Version:Hard
Source:
Tags:

[Difficulty]
HPDrainRate:7
CircleSize:4
OverallDifficulty:7
SliderMultiplier:1.6
SliderTickRate:2

[Events]
//Background and Video events
0,0,"Background.PNG"
//Break Periods
2,89602,99665
//Storyboard Layer 0 (Background)
//Storyboard Layer 1 (Fail)
//Storyboard Layer 2 (Pass)
//Storyboard Layer 3 (Foreground)
//Storyboard Sound Samples
//Background Colour Transformations
3,100,0,0,0

[TimingPoints]
100,348.837209302326,4,1,0,30,1,0
67076,-100,4,1,0,40,0,1
89402,-100,4,1,0,40,0,0
100390,-100,4,1,0,20,0,0
111640,-100,4,1,0,40,0,0
145216,-100,4,1,0,40,0,1
167541,-100,4,1,0,40,0,0

[Colours]
Combo1 : 255,255,255
Combo2 : 130,130,220

[HitObjects]
56,176,22425,2,2,B|64:264|120:328,1,160,4|2
192,352,22948,2,0,B|232:344|272:320,1,80,8|0
264,240,23297,1,2
344,240,23472,2,0,B|376:216|424:208,1,80,8|2
448,136,23820,6,2,B|400:72|320:32,1,160,4|2
272,96,24344,1,8
208,144,24518,1,0
128,120,24693,1,2
64,72,24867,2,0,B|40:112|32:152,1,80,8|2
96,192,25216,6,2,B|104:240|120:272,1,80,4|2
184,312,25565,1,0
256,272,25739,2,0,B|304:264|336:264,1,80,10|0
335,264,26088,1,2
408,296,26262,2,2,B|440:216|504:160,1,160,8|6
400,40,26960,5,0
400,40,27134,1,8
336,88,27309,2,0,B|288:72|248:72,2,80,0|0|8
360,168,27832,1,0
312,232,28006,6,2,B|232:248|144:232,1,160,4|2
104,168,28530,1,8
48,224,28704,2,0,B|32:272|32:304,2,80,2|0|10
104,168,29227,2,0,B|120:120|120:88,1,80,2|4
184,40,29576,1,0
184,40,29751,1,0
224,112,29925,1,10
304,128,30100,6,0,B|344:104|384:96,1,80,0|2
456,128,30448,1,8
472,208,30623,2,2,B|416:264|328:288,1,160,2|2
176,264,31320,5,8
176,264,31495,1,0
120,208,31669,2,0,B|127:171|144:128,2,80,0|8|0
40,232,32193,2,0,B|48:152|24:72,1,160,4|0
88,24,32716,1,8
248,56,33065,2,0,B|288:32|344:24,1,80,2|8
320,184,33588,6,2,B|400:200|472:240,1,160,4|2
504,312,34111,1,8
440,360,34286,2,0,B|400:376|352:384,1,80,0|2
296,336,34634,1,8
248,272,34809,2,2,B|168:248|88:256,1,160,2|0
32,200,35332,5,2
32,200,35506,1,8
48,120,35681,2,2,B|80:96|120:80,1,80,0|2
192,104,36030,1,8
232,40,36204,2,2,B|304:8|392:8,1,160,2|2
456,56,36727,1,0
432,136,36902,5,10
488,288,37251,1,2
328,256,37600,1,2
272,312,37774,6,2,B|216:304|192:304,1,80,4|0
128,360,38123,1,0
112,280,38297,1,8
32,144,38646,1,0
16,224,38820,1,8
96,200,38995,5,2
176,56,39344,1,0
176,56,39518,1,2
240,104,39693,2,0,B|280:96|320:80,1,80,8|2
392,64,40041,2,0,B|432:72|472:88,1,80,0|10
496,160,40390,2,2,B|448:224|368:264,1,160,2|0
304,224,40913,5,0
304,224,41088,1,8
232,264,41262,2,0,B|208:304|200:344,1,80,0|2
136,296,41611,2,0,B|129:262|105:222,1,80,8|2
56,56,42134,6,2,B|200:0|208:176|360:112,1,320,2|0
416,64,43006,1,8
480,208,43355,5,4
456,288,43530,1,0
384,320,43704,1,0
312,288,43879,2,0,B|264:288|224:304,1,80,8|0
176,352,44227,1,0
176,352,44402,1,10
104,320,44576,5,2
48,168,44925,2,2,B|128:160|208:192,1,160,2|8
280,160,45448,2,2,B|368:168|440:136,1,160,2|8
496,192,45972,1,2
416,32,46320,5,2
336,16,46495,1,0
264,56,46669,2,0,B|224:72|184:80,1,80,8|2
104,88,47018,1,0
104,88,47193,1,8
144,160,47367,5,2
72,304,47716,1,2
216,368,48065,1,10
280,224,48413,5,2
280,224,48588,1,8
360,208,48762,1,0
424,256,48937,2,0,B|464:248|504:224,1,80,6|0
512,152,49286,1,2
448,104,49460,2,0,B|408:112|368:136,1,80,8|2
296,104,49809,1,0
272,32,49983,1,8
120,88,50332,6,0,B|104:168|56:240,1,160,4|0
104,304,50855,1,8
256,344,51204,6,0,B|296:328|336:336,1,80,2|8
392,280,51553,2,0,B|432:296|472:288,2,80,2|4|2
344,216,52076,1,0
344,216,52251,2,0,B|336:168|344:128,1,80,10|0
272,96,52600,2,0,B|278:127|270:175,1,80,2|8
224,240,52948,1,2
224,240,53123,2,0,B|152:272|64:280,1,160,4|0
8,232,53646,1,8
112,112,53995,2,0,B|88:80|56:48,1,80,0|8
192,144,54518,5,4
272,136,54693,1,0
336,88,54867,1,0
408,128,55041,2,0,B|400:176|408:216,1,80,8|0
472,256,55390,1,0
472,256,55565,1,10
440,328,55739,6,0,B|368:352|280:360,1,160,6|2
224,304,56262,1,0
152,272,56437,2,0,B|112:280|72:296,1,80,8|2
8,256,56786,1,0
8,256,56960,1,8
24,176,57134,6,2,B|56:104|120:48,1,160,0|2
184,96,57658,1,0
264,112,57832,2,0,B|304:96|336:72,1,80,8|2
408,96,58181,1,0
408,96,58355,1,8
464,160,58530,5,2
408,312,58879,1,2
336,352,59053,1,0
296,280,59227,1,8
232,232,59402,2,0,B|192:240|152:256,2,80,2|0|10
264,160,59925,1,0
328,112,60100,6,0,B|368:104|408:88,1,80,6|0
352,24,60448,1,2
272,16,60623,2,0,B|232:24|192:40,1,80,8|2
56,120,61146,1,8
112,272,61495,6,0,B|256:224|264:392|416:328,1,320,4|2
472,280,62367,1,0
472,280,62541,1,8
416,224,62716,6,0,B|432:136|472:64,1,160,6|0
408,24,63239,1,0
360,88,63413,2,0,B|320:104|280:112,1,80,10|0
208,80,63762,2,0,B|171:87|131:103,1,80,2|8
80,168,64111,1,2
128,232,64286,6,0,B|200:264|288:280,1,160,4|0
360,264,64809,1,8
248,152,65158,1,0
248,152,65332,1,8
456,72,65681,5,4
456,72,65855,1,0
432,152,66030,1,2
480,216,66204,2,0,B|488:256|480:304,1,80,8|2
416,344,66553,1,0
344,304,66727,2,0,B|304:296|256:304,1,80,10|0
152,344,67076,6,0,B|88:296|40:224,1,160,6|2
64,152,67600,1,8
64,152,67774,1,0
128,104,67948,2,0,B|152:64|160:24,2,80,2|8|0
168,176,68472,6,4,B|248:160|336:176,1,160,6|2
400,208,68995,2,0,B|440:200|480:184,1,80,8|2
424,120,69344,2,0,B|464:96|488:64,1,80,0|10
432,8,69693,1,0
368,56,69867,6,4,B|288:72|200:56,1,160,6|0
128,48,70390,2,0,B|80:72|48:104,1,80,10|0
24,160,70739,1,2
24,160,70913,1,8
80,216,71088,1,0
152,192,71262,6,0,B|192:264|216:344,1,160,6|2
288,304,71786,2,0,B|312:272|328:232,1,80,8|2
400,256,72134,2,0,B|424:288|440:328,1,80,0|10
439,325,72483,1,0
384,176,72658,6,4,B|424:104|488:40,1,160,6|2
416,0,73181,1,8
416,0,73355,1,0
344,40,73530,2,0,B|304:48|256:40,1,80,2|8
200,96,73879,1,0
120,72,74053,6,2,B|64:128|32:208,1,160,6|0
88,264,74576,2,0,B|112:296|128:336,1,80,10|0
200,360,74925,1,2
200,360,75100,1,8
456,192,75448,6,2,B|440:112|408:32,1,160,6|0
320,120,75972,2,2,B|336:200|368:280,1,160,10|2
480,352,76669,1,2
480,352,76844,6,4,B|392:336|312:344,1,160,4|2
240,320,77367,1,8
184,264,77541,2,0,B|152:232|120:208,1,80,2|0
184,160,77890,2,0,B|176:120|152:80,1,80,10|0
0,96,78239,6,2,B|16:184|56:248,1,160,6|2
112,296,78762,1,8
112,296,78937,1,0
184,264,79111,2,0,B|224:264|272:272,1,80,2|8
336,232,79460,1,0
352,312,79634,6,0,B|440:304|512:272,1,160,6|2
480,200,80158,2,0,B|488:160|504:120,1,80,8|2
424,104,80506,2,0,B|416:56|400:16,1,80,0|10
328,16,80855,1,0
272,80,81030,6,0,B|184:88|112:120,1,160,6|2
80,192,81553,1,8
64,272,81727,2,0,B|72:320|64:360,2,80,0|2|8
80,192,82251,1,0
144,240,82425,6,0,B|232:232|304:200,1,160,6|2
368,160,82948,1,8
440,184,83123,2,0,B|440:232|432:272,1,80,2|0
352,280,83472,2,0,B|336:320|312:360,1,80,10|0
144,312,83820,6,0,B|176:232|232:176,1,160,6|2
288,120,84344,1,8
288,120,84518,1,0
360,88,84693,2,0,B|408:96|448:88,2,80,2|8|0
296,40,85216,6,2,B|208:24|136:48,1,160,4|2
80,104,85739,2,0,B|96:152|104:192,1,80,10|0
56,248,86088,2,0,B|64:288|80:336,1,80,2|8
152,360,86437,6,2,B|256:376|272:280|384:296,1,240,6|0
448,336,87134,1,8
448,336,87309,1,0
456,256,87483,2,0,B|480:208|488:168,1,80,2|8
448,112,87832,1,2
368,96,88006,6,2,B|248:112|160:216,2,240,6|2|2
320,248,89402,1,6
88,64,100565,6,2,B|96:184|40:304,2,240,6|2|2
192,184,101960,2,2,B|200:272|216:344,1,160,4|2
288,368,102483,1,0
288,368,102658,2,2,B|368:280|504:256,1,240,0|2
424,88,103530,6,0,B|456:56|488:32,2,80,2|0|0
384,160,104053,2,0,B|352:192|320:216,1,80,2|0
168,256,104576,1,0
168,256,104751,2,2,B|136:176|96:112,1,160,6|2
96,113,105274,1,2
264,48,105623,5,2
264,48,105797,1,0
240,128,105972,1,0
288,192,106146,2,0,B|296:248|296:288,1,80,6|0
295,271,106495,1,0
248,336,106669,2,0,B|160:320|80:328,2,160,2|2|2
408,360,107890,5,0
472,312,108065,1,2
472,312,108239,1,0
456,232,108413,2,0,B|456:184|464:152,1,80,2|0
512,88,108762,1,2
360,40,109111,6,2,B|216:-16|208:160|56:96,1,320,2|0
63,99,109983,1,0
32,256,110332,5,4
112,240,110506,2,0,B|160:264|192:288,1,80
216,352,110855,1,8
216,352,111030,1,2
288,376,111204,2,0,B|336:352|368:328,1,80,0|10
357,335,111553,1,2
400,264,111727,6,2,B|424:192|432:104,1,160,4|0
384,40,112251,2,0,B|336:24|296:16,1,80,10|0
240,64,112600,1,2
160,40,112774,1,8
88,72,112948,6,2,B|48:144|40:232,1,160,2|0
32,304,113472,1,2
96,352,113646,1,8
168,320,113820,2,0,B|216:328|256:344,2,80,0|2|8
120,256,114344,1,0
120,256,114518,6,6,B|176:192|248:152,1,160,6|0
320,128,115041,1,10
384,176,115216,2,0,B|432:200|472:208,1,80,0|2
458,204,115565,1,8
496,280,115739,6,2,B|432:328|352:360,1,160,2|0
288,304,116262,1,0
208,296,116437,2,0,B|168:296|128:312,1,80,8|0
56,280,116786,1,2
16,208,116960,1,8
32,128,117134,1,0
96,80,117309,6,0,B|136:64|176:56,1,80,6|0
240,96,117658,1,0
240,96,117832,2,0,B|312:56|392:40,1,160,10|2
456,80,118355,1,8
456,80,118530,1,2
496,152,118704,6,0,B|504:208|504:240,2,80,6|0|0
416,152,119227,1,10
360,208,119402,1,0
280,184,119576,2,0,B|232:176|192:184,1,80,2|8
120,208,119925,1,2
40,336,120274,6,2,B|168:304|240:376|360:344,1,320,2|0
356,344,121146,1,8
464,232,121495,6,0,B|480:192|488:152,2,80,4|0|0
392,264,122018,1,8
392,264,122193,1,0
336,208,122367,1,0
360,136,122541,1,2
304,80,122716,6,2,B|224:56|136:64,1,160,0|2
80,104,123239,1,0
112,176,123413,2,0,B|152:192|192:200,1,80,8|2
256,248,123762,1,0
256,248,123937,1,8
288,320,124111,6,2,B|360:288|448:280,2,160,2|2|8
216,352,124983,2,0,B|168:368|128:368,1,80,2|0
64,344,125332,1,8
16,280,125506,6,2,B|48:208|32:120,1,160,2|2
88,64,126030,1,0
160,104,126204,2,0,B|200:112|240:128,1,80,10|0
304,88,126553,1,2
304,88,126727,1,8
368,128,126902,1,0
424,72,127076,6,0,B|464:64|504:48,2,80,6|0|2
368,128,127600,2,0,B|360:192|360:224,1,80,8|2
408,272,127948,1,0
408,272,128123,1,8
272,352,128472,6,0,B|208:304|128:272,1,160,4|0
64,304,128995,1,8
24,152,129344,6,0,B|72:136|104:128,1,80,2|8
176,160,129693,2,2,B|248:120|296:48,1,160,2|0
292,52,130216,1,0
368,24,130390,2,0,B|396:31|444:47,1,80,10|0
480,120,130739,1,2
480,120,130913,1,8
432,184,131088,1,2
360,152,131262,6,0,B|352:232|368:320,1,160,4|0
366,311,131786,1,8
208,328,132134,2,0,B|256:344|288:360,1,80,0|8
120,368,132658,5,4
56,320,132832,1,0
56,320,133006,1,0
96,248,133181,2,0,B|104:208|104:160,1,80,8|0
72,96,133530,1,0
72,96,133704,1,10
128,40,133879,6,2,B|208:48|296:32,1,160,6|2
287,33,134402,1,0
352,80,134576,2,0,B|392:64|432:64,1,80,8|2
488,120,134925,1,0
488,120,135100,1,8
480,200,135274,2,2,B|408:240|320:248,1,160,2|2
264,200,135797,1,0
184,216,135972,2,0,B|168:264|160:304,1,80,8|2
88,320,136320,1,0
88,320,136495,1,8
40,256,136669,6,2,B|72:184|80:96,2,160,2|2|10
88,320,137541,1,0
160,288,137716,2,0,B|200:296|240:312,1,80,2|8
312,280,138065,1,0
368,336,138239,6,0,B|408:328|448:312,2,80,6|0|2
312,280,138762,1,8
328,200,138937,1,2
328,200,139111,1,0
272,144,139286,1,8
152,40,139634,6,0,B|200:184|32:192|96:344,1,320,4|2
168,376,140506,1,0
168,376,140680,1,8
216,312,140855,6,0,B|296:296|384:304,1,160,6|0
424,240,141378,1,0
392,168,141552,2,0,B|400:128|416:88,1,80,10|0
352,40,141902,2,0,B|344:80|328:120,1,80,2|8
264,160,142250,1,2
184,144,142425,6,0,B|112:112|24:96,1,160,4|0
31,97,142948,1,8
64,256,143297,1,0
64,256,143471,1,8
208,320,143820,5,4
208,320,143994,1,0
288,296,144169,1,2
352,344,144343,2,0,B|392:352|440:344,1,80,8|2
480,280,144692,1,0
440,208,144866,2,0,B|432:168|440:120,1,80,10|0
328,48,145216,6,0,B|248:56|168:96,1,160,6|2
144,168,145740,1,8
144,168,145914,1,0
88,224,146088,2,0,B|48:248|8:256,2,80,2|8|0
144,168,146612,6,4,B|224:176|296:232,1,160,6|2
344,288,147135,2,0,B|384:280|424:264,1,80,8|2
416,184,147484,2,0,B|456:160|480:128,1,80,0|10
456,56,147833,1,0
376,32,148007,6,4,B|304:72|264:152,1,160,6|0
192,168,148530,2,0,B|144:144|112:112,1,80,10|0
48,120,148879,1,2
48,120,149053,1,8
16,192,149228,1,0
48,264,149402,6,0,B|128:280|184:352,1,160,6|2
256,368,149926,2,0,B|280:336|296:296,1,80,8|2
272,224,150274,2,0,B|287:186|311:154,1,80,0|10
310,154,150623,1,0
456,160,150798,6,4,B|472:240|456:328,1,160,6|2
392,360,151321,1,8
392,360,151495,1,0
320,320,151670,2,0,B|280:312|232:320,1,80,2|8
176,360,152019,1,0
112,320,152193,6,2,B|80:248|16:192,1,160,6|0
32,112,152716,2,0,B|56:72|88:48,1,80,10|0
160,40,153065,1,2
160,40,153240,1,8
376,128,153588,6,2,B|360:208|328:288,1,160,6|0
240,200,154112,2,2,B|256:120|288:40,1,160,10|2
488,72,154809,1,2
488,72,154984,6,4,B|504:160|496:240,1,160,4|2
448,296,155507,1,8
368,320,155681,2,0,B|328:312|288:296,1,80,2|0
224,256,156030,2,0,B|184:264|144:280,1,80,10|0
32,200,156379,6,6,B|16:112|24:32,1,160,6|2
96,0,156902,1,8
96,0,157077,1,0
152,56,157251,2,0,B|192:56|240:48,1,80,2|8
304,88,157600,1,0
288,168,157774,6,0,B|304:248|344:320,1,160,6|2
416,344,158298,2,0,B|424:304|448:264,1,80,8|2
504,216,158646,2,0,B|496:176|472:136,1,80,0|10
475,141,158995,1,0
504,64,159170,6,0,B|440:24|352:8,1,160,6|2
288,56,159693,1,8
224,104,159867,2,0,B|176:112|136:104,2,80,0|2|8
288,56,160391,1,0
336,120,160565,6,0,B|368:200|376:280,1,160,6|2
328,336,161088,1,8
256,304,161263,2,0,B|208:304|168:312,1,80,2|0
112,264,161611,2,0,B|64:264|24:256,1,80,10|0
8,120,161960,6,0,B|96:104|168:136,1,160,6|2
240,112,162484,1,8
240,112,162658,1,0
312,152,162833,2,0,B|360:160|400:152,2,80,2|8|0
312,72,163356,6,2,B|392:56|480:80,1,160,4|2
512,144,163879,2,0,B|504:192|488:232,1,80,10|0
424,264,164227,2,0,B|376:256|336:240,1,80,2|8
272,216,164577,6,2,B|168:200|152:296|40:280,1,240,6|0
0,216,165274,1,8
0,216,165449,1,0
8,136,165623,2,0,B|40:112|80:96,1,80,2|8
160,96,165972,1,2
224,144,166146,6,10,B|368:152|424:32,2,240,6|10|10
256,304,167542,1,6
