osu file format v5

[General]
AudioFilename: Miss Independent.mp3
AudioLeadIn: 232
PreviewTime: -1
Countdown: 1
SampleSet: Normal
StackLeniency: 0.7
Mode: 0
LetterboxInBreaks: 1
EditorBookmarks: 22740,44539,55700,67385,78546,100869,111857,123018,133831,156677,167838,179000,190161,200276,206904,218065,223646

[Metadata]
Title:Miss Independent
Artist:Ne-Yo
Creator:YoshiKart
Version:Normal
Source:
Tags:

[Difficulty]
HPDrainRate:4
CircleSize:4
OverallDifficulty:5
SliderMultiplier:1
SliderTickRate:1

[Events]
//Background and Video events
0,0,"neyo-miss-independent-single-cover-0.jpg"
//Break Periods
2,33752,43639
2,61307,66485
2,89908,99969
2,122171,132931
2,156544,166656
2,190361,199376
//Storyboard Layer 0 (Background)
//Storyboard Layer 1 (Failing)
//Storyboard Layer 2 (Passing)
//Storyboard Layer 3 (Foreground)
//Storyboard Sound Samples
//Background Colour Transformations
3,100,172,89,255

[TimingPoints]
11578,348.836651552145,4,1,0,100,1,0
139601,-100,4,2,1,100,0,0
140298,-100,4,1,0,100,0,0
189483,-100,4,2,1,0,0,0
189658,-100,4,2,1,0,0,0
190181,-100,4,1,0,100,0,0
223646,-100,4,2,0,40,0,0

[Colours]
Combo1 : 213,143,0
Combo2 : 0,128,0
Combo3 : 0,0,160
Combo4 : 183,0,0

[HitObjects]
48,96,22740,1,0
144,96,23089,1,0
240,96,23438,2,2,B|400:96,1,150
392,240,24484,1,0
296,240,24833,2,2,B|216:192|168:240|136:256,1,150
64,240,25705,1,0
64,336,26054,1,2
160,336,26403,1,0
256,336,26752,1,4
448,192,28322,5,0
352,192,28670,1,0
256,192,29019,2,2,B|208:160|128:224|96:192,1,150
304,272,30240,1,2
304,272,30415,1,0
208,272,30764,1,0
208,272,30938,1,0
304,272,31287,2,8,B|332:188|404:155|440:109|426:47|381:29|353:45|340:69|319:82|316:100|316:100|301:53|273:39|229:48|211:46|196:113|231:166|300:269,1,650
128,192,44543,6,0,B|128:256|160:288|176:288,1,100
208,192,45240,1,0
304,192,45589,1,2
304,192,45763,1,2
128,192,46287,2,0,B|128:144|208:144,1,100
304,192,46984,1,2
304,192,47159,1,2
256,336,47682,5,0
256,240,48031,1,0
256,144,48380,1,0
232,48,48729,2,2,B|296:48,5,50
256,144,49950,1,4
304,336,51519,6,0,B|256:352|192:336,5,100,0|0|0|0|0|8
384,192,55705,6,0,B|384:128|352:96|336:96,1,100
304,192,56402,1,0
208,192,56751,1,2
208,192,56925,1,2
384,192,57449,2,0,B|384:240|304:240,1,100
208,192,58146,1,2
208,192,58321,1,2
256,48,58844,5,0
256,144,59193,1,0
256,192,59368,1,0
280,288,59717,2,2,B|216:288,6,50
256,192,61112,1,4
64,320,67391,6,4,B|64:224|160:224|160:192,1,150
480,320,69136,5,0
384,288,69484,1,0
288,256,69833,1,0
288,160,70182,2,2,B|192:160|192:224|192:208|192:208,1,100
192,240,70705,2,2,B|112:240|64:160,1,150,2|6
256,80,71926,5,0
336,144,72275,1,0
416,208,72624,1,8
416,304,72973,2,0,B|352:272|352:336|304:304,1,100
271,312,73496,2,0,B|113:314,1,150
128,224,74368,1,0
224,224,74717,1,0
224,224,74891,1,0
320,224,75240,1,0
320,80,75763,6,2,B|208:80,1,100
176,80,76287,2,2,B|176:192,1,100
176,272,76984,1,6
320,272,77508,5,8
320,176,77856,1,8
320,80,78205,1,8
448,64,78554,6,4,B|448:160|352:160|352:192,1,150
32,64,80299,5,0
128,96,80647,1,0
224,128,80996,1,0
224,224,81345,2,2,B|320:224|320:160|320:176|320:176,1,100
320,144,81868,2,2,B|400:144|448:224,1,150
256,304,83089,5,0
176,240,83438,1,0
96,176,83787,1,8
96,80,84136,2,0,B|160:112|160:48|208:80,1,100
241,72,84659,2,0,B|399:70,1,150
384,160,85531,1,0
288,160,85880,1,0
288,160,86054,1,0
192,160,86403,1,0
96,160,86752,1,0
368,288,87798,5,0
272,288,88147,2,2,B|192:288|192:256|208:240|256:272|144:288,1,150,0|4
96,288,88845,1,8
96,192,89194,1,12
448,192,100880,5,0
352,192,101229,1,0
256,192,101577,1,0
256,192,101752,1,0
256,192,101926,1,0
256,192,102101,1,2
112,192,102624,2,0,B|48:192,2,50
112,288,103322,2,0,B|160:240,1,50
224,192,103845,2,0,B|176:144,1,50
112,80,104368,1,0
160,80,104542,2,2,B|272:80,1,100,8|4
432,80,105938,6,8,B|368:160,1,100
336,208,106461,2,8,B|272:304,1,100
224,288,106984,1,8
128,288,107333,1,0
32,288,107682,1,0
128,112,108380,1,0
176,112,108554,1,0
272,112,108903,1,0
320,112,109077,1,0
416,112,109426,2,8,B|368:320|272:336|176:336,1,350
48,192,111345,5,0
144,192,111694,1,0
192,192,111868,1,0
288,192,112217,1,0
384,192,112566,1,0
480,192,112915,2,2,B|416:192,2,50
480,336,113787,5,8
432,336,113961,1,0
384,336,114135,1,8
288,336,114484,1,8
240,336,114659,1,0
192,336,114833,1,8
96,336,115182,1,0
48,336,115356,1,8
48,240,115705,1,0
48,144,116054,2,0,B|256:96|416:144,1,350
400,240,117624,5,2
256,240,118147,1,2
48,240,118845,1,10
256,288,119542,5,0
256,288,119717,1,0
256,288,119891,1,0
256,288,120066,1,0
256,288,120240,1,0
256,192,120589,1,8
240,96,120938,5,0
240,96,121112,1,0
240,96,121287,1,0
240,96,121461,1,0
240,96,121635,2,0,B|256:128|256:144|256:208,1,100,0|12
160,80,133845,5,0
208,80,134019,1,0
208,128,134194,2,2,B|96:128,2,100
256,128,135066,1,4
400,128,135589,2,2,B|512:128,2,100
352,128,136461,1,4
208,128,136984,6,0,B|144:128|112:192,1,100
112,272,137682,1,2
208,272,138031,1,0
256,272,138205,1,8
304,272,138380,1,0
352,272,138554,1,8
400,272,138728,1,0
448,272,138903,1,8
448,176,139252,1,4
352,176,139601,5,2
256,176,139949,1,4
48,160,140646,6,2,B|112:112|128:192|144:176,1,100
176,208,141170,2,2,B|240:256|288:176|304:160,1,150
336,128,141867,2,2,B|384:80|432:144,1,100
432,224,142565,2,0,B|64:224,1,350
82,224,144135,1,8
80,128,144484,5,2
80,128,144832,1,2
80,128,145181,1,2
176,128,145531,5,0
272,128,145880,1,0
368,128,146228,2,2,B|432:128,1,50
464,272,146925,5,0
368,272,147274,1,0
272,272,147622,2,2,B|208:272,1,50
96,192,148321,5,0
192,192,148670,1,0
288,192,149018,2,2,B|352:192,1,50
432,64,149716,5,0
336,64,150065,1,0
240,64,150414,1,2
240,64,150588,1,2
112,192,151635,5,8
112,336,152158,1,8
368,336,153030,1,8
368,192,153553,1,8
112,192,154425,1,8
112,48,154949,1,8
368,48,155821,1,8
368,192,156344,1,8
32,176,167856,6,0,B|80:128|144:128|176:176|176:176|208:96|288:48|320:176|320:176|352:64|464:96|464:176,1,600
416,256,170298,1,0
320,304,170646,2,0,B|160:304,1,150
192,208,171519,1,2
288,208,171868,1,2
288,304,172216,2,0,B|352:304,1,50
432,304,172740,1,2
384,208,173089,1,2
480,176,173438,6,0,B|432:128|368:128|336:176|336:176|304:96|224:48|192:176|192:176|160:64|48:96|48:176,1,600
96,256,175880,1,0
192,304,176228,1,2
192,208,176577,1,2
192,208,176752,1,2
96,256,177100,1,2
192,304,177449,2,2,B|256:304,1,50
192,208,177973,1,2
96,256,178321,1,2
192,304,178670,1,2
192,208,179018,6,0,B|192:96|256:-16|320:144|304:208,1,300,0|2
256,192,181112,12,4,184774
112,192,185821,5,0
112,192,185996,1,0
208,192,186345,1,0
208,192,186519,1,0
304,192,186867,1,0
352,192,187042,1,0
400,192,187216,1,4
48,192,188438,5,0
64,240,188612,1,0
80,288,188787,1,8
176,288,189135,1,0
208,240,189310,1,8
304,192,189659,2,8,L|352:192|384:192|464:192,1,150,8|14
256,192,200298,5,8
256,288,200647,1,8
256,192,200996,1,8
256,96,201343,5,0
352,96,201692,1,0
448,96,202041,1,2
448,96,202215,1,2
448,192,202564,1,0
448,240,202739,5,0
352,240,203087,1,0
256,240,203436,1,2
256,240,203611,1,2
160,240,203960,1,0
160,240,204134,5,0
160,144,204483,1,0
160,48,204832,1,2
160,48,205006,1,2
256,48,205356,1,8
256,48,205531,5,8
256,144,205880,1,2
256,192,206054,1,2
256,240,206228,1,2
256,288,206403,1,2
64,320,206925,6,4,B|64:224|160:224|160:192,1,150
400,208,208321,2,0,B|288:208,1,100
248,192,208843,2,0,B|248:80,1,100
112,144,209715,6,2,B|208:176,1,100
256,176,210239,2,2,B|352:144,1,100
448,144,210936,1,6
448,288,211460,5,0
352,288,211808,1,0
256,288,212157,1,0
160,288,212506,1,0
112,192,212855,6,0,B|160:96,1,100
352,96,213901,2,0,B|400:208,1,100
256,192,215297,12,0,216692
96,80,218087,6,0,B|160:112|160:48|208:80,1,100
241,72,218610,2,0,B|399:70,1,150
384,160,219482,1,0
288,160,219831,1,0
288,160,220005,1,0
192,160,220354,1,0
96,160,220703,1,8
368,288,221749,5,0
272,288,222098,2,2,B|192:288|192:256|208:240|256:272|144:288,1,150,0|4
96,288,222796,1,8
96,192,223145,1,12
256,192,223646,12,2,225041
