osu file format v9

[General]
AudioFilename: song.mp3
AudioLeadIn: 2000
PreviewTime: 74762
Countdown: 0
SampleSet: Soft
StackLeniency: 0.7
Mode: 0
LetterboxInBreaks: 0

[Editor]
DistanceSpacing: 1.1
BeatDivisor: 4
GridSize: 4

[Metadata]
Title:Kimi wo Aogi Otome wa Hime ni (Short Ver.)
Artist:Ne;on
Creator:merchat7
Version:Normal
Source:Kimi wo Aogi Otome wa Hime ni
Tags:Kraster Peas soft piano hentai eroge game visual novel opening Yasora-chan mjw5150 ikari_kyon

[Difficulty]
HPDrainRate:3
CircleSize:4
OverallDifficulty:4
ApproachRate:5
SliderMultiplier:1.3
SliderTickRate:2

[Events]
//Background and Video events
Video,0,"video.avi"
0,0,"background.jpg"
//Break Periods
//Storyboard Layer 0 (Background)
//Storyboard Layer 1 (Fail)
//Storyboard Layer 2 (Pass)
//Storyboard Layer 3 (Foreground)
//Storyboard Sound Samples
//Background Colour Transformations
3,100,163,162,255

[TimingPoints]
-385,403.090359422237,4,2,1,50,1,0
1428,-100,4,2,1,30,0,0
1479,-100,4,2,1,50,0,0
3041,-100,4,2,1,30,0,0
3091,-100,4,2,1,50,0,0
3847,-100,4,2,1,30,0,0
3897,-100,4,2,1,50,0,0
4250,-100,4,2,1,30,0,0
4300,-100,4,2,1,50,0,0
6265,-100,4,2,1,30,0,0
6316,-100,4,2,1,50,0,0
7878,-100,4,2,1,30,0,0
7928,-100,4,2,1,50,0,0
12715,-100,4,2,1,30,0,0
12967,-100,4,2,1,50,0,0
13723,-100,4,2,1,60,0,0
14125,368.098159509202,4,2,2,60,1,0
17069,-100,4,2,0,40,0,0
17115,-100,4,2,2,70,0,0
22959,-100,4,2,0,30,0,0
23005,-100,4,2,2,70,0,0
28296,-100,4,2,0,40,0,0
28480,-100,4,2,2,70,0,0
31793,-100,4,2,0,40,0,0
31977,-100,4,2,2,70,0,0
32713,-100,4,2,0,40,0,0
32898,-100,4,2,2,70,0,0
33082,-100,4,2,0,40,0,0
33128,-100,4,2,2,70,0,0
34738,-100,4,2,0,40,0,0
34784,-100,4,2,2,70,0,0
37499,-100,4,2,2,60,0,0
39155,-100,4,2,0,30,0,0
39707,-100,4,2,1,60,0,0
42284,-100,4,2,1,50,0,0
42514,-100,4,2,1,60,0,0
43572,-100,4,2,1,50,0,0
43802,-100,4,2,1,60,0,0
44493,-100,4,2,2,60,0,0
45045,-100,4,2,1,60,0,0
47437,-100,4,2,1,50,0,0
47667,-100,4,2,1,60,0,0
50382,-100,4,2,2,60,0,0
50934,-100,4,2,0,40,0,0
51302,-100,4,2,2,70,0,0
55167,-100,4,2,0,40,0,0
55213,-100,4,2,2,70,0,0
56824,-100,4,2,0,40,0,0
57192,-100,4,2,2,70,0,0
57376,-100,4,2,0,40,0,0
57744,-100,4,2,2,70,0,0
58112,-100,4,2,0,40,0,0
58480,-100,4,2,2,70,0,0
59032,-100,4,2,0,40,0,0
59078,-100,4,2,2,70,0,0
59769,-100,4,2,0,40,0,0
59815,-100,4,2,2,70,0,0
61057,-100,4,2,0,40,0,0
61103,-100,4,2,2,70,0,0
62713,-100,4,2,0,40,0,0
62759,-100,4,2,2,70,0,0
66947,-100,4,2,0,40,0,0
66993,-100,4,2,2,70,0,0
68603,-100,4,2,0,40,0,0
68649,-100,4,2,2,70,0,0
71548,-100,4,2,0,40,0,0
71594,-100,4,2,2,70,0,0
72100,-100,4,2,0,40,0,0
72652,-100,4,2,2,70,0,0
72836,-100,4,2,0,40,0,0
73204,-100,4,2,2,70,0,0
74861,-100,4,2,1,40,0,0
75045,-100,4,2,1,20,0,0
75091,-100,4,2,1,40,0,0
75689,-100,4,2,1,20,0,0
75781,-100,4,2,1,40,0,0
75965,-100,4,2,0,60,0,1
76011,-100,4,2,2,80,0,1
80382,-100,4,2,0,40,0,1
80750,-100,4,2,0,45,0,1
81118,-100,4,2,0,50,0,1
81486,-100,4,2,0,55,0,1
81855,-100,4,2,0,60,0,1
81901,-100,4,2,2,80,0,1
84799,-100,4,2,0,60,0,1
84845,-100,4,2,2,80,0,1
85351,-100,4,2,0,60,0,1
85720,-100,4,2,2,80,0,1
86088,-100,4,2,0,60,0,1
86640,-100,4,2,2,80,0,1
86824,-100,4,2,0,40,0,1
87008,-100,4,2,2,80,0,1
87744,-100,4,2,0,60,0,1
87790,-100,4,2,2,80,0,1
90689,-100,4,2,0,60,0,1
90735,-100,4,2,2,80,0,1
92161,-100,4,2,0,40,0,1
92529,-100,4,2,0,45,0,1
92898,-100,4,2,0,50,0,1
93266,-100,4,2,0,55,0,1
93634,-100,4,2,0,60,0,1
93680,-100,4,2,2,80,0,1
96578,-100,4,2,0,60,0,1
96624,-100,4,2,2,80,0,1
99523,-100,4,2,0,60,0,1
99569,-100,4,2,2,80,0,1
100996,-100,4,2,0,60,0,1
101180,-100,4,2,2,80,0,1
105413,-100,4,2,0,40,0,0
105459,-100,4,2,2,70,0,0
111302,-100,4,2,0,40,0,0
111348,-100,4,2,2,70,0,0
112775,-100,4,2,0,40,0,0
113005,-100,4,2,2,70,0,0
113327,-100,4,2,0,40,0,0
113879,-100,4,2,2,70,0,0
114063,-100,4,2,0,30,0,0
114247,-100,4,2,2,70,0,0
115720,-100,4,2,0,40,0,0
117928,-100,4,2,0,35,0,0
118664,-100,4,2,0,30,0,0
119401,-100,4,2,0,25,0,0
120137,-100,4,2,0,20,0,0
120873,-100,4,2,0,15,0,0
121609,-100,4,2,0,10,0,0
122345,-100,4,2,0,5,0,0

[Colours]
Combo1 : 180,225,120
Combo2 : 200,115,130
Combo3 : 150,160,195
Combo4 : 245,230,180

[HitObjects]
64,156,824,1,0
172,64,1227,2,0,B|244:36|304:68,1,130,8|2
432,116,2033,1,8
428,260,2436,6,0,B|352:276,1,65
316,220,2839,2,0,B|244:248|184:216,1,130,8|2
76,132,3645,2,0,B|88:64|148:28,2,130,8|2|8
76,276,4855,6,0,B|75:345,2,65,8|2|8
76,132,5661,1,8
196,208,6064,2,0,B|264:224|328:192,1,130,8|2
452,136,6870,1,8
464,280,7273,6,0,B|456:312|424:328,1,65
352,324,7676,2,0,B|294:289|226:313,1,130,8|8
156,312,8281,2,0,B|124:328|117:360,2,65,2|8|2
272,232,9087,6,0,B|337:232,1,65,2|8
208,172,9692,2,0,B|160:216|80:212,1,130,2|8
72,72,10498,2,0,B|120:28|200:32,1,130,2|2
264,36,11103,6,0,B|332:36,2,65,8|2|8
252,108,11707,2,0,B|184:108,2,65,2|8|8
324,232,12513,6,0,B|128:232,1,195,8|2
64,200,13320,2,0,B|124:244|104:316,1,130,8|2
256,192,14125,12,2,16517
196,204,17069,6,0,B|227:266|200:329,2,130,4|8|4
64,148,18174,1,8
64,148,18358,1,2
64,148,18542,2,0,B|104:92|180:84,1,130,4|8
305,141,19278,2,0,B|265:197|189:205,1,130,4|8
64,148,20014,6,0,B|-8:176|0:252,2,130,4|8|4
196,204,21118,1,8
312,284,21486,2,0,B|448:252,1,130,4|8
432,112,22223,2,0,B|296:144,1,130,4|8
176,84,22959,6,0,B|227:44|304:56,1,130,4|8
432,112,23695,1,4
396,252,24063,2,0,B|432:260|460:252,2,65,8|2|4
264,196,24799,1,8
176,84,25167,2,0,B|103:95|52:55,1,130,4|8
152,160,25904,6,0,B|164:224,1,65,4|4
76,336,26456,2,0,B|148:344|204:304,1,130,4|4
336,260,27192,2,0,B|264:268|208:228,1,130,4|4
260,96,27928,1,4
396,56,28296,6,0,B|464:56,2,65,4|2|2
364,120,28848,2,0,B|368:192|448:212,1,130,4|8
444,356,29585,6,0,B|508:356,2,65,4|2|8
332,268,30321,2,0,B|328:340|252:358,1,130,4|8
108,360,31057,2,0,B|40:360,2,65,4|2|8
224,276,31793,6,0,B|260:224|240:148,2,130,4|8|4
160,304,32713,2,0,B|168:376,2,65,4|8|4
92,284,33266,2,0,B|56:232|76:156,1,130,4|8
144,36,34002,2,0,B|180:88|160:164,1,130,4|8
296,208,34738,6,0,B|342:252|424:248,2,130,4|8|4
264,68,35842,1,8
404,88,36210,2,0,B|452:32,1,65,4|4
364,156,36763,2,0,B|496:168,1,130,4|4
256,192,37499,12,4,39155
320,128,39707,6,0,B|260:152|192:120,1,130,2|2
76,44,40444,1,2
52,184,40812,1,2
52,184,40996,2,0,B|100:320|272:300,1,260,8|8
372,208,42100,6,0,B|272:232|176:196,1,195,8|2
76,100,43020,1,2
204,40,43388,2,0,B|304:16|400:52,1,195,2|8
440,260,44493,2,0,B|376:228,1,65,4|4
272,140,45045,6,0,B|336:172,1,65,8|2
276,304,45597,2,0,B|396:368,2,130,2|2|2
132,308,46701,2,0,B|196:276,1,65,2|8
276,164,47253,2,0,B|340:128|404:200|468:164,1,195,8|2
496,100,47990,6,0,B|368:24|224:60,1,260,8|8
156,252,49278,2,0,B|284:328|428:292,1,260,2|2
492,184,50382,2,0,B|420:188,1,65,4|4
284,192,50934,5,4
156,252,51302,2,0,B|96:228|88:160|104:108|136:92,1,195,8|4
280,72,52223,1,4
424,80,52591,2,0,B|492:124,1,65,4|8
464,256,53143,2,0,B|396:212,1,65,2|4
212,136,53879,6,0,B|96:144|16:72,1,195,2|4
76,216,54799,1,4
136,344,55167,2,0,B|202:283|318:291,1,195,4|8
360,152,56088,2,0,B|492:152,2,130,2|8|4
224,200,57192,6,0,B|224:268,1,65,8|4
348,336,57744,2,0,B|388:292|388:292|468:264,1,130,2|4
404,136,58480,2,0,B|336:136,1,65,2|8
196,136,59032,2,0,B|152:96|152:96|128:29,1,130,4|8
56,156,59769,6,0,B|128:164|172:240,1,130,4|8
44,304,60505,2,0,B|16:324|4:360,2,65,2|4|8
112,320,61057,2,0,B|164:344|244:320,1,130,4|2
312,320,61609,2,0,B|364:296|444:320,2,130,8|8|8
396,204,62713,6,0,B|328:196,1,65,4|0
336,124,63082,2,0,B|272:104|204:120,1,130,8|2
76,180,63818,2,0,B|144:188,1,65,8|2
136,260,64187,2,0,B|200:280|268:264,1,130,4|8
396,204,64922,6,0,B|440:148,1,65,2|2
372,120,65290,2,0,B|416:64,1,65,8|2
348,36,65658,6,0,B|244:16|144:40,1,195,0|2
44,132,66578,1,2
28,276,66947,2,0,B|104:280|144:228,1,130,4|2
192,176,67499,2,0,B|264:168,1,65,8|0
364,268,68051,2,0,B|292:276,1,65,8|2
184,360,68603,6,0,B|239:389|328:372,1,130,4|4
376,344,69155,2,0,B|448:352,1,65,0|2
460,208,69707,2,0,B|388:200,1,65,8|2
336,160,70075,2,0,B|264:145|209:174,1,130,4|4
200,248,70628,2,0,B|272:256,1,65,2|2
376,344,71180,1,8
236,364,71548,6,0,B|168:380|104:352,1,130,4|8
60,304,72100,1,4
108,96,72652,2,0,B|168:76,1,65,8|4
204,216,73204,1,0
204,216,73388,1,8
204,216,73572,2,0,B|324:216|364:140|280:84|196:140|236:216|352:216,1,325,2|8
448,320,74861,6,0,B|380:336|316:308,1,130,8|2
216,296,75505,2,0,B|164:292|116:316,1,97.5
64,356,75965,2,0,B|-28:308|-4:188,1,195,4|2
116,116,76885,6,0,B|88:92|48:100,2,65,0|8|2
108,188,77437,2,0,B|224:204|260:88,1,195,4|2
388,152,78358,6,0,B|416:168|456:156,2,65,2|8|2
320,128,78910,2,0,B|304:244|420:280,1,195,4|2
272,276,79830,6,0,B|280:316|252:336,2,65,2|8|2
236,216,80382,2,0,B|96:196,1,130,4|4
216,104,81118,2,0,B|356:124,1,130,4|4
404,252,81855,2,0,B|412:316|376:348|324:368|276:348,1,195,4|2
256,192,82591,12,4,84063
416,88,84799,6,0,B|348:80|284:108,1,130,4|8
236,156,85351,1,4
288,288,85720,2,0,B|356:296|420:268,1,130,2|4
216,344,86640,2,0,B|156:316,1,65,8|4
100,360,87008,2,0,B|40:332,1,65,0|2
12,268,87376,2,0,B|88:268|100:188,1,130,8|4
152,56,88112,6,0,B|216:80,1,65,8|2
352,120,88664,2,0,B|376:104|376:56,2,65,2|8|2
292,160,89217,6,0,B|312:268|436:288,1,195,4|2
464,148,90137,2,0,B|464:184|488:208,2,65,2|8|2
396,176,90690,6,0,B|376:284|252:304,1,195,4|2
292,160,91609,2,0,B|280:124|248:116,2,65,2|8|2
224,180,92161,6,0,B|92:164,1,130,4|4
112,308,92898,2,0,B|244:324,1,130,4|4
348,228,93634,2,0,B|388:184|376:124|344:80|292:76,1,195,0|10
256,192,94370,12,2,95842
212,92,96578,6,0,B|145:72|76:92,2,130,4|0|8
352,124,97683,1,8
308,260,98051,6,0,B|375:279|444:260,2,130,2|8|2
168,228,99156,1,8
40,160,99523,6,0,B|4:276|92:352,1,195,4|2
220,360,100444,1,0
360,332,100812,2,0,B|388:356|424:348,2,65,0|4|2
304,288,101364,2,0,B|368:256|364:176,1,130,8|8
280,64,102100,1,8
256,192,102468,12,2,104677
204,224,105413,6,0,B|224:296|292:324,2,130,4|8|4
256,92,106517,1,8
268,236,106885,2,0,B|211:287|147:259,2,130,4|8|4
396,172,107990,1,8
456,300,108358,6,0,B|384:300,1,65,4|0
380,372,108726,2,0,B|240:372,1,130,8|4
112,332,109462,1,8
72,196,109830,2,0,B|8:196,2,65,4|0|8
192,120,110566,2,0,B|256:120,2,65,4|0|8
52,104,111302,6,0,B|120:96|164:32,1,130,4|8
232,36,111855,2,0,B|328:20|432:48,1,195,0|8
452,112,112591,2,0,B|492:96|496:52,2,65,2|4|4
320,164,113327,1,4
424,260,113695,2,0,B|464:276|468:320,2,65,4|4|0
352,244,114247,2,0,B|216:244,1,130,2|8
84,212,114983,6,0,B|108:152,1,65,8|2
176,172,115351,2,0,B|200:112,1,65,8|2
160,52,115720,1,4
256,192,117192,12,0,123082
