osu file format v9

[General]
AudioFilename: song.mp3
AudioLeadIn: 2000
PreviewTime: 74762
Countdown: 0
SampleSet: Soft
StackLeniency: 0.7
Mode: 0
LetterboxInBreaks: 0

[Editor]
DistanceSpacing: 1.3
BeatDivisor: 4
GridSize: 4

[Metadata]
Title:Kimi wo Aogi Otome wa Hime ni (Short Ver.)
Artist:Ne;on
Creator:merchat7
Version:Insane
Source:Kimi wo Aogi Otome wa Hime ni
Tags:Kraster Peas soft piano hentai eroge game visual novel opening Yasora-chan mjw5150 ikari_kyon

[Difficulty]
HPDrainRate:7
CircleSize:4
OverallDifficulty:8
ApproachRate:8
SliderMultiplier:1.8
SliderTickRate:2

[Events]
//Background and Video events
Video,0,"video.avi"
0,0,"background.jpg"
//Break Periods
//Storyboard Layer 0 (Background)
//Storyboard Layer 1 (Fail)
//Storyboard Layer 2 (Pass)
//Storyboard Layer 3 (Foreground)
//Storyboard Sound Samples
//Background Colour Transformations
3,100,163,162,255

[TimingPoints]
-385,403.090359422237,4,2,1,60,1,0
12715,-100,4,2,1,30,0,0
12765,-100,4,2,1,60,0,0
13521,-100,4,2,1,30,0,0
13622,-100,4,2,1,60,0,0
13723,-100,4,2,1,30,0,0
13823,-100,4,2,1,60,0,0
14125,368.098159509202,4,2,2,60,1,0
17069,-100,4,2,0,40,0,0
17115,-100,4,2,2,70,0,0
22959,-100,4,2,0,30,0,0
23005,-100,4,2,2,70,0,0
28296,-100,4,2,0,40,0,0
28480,-100,4,2,2,70,0,0
31793,-100,4,2,0,40,0,0
31977,-100,4,2,2,70,0,0
32713,-100,4,2,0,40,0,0
32898,-100,4,2,2,70,0,0
33082,-100,4,2,0,40,0,0
33128,-100,4,2,2,70,0,0
34738,-100,4,2,0,40,0,0
34784,-100,4,2,2,70,0,0
37499,-117.647058823529,4,2,2,60,0,0
39155,-117.647058823529,4,2,0,30,0,0
39339,-117.647058823529,4,2,1,60,0,0
41180,-117.647058823529,4,2,1,50,0,0
41226,-117.647058823529,4,2,1,60,0,0
43572,-117.647058823529,4,2,1,30,0,0
43618,-117.647058823529,4,2,1,60,0,0
44493,-117.647058823529,4,2,2,60,0,0
44861,-117.647058823529,4,2,1,60,0,0
47437,-117.647058823529,4,2,1,5,0,0
47483,-117.647058823529,4,2,1,60,0,0
47621,-117.647058823529,4,2,1,5,0,0
47667,-117.647058823529,4,2,1,60,0,0
49462,-117.647058823529,4,2,1,30,0,0
49508,-117.647058823529,4,2,1,60,0,0
50934,-100,4,2,0,40,0,0
50980,-100,4,2,2,70,0,0
55167,-100,4,2,0,40,0,0
55213,-100,4,2,2,70,0,0
56824,-100,4,2,0,40,0,0
56870,-100,4,2,2,70,0,0
57376,-100,4,2,0,40,0,0
57422,-100,4,2,2,70,0,0
58112,-100,4,2,0,40,0,0
58158,-100,4,2,2,70,0,0
59032,-100,4,2,0,40,0,0
59078,-100,4,2,2,70,0,0
59769,-100,4,2,0,40,0,0
59815,-100,4,2,2,70,0,0
61057,-100,4,2,0,40,0,0
61103,-100,4,2,2,70,0,0
62713,-100,4,2,0,40,0,0
62759,-100,4,2,2,70,0,0
66947,-100,4,2,0,40,0,0
66993,-100,4,2,2,70,0,0
68603,-100,4,2,0,40,0,0
68649,-100,4,2,2,70,0,0
71548,-100,4,2,0,40,0,0
71594,-100,4,2,2,70,0,0
72100,-100,4,2,0,40,0,0
72146,-100,4,2,2,70,0,0
72836,-100,4,2,0,40,0,0
72882,-100,4,2,2,70,0,0
74861,-100,4,2,1,40,0,0
75965,-100,4,2,0,60,0,1
76011,-100,4,2,2,80,0,1
80382,-100,4,2,0,40,0,1
80750,-100,4,2,0,45,0,1
81118,-100,4,2,0,50,0,1
81486,-100,4,2,0,55,0,1
81855,-100,4,2,0,60,0,1
81901,-100,4,2,2,80,0,1
84799,-100,4,2,0,60,0,1
84845,-100,4,2,2,80,0,1
85351,-100,4,2,0,60,0,1
85398,-100,4,2,2,80,0,1
86088,-100,4,2,0,60,0,1
86134,-100,4,2,2,80,0,1
86824,-100,4,2,0,40,0,1
87008,-100,4,2,2,80,0,1
87744,-100,4,2,0,60,0,1
87790,-100,4,2,2,80,0,1
90689,-100,4,2,0,60,0,1
90735,-100,4,2,2,80,0,1
92161,-100,4,2,0,40,0,1
92529,-100,4,2,0,45,0,1
92898,-100,4,2,0,50,0,1
93266,-100,4,2,0,55,0,1
93634,-100,4,2,0,60,0,1
93680,-100,4,2,2,80,0,1
94186,-100,4,2,0,60,0,1
94232,-100,4,2,2,80,0,1
96578,-100,4,2,0,60,0,1
96624,-100,4,2,2,80,0,1
99523,-100,4,2,0,60,0,1
99569,-100,4,2,2,80,0,1
100996,-100,4,2,0,60,0,1
101180,-100,4,2,2,80,0,1
102468,-100,4,2,0,60,0,1
102652,-100,4,2,2,80,0,1
105413,-100,4,2,0,40,0,0
105459,-100,4,2,2,70,0,0
111302,-100,4,2,0,40,0,0
111348,-100,4,2,2,70,0,0
112775,-100,4,2,0,40,0,0
113005,-100,4,2,2,70,0,0
113327,-100,4,2,0,40,0,0
113373,-100,4,2,2,70,0,0
113695,-100,4,2,0,40,0,0
113879,-100,4,2,2,70,0,0
114063,-100,4,2,0,30,0,0
114247,-100,4,2,2,70,0,0
115720,-100,4,2,0,40,0,0
117928,-100,4,2,0,35,0,0
118664,-100,4,2,0,30,0,0
119401,-100,4,2,0,25,0,0
120137,-100,4,2,0,20,0,0
120873,-100,4,2,0,15,0,0
121609,-100,4,2,0,10,0,0
122345,-100,4,2,0,5,0,0

[Colours]
Combo1 : 180,225,120
Combo2 : 200,115,130
Combo3 : 150,160,195
Combo4 : 245,230,180

[HitObjects]
96,128,824,1,0
196,172,1025,1,0
296,128,1227,2,0,B|388:128,1,90,8|2
456,212,1630,2,0,B|368:212,1,90,8|2
276,296,2033,2,0,B|368:296,1,90,8|2
288,216,2436,5,0
192,264,2638,1,0
152,164,2839,2,0,B|152:76,1,90,8|2
48,40,3242,2,0,B|48:128,1,90,8|2
0,228,3645,2,0,B|92:228,1,90,8|2
252,256,4048,1,0
344,168,4250,2,0,B|392:152|400:104,2,90,2|8|2
284,80,4855,6,0,B|200:40,1,90,8|0
124,116,5258,2,0,B|208:156,1,90,8|0
192,264,5661,2,0,B|108:224,1,90,8|0
192,264,6064,1,8
464,204,6467,2,0,B|376:224,1,90,8|0
288,164,6870,2,0,B|200:144,1,90,8|2
72,216,7273,5,0
72,216,7475,1,0
92,92,7676,2,0,B|120:60|176:60,1,90,8|2
281,58,8079,2,0,B|369:58,2,90,2|2|8
224,152,8684,2,0,B|228:208|272:224,1,90
332,312,9087,6,0,B|424:312,2,90,0|8|0
91,310,9692,2,0,B|176:284,1,90,8|2
140,180,10095,2,0,B|224:153,1,90,8|2
264,292,10498,2,0,B|348:265,1,90,8|2
376,88,10901,5,2
464,44,11103,1,8
374,89,11304,1,2
464,144,11506,1,8
372,90,11707,1,2
368,200,11909,1,8
370,92,12110,1,8
276,140,12312,1,2
268,24,12513,6,0,B|88:72,1,180,8|8
40,204,13118,1,2
216,244,13320,2,0,B|288:236|348:276,2,135,8|2|8
256,192,14125,12,2,16701
136,128,17069,6,0,B|234:114,1,90,4|0
296,116,17345,1,2
296,116,17437,2,0,B|394:130,1,90,12|2
356,268,17805,2,0,B|264:292,1,90,4|2
152,272,18174,1,12
152,272,18358,1,2
216,172,18542,6,0,B|128:160,1,90,4|0
80,104,18818,1,2
80,104,18910,2,0,B|144:36,1,90,12|2
240,100,19278,2,0,B|304:32,1,90,4|2
340,212,19646,2,0,B|328:260|276:280,1,90,12|2
420,124,20014,6,0,B|512:124,2,90,4|0|12
340,212,20566,1,2
332,328,20750,2,0,B|380:344|420:328,1,90,4|2
248,280,21118,2,0,B|200:264|160:280,1,90,12|2
156,144,21486,5,4
156,144,21763,1,2
156,144,21855,2,0,B|68:144,1,90,12|2
220,52,22223,2,0,B|308:52,1,90,6|2
244,148,22591,1,12
184,248,22775,1,2
312,348,22959,6,0,B|400:328,1,90,4|0
344,204,23327,2,0,B|436:204,1,90,12|2
376,84,23695,2,0,B|464:64,1,90,4|2
300,28,24063,1,12
164,36,24247,1,2
108,112,24431,6,0,B|16:128,1,90,4|0
116,192,24799,2,0,B|208:208,1,90,12|2
116,284,25167,2,0,B|24:268,1,90,4|2
256,304,25536,1,12
256,304,25628,1,2
256,304,25720,1,2
396,284,25904,5,4
428,200,26088,1,4
216,208,26456,2,0,B|128:216,1,90,4|0
152,128,26824,2,0,B|64:136,1,90,4|0
212,68,27192,2,0,B|316:56,1,90,4|0
284,144,27560,2,0,B|388:132,1,90,4|0
500,88,27928,1,4
256,192,28296,5,4
292,224,28480,1,2
204,192,28664,1,2
100,228,28848,5,4
28,160,29032,1,0
124,132,29217,1,12
204,192,29401,1,2
340,184,29585,5,4
272,112,29769,1,2
368,84,29954,1,12
448,140,30138,1,2
420,244,30321,6,0,B|500:288,1,90,4|0
396,324,30689,2,0,B|316:280,1,90,12|2
172,280,31057,2,0,B|252:324,1,90,4|2
148,360,31425,2,0,B|68:316,1,90,12|2
16,184,31793,1,4
124,188,31977,5,0
124,188,32069,1,2
124,188,32161,2,0,B|188:116,1,90,12|2
184,121,32529,1,4
172,280,32713,1,0
16,184,32898,1,12
32,344,33082,6,0,B|80:340|100:292,1,90,4|4
16,184,33450,1,2
60,56,33634,2,0,B|152:56,1,90,12|2
256,56,34002,1,4
256,56,34094,1,2
256,56,34186,1,2
280,216,34370,2,0,B|328:196|344:144,1,90,12|2
436,284,34738,6,0,B|484:288|524:336,2,90,4|0|8
320,268,35290,1,2
232,344,35474,2,0,B|200:376|148:368,2,90,4|2|12
140,248,36026,1,2
140,72,36210,5,4
372,72,36394,1,4
172,296,36763,2,0,B|84:304,1,90,4|0
340,296,37131,2,0,B|428:304,1,90,4|0
256,192,37499,12,2,38971
156,40,39155,6,0,B|196:20|236:40,2,76.4999968081714,4|2|8
64,80,39707,1,2
148,136,39891,1,8
40,176,40075,2,0,B|102:220,1,76.4999968081714,2|8
112,336,40444,2,0,B|49:291,1,76.4999968081714,2|8
164,272,40812,1,2
240,136,40996,2,0,B|280:208|248:284,1,152.999993616343,8|8
176,184,41548,2,0,B|134:194|114:226,2,76.4999968081714,2|8|2
332,160,42100,6,0,B|373:149|393:117,2,76.4999968081714,8|2|8
240,200,42652,2,0,B|260:240|300:244,1,76.4999968081714,2|8
436,220,43020,2,0,B|432:268|392:284,1,76.4999968081714,2|8
246,319,43388,2,0,B|158:307|100:378,1,152.999993616343,2|2
216,384,43940,2,0,B|133:349|119:259,1,152.999993616343,8|8
22,215,44493,1,4
202,197,44677,1,4
121,271,44861,1,2
75,133,45045,6,0,B|152:126,1,76.4999968081714,8|2
151,126,45413,1,8
276,212,45597,2,0,B|292:252|276:288,1,76.4999968081714,2|8
348,148,45965,2,0,B|332:108|348:72,1,76.4999968081714,2|8
416,208,46333,2,0,B|450:200|490:216,1,76.4999968081714,2|8
348,268,46701,1,2
244,136,46885,2,0,B|209:145|169:129,1,76.4999968081714,8|2
112,56,47253,6,0,B|56:32|-8:48,2,114.749995212257,8|0|2
56,184,47990,2,0,B|128:216|212:192,1,152.999993616343,8|8
280,124,48542,1,2
356,188,48726,1,8
424,116,48910,1,2
500,180,49094,1,8
496,304,49278,6,0,B|460:364|356:372,1,152.999993616343,2|2
280,320,49830,1,8
192,368,50014,1,2
112,308,50198,1,8
216,176,50382,5,0
216,177,50474,1,0
216,177,50566,1,0
68,92,50750,1,0
68,92,50934,6,0,B|110:58|152:56,1,90,4|4
268,60,51302,1,8
372,116,51486,2,0,B|468:128,1,90,4|2
452,244,51855,2,0,B|356:232,1,90,4|8
248,320,52223,2,0,B|264:284|252:228,1,90,4|2
136,188,52591,1,4
16,108,52775,2,0,B|0:144|11:196,1,90,8|4
32,312,53143,2,0,B|124:304,1,90,2|4
236,328,53511,2,0,B|328:320,1,90,8|4
452,252,53879,6,0,B|472:208|448:160,2,90,2|4|8
340,216,54431,2,0,B|296:232|252:208,1,90,4|2
112,160,54799,2,0,B|156:176|200:152,1,90,4|8
388,80,55167,2,0,B|352:52|300:56,1,90,4|0
172,52,55536,1,0
36,96,55720,2,0,B|0:136|12:184,1,90,8|4
108,260,56088,1,2
8,336,56272,1,4
108,260,56456,1,8
148,380,56640,1,4
312,244,56824,6,0,B|224:272,1,90,4|0
226,271,57192,1,8
200,128,57376,2,0,B|112:100,1,90,4|0
28,72,57744,2,0,B|114:100,1,90,2|8
54,214,58112,2,0,B|142:242,1,90,4|0
225,269,58480,2,0,B|140:242,1,90,2|8
256,196,58848,1,2
396,80,59032,2,0,B|428:164,1,90,4|0
428,164,59309,1,0
426,165,59401,1,8
460,276,59585,5,0
360,340,59769,2,0,B|268:348,1,90,4|0
164,304,60137,2,0,B|72:312,1,90,8|4
20,208,60505,5,2
112,172,60689,1,4
32,112,60873,1,8
140,60,61057,2,0,B|236:60,1,90,4|0
304,180,61425,6,0,B|316:232|280:264,1,90,2|8
388,104,61793,2,0,B|480:104,1,90,2|8
304,180,62161,5,2
304,180,62253,1,0
304,180,62345,1,8
160,180,62529,1,8
48,112,62713,5,4
148,52,62898,1,0
252,104,63082,1,8
352,40,63266,2,0,B|396:24|444:40,1,90,0|2
384,172,63634,1,2
468,288,63818,5,8
360,336,64003,1,2
260,276,64187,1,4
160,336,64370,2,0,B|113:344|69:320,1,90,0|8
104,192,64739,1,0
220,56,64922,6,0,B|256:20|300:16,1,90,2|2
384,172,65290,2,0,B|348:208|304:212,1,90,8|2
176,200,65658,5,2
96,284,65842,1,0
8,172,66026,1,8
96,284,66210,2,0,B|140:296|188:284,1,90,2|4
280,352,66578,2,0,B|332:344|356:288,1,90,2|8
440,132,66947,2,0,B|451:86|439:42,2,90,4|0|2
292,192,67499,5,8
384,252,67683,1,0
488,240,67867,1,8
384,296,68051,1,8
268,300,68235,1,2
476,340,68419,1,8
384,176,68603,6,0,B|434:183|484:148,2,90,4|4|4
232,116,69155,2,0,B|324:148|312:260,1,180,0|0
160,208,69707,6,0,B|110:215|60:180,2,90,2|0|4
164,368,70259,2,0,B|256:336|244:224,1,180,0|2
212,112,70812,2,0,B|164:124|124:96,1,90,8|0
16,56,71180,1,8
84,340,71548,6,0,B|108:288|72:240,1,90,4|0
8,164,71916,1,8
164,252,72100,2,0,B|248:276|348:256,1,180,4|0
432,184,72652,1,8
304,116,72836,6,0,B|280:64|316:16,1,90,4|0
412,116,73204,1,0
412,116,73388,1,8
244,180,73572,2,0,B|149:198|65:174,1,180,2|0
44,40,74124,5,8
184,88,74309,1,8
66,174,74493,1,8
212,332,74861,6,0,B|260:328|300:340,1,90,8|0
400,380,75229,2,0,B|440:380|488:344,1,90,2|0
328,276,75597,1,8
472,168,75781,1,0
324,32,75965,6,0,B|324:136|200:156,1,180,4|8
132,224,76517,2,0,B|80:212|76:160,1,90,2|4
216,48,76885,1,0
324,32,77069,1,8
428,60,77253,1,2
388,264,77437,6,0,B|304:204|328:104,1,180,4|8
428,60,77989,2,0,B|472:44|516:64,1,90,2|4
492,240,78358,1,2
388,264,78541,1,8
280,244,78725,1,2
128,108,78910,6,0,B|228:76|304:140,1,180,4|8
280,244,79462,2,0,B|296:296|268:332,1,90,2|4
128,216,79830,1,2
128,108,80014,1,8
188,20,80198,1,2
128,216,80382,6,0,B|172:232|220:212,1,90,4|0
291,76,80750,2,0,B|247:60|199:80,1,90,4|0
273,255,81118,2,0,B|320:255|359:220,1,90,4|0
147,31,81486,2,0,B|101:32|62:67,1,90,4|0
76,320,81855,2,0,B|192:304|215:216,1,180,4|8
292,76,82407,2,0,B|320:32|363:24,2,90,0|0|2
312,188,82959,1,8
416,240,83143,1,2
268,344,83327,6,0,B|225:336|197:292,1,90,4|0
176,176,83695,1,8
72,232,83879,1,2
198,293,84063,2,0,B|248:296|284:272,1,90,4|2
384,116,84431,6,0,B|334:113|298:137,1,90,8|2
368,284,84799,2,0,B|396:244|374:198,1,90,4|0
374,199,85167,1,8
220,104,85351,2,0,B|192:144|214:190,1,90,4|0
113,315,85720,2,0,B|163:318|199:294,1,90,2|8
124,132,86088,6,0,B|36:124,1,90,4|0
124,132,86456,1,2
244,244,86640,2,0,B|332:252,1,90,8|4
428,172,87008,2,0,B|336:172,1,90,0|2
248,84,87376,2,0,B|336:92,1,90,8|8
443,254,87744,6,0,B|396:268|355:250,1,90,4|0
256,192,88112,1,8
92,128,88296,2,0,B|139:113|180:131,1,90,2|4
248,84,88664,1,2
348,212,88848,1,8
188,240,89032,1,2
342,12,89217,6,0,B|351:61|328:99,1,90,4|0
256,192,89585,1,8
175,345,89769,2,0,B|166:296|189:259,1,90,2|4
264,112,90137,1,2
328,260,90321,1,8
168,236,90505,1,2
383,338,90689,6,0,B|334:327|312:284,1,90,4|0
256,192,91057,1,8
129,46,91241,2,0,B|178:57|200:100,1,90,2|4
341,135,91609,1,2
253,271,91793,1,8
181,128,91977,1,2
400,192,92161,5,4
120,188,92529,1,4
460,248,92898,1,4
64,248,93266,1,4
104,44,93634,6,0,B|192:44,1,90,4|0
312,44,94002,1,8
128,120,94186,2,0,B|312:120,1,180,4|2
424,120,94738,1,8
424,120,94922,1,2
488,288,95106,6,0,B|304:288,1,180,4|8
192,288,95658,1,2
192,288,95842,1,2
52,252,96026,1,8
52,252,96118,1,8
52,252,96210,2,0,B|24:212|44:160,1,90,8|2
136,56,96578,6,0,B|180:44|224:48,1,90,4|0
332,52,96947,1,0
380,148,97131,2,0,B|336:160|292:156,1,90,2|8
136,328,97683,6,0,B|180:340|224:336,1,90,8|0
332,332,98052,1,2
380,236,98236,2,0,B|336:224|292:228,1,90,2|8
184,232,98603,1,0
184,232,98787,1,2
360,52,99155,6,0,B|404:36|448:52,1,90,8|0
272,132,99523,2,0,B|228:148|184:132,1,90,4|0
272,132,99891,1,2
360,52,100075,1,4
208,56,100259,1,8
96,204,100444,2,0,B|82:248|98:292,1,90,0|8
8,116,100812,2,0,B|21:71|5:27,1,90,0|4
96,204,101180,5,2
96,204,101272,1,2
96,204,101364,2,0,B|144:219|192:204,1,90,8|2
316,152,101732,1,8
335,133,101824,1,8
312,117,101916,1,8
334,102,102008,1,8
316,81,102100,1,2
172,48,102284,2,0,B|76:48,1,90,2|4
256,192,102652,12,0,105229
452,172,105413,6,0,B|480:136|480:88,1,90,4|0
336,96,105781,2,0,B|338:50|310:10,1,90,8|0
184,80,106149,2,0,B|153:46|105:38,1,90,4|2
84,180,106517,2,0,B|38:177|-2:205,1,90,8|2
56,336,106885,6,0,B|104:328|135:294,1,90,4|0
248,384,107253,2,0,B|252:336|222:298,1,90,8|0
296,176,107621,2,0,B|292:224|320:260,1,90,4|2
432,168,107990,2,0,B|480:160|511:126,1,90,8|4
360,132,108358,5,4
400,32,108542,1,0
284,100,108726,1,8
308,216,108910,1,2
228,156,109094,1,4
256,28,109278,1,2
136,92,109462,1,8
188,220,109646,1,4
68,156,109830,5,4
24,48,110014,1,0
136,92,110198,1,8
100,232,110382,1,2
208,140,110566,1,4
300,252,110750,1,0
208,140,110934,1,8
184,296,111118,1,4
384,328,111302,6,0,B|340:344|296:332,1,90,4|0
184,296,111671,1,8
344,212,111855,2,0,B|392:188|388:136,1,90,0|4
376,24,112223,1,2
464,104,112407,1,8
292,152,112591,2,0,B|248:136|204:148,1,90,2|4
128,236,112959,2,0,B|172:252|217:240,1,90,4|0
84,112,113327,6,0,B|80:64|136:36,1,90,4|0
272,44,113695,1,4
292,152,113879,1,4
232,244,114063,1,0
464,352,114247,2,0,B|420:364|376:352,1,90,2|0
256,268,114615,5,8
256,268,114707,1,8
256,268,114799,1,2
200,116,114983,1,8
312,116,115167,1,2
168,204,115351,1,8
344,204,115536,1,2
256,204,115720,5,4
256,192,117192,12,0,123082
