osu file format v9

[General]
AudioFilename: Nds vs Tom E In These Days (Nightcore Mix).mp3
AudioLeadIn: 0
PreviewTime: 27636
Countdown: 0
SampleSet: Soft
StackLeniency: 0.4
Mode: 0
LetterboxInBreaks: 0
EpilepsyWarning: 1

[Editor]
DistanceSpacing: 0.9
BeatDivisor: 4
GridSize: 8

[Metadata]
Title:In These Days (Nightcore Mix)
Artist:Nds vs Tom E.
Creator:ztrot
Version:Insane
Source:
Tags:trance rave remix Italo Concept Radio Edit deadbeat Rukarioman

[Difficulty]
HPDrainRate:7
CircleSize:4
OverallDifficulty:8
ApproachRate:9
SliderMultiplier:1.9
SliderTickRate:2

[Events]
//Background and Video events
0,0,"sunset.png"
//Break Periods
2,88137,99621
//Storyboard Layer 0 (Background)
//Storyboard Layer 1 (Fail)
//Storyboard Layer 2 (Pass)
//Storyboard Layer 3 (Foreground)
//Storyboard Sound Samples
//Background Colour Transformations
3,100,163,162,255

[TimingPoints]
3069,372.231528010422,4,2,1,64,1,0
124044,-100,4,2,2,59,0,0
148983,-100,4,2,1,59,0,1
172806,-100,4,2,1,59,0,0

[Colours]
Combo1 : 255,255,0
Combo2 : 89,0,179
Combo3 : 176,0,0
Combo4 : 0,174,174
Combo5 : 255,98,21

[HitObjects]
256,356,3627,53,4
172,356,3813,1,8
108,300,3999,1,0
108,216,4185,1,0
112,132,4371,2,0,B|172:56|224:156|292:100,1,190,4|0
300,188,4930,37,0
212,188,5116,1,0
328,264,5302,1,8
184,264,5488,1,0
256,324,5674,1,0
256,324,5860,1,0
256,324,6046,1,2
256,56,6605,5,0
340,68,6791,2,0,B|384:96|380:152,1,95,8|0
296,140,7163,2,0,B|276:184|324:228,1,95,0|4
404,232,7535,1,2
256,344,7908,37,0
256,260,8094,1,0
192,204,8280,2,0,B|148:240|176:296,1,95,8|0
320,160,8652,2,0,B|364:196|336:252,1,95,4|0
244,144,9024,1,2
68,332,9583,21,4
152,332,9769,1,8
32,256,9955,1,0
188,256,10141,1,0
112,200,10327,2,0,B|104:200|104:200|104:188|104:188|112:188|112:188|112:180|112:180|104:180|104:180|104:172|104:172|112:172|112:172|112:164|112:164|104:164|104:164|104:156|104:156|112:148|112:148|112:156|112:156|104:148|104:148|104:144|104:144|112:144|112:144|112:136|112:136|104:136|104:136|104:128|104:128|112:128|112:128|112:120|112:120|104:120|104:120|104:112|104:112|112:112|112:112,1,190,4|0
204,160,10885,37,2
308,160,11071,1,0
256,228,11258,1,8
256,92,11444,1,0
168,240,11630,1,4
344,240,11816,1,4
256,184,12002,2,0,B|248:184|248:184|248:192|248:192|256:192|256:192|256:200|256:200|248:200|248:200|248:208|248:208|256:208|256:208|256:216|256:216|248:216|248:216|248:220|248:220|256:228|256:228|256:220|256:220|248:228|248:228|248:236|248:236|256:236|256:236|256:244|256:244|248:244|248:244|248:252|248:252|256:252|256:252|256:260|256:260|248:260|248:260|248:272|248:272|256:272,1,190,4|2
180,92,12747,21,8
332,92,12933,1,0
256,184,13119,1,4
180,268,13305,1,0
332,268,13491,1,2
256,48,13863,37,4
256,132,14049,1,0
176,164,14235,2,0,B|80:164,1,95,8|0
336,164,14608,2,0,B|432:164,1,95,12|0
488,260,14980,38,0,B|300:260,1,190,12|2
212,260,15538,1,0
176,164,15724,2,0,B|368:164,1,190,8|4
392,52,16283,1,4
308,52,16469,2,0,B|104:52,1,190,8|4
84,144,17027,1,4
84,228,17213,37,8
256,380,17586,1,4
428,228,17958,1,10
256,80,18330,1,0
172,228,18702,21,12
208,312,18888,1,0
256,240,19074,1,8
304,312,19261,1,4
340,228,19447,1,2
172,152,19819,37,12
340,152,20005,1,0
184,80,20191,1,0
328,80,20377,1,4
256,160,20563,1,10
256,356,20936,21,2
256,28,21308,1,12
56,192,21680,1,4
456,192,22052,1,12
372,192,22238,1,0
288,192,22425,1,6
56,192,22797,37,12
456,192,23169,1,2
56,192,23541,1,10
140,192,23727,1,4
224,192,23913,1,2
432,80,24658,21,4
80,80,25030,1,8
256,372,25402,1,4
256,12,25775,1,8
80,308,26147,1,4
148,216,26333,1,0
256,268,26519,1,12
364,216,26705,1,0
432,308,26891,1,2
100,72,27636,38,0,B|132:188|392:184|412:68,1,380,0|2
256,272,28752,1,8
256,48,29125,1,4
192,140,29311,1,0
320,140,29497,1,12
176,64,29683,1,8
336,64,29869,1,2
256,328,30241,1,10
104,252,30614,21,2
48,92,30986,1,8
132,72,31172,1,4
108,156,31358,53,2
404,156,31730,1,8
380,72,31916,1,4
464,92,32103,2,0,B|520:136|504:228|436:244,2,190,2|8|2
132,292,33591,6,0,B|56:224|56:112,1,190,4|12
256,32,34336,1,4
184,112,34522,1,0
328,112,34708,1,8
256,200,34894,1,8
152,216,35080,37,2
360,216,35453,1,8
256,32,35825,1,4
256,320,36197,1,8
92,280,36569,21,4
56,156,36755,1,0
180,192,36942,1,14
332,192,37128,1,0
456,156,37314,2,0,B|408:76|408:76|356:84|312:52,1,190,4|12
256,144,37872,1,10
195,54,38058,2,0,B|156:84|104:76|104:76|56:156,2,190,2|8|2
432,312,39547,38,0,B|256:324|256:324|256:296|256:296|64:328,1,380
256,220,40664,1,8
256,52,41036,1,4
256,220,41222,1,2
324,96,41408,1,12
188,180,41594,1,8
324,180,41781,1,4
176,340,42153,1,12
336,344,42525,21,4
476,244,42897,1,8
444,164,43083,1,4
392,232,43270,53,2
120,152,43642,1,8
36,140,43828,1,4
68,220,44014,1,0
152,232,44200,1,4
208,168,44386,1,10
416,40,44758,6,0,B|324:40|324:40|324:56|324:56|244:56,1,190,2|8
64,192,45503,1,2
148,296,45689,1,4
256,208,45875,1,8
364,296,46061,1,2
448,192,46247,1,4
256,56,46620,1,8
256,340,46992,37,4
128,148,47364,1,8
384,148,47736,1,2
256,336,48109,1,8
256,88,48481,21,4
192,136,48667,1,0
320,136,48853,1,12
148,160,49039,1,8
364,160,49225,1,2
72,160,49597,1,12
72,244,49784,1,4
72,328,49970,37,2
436,192,50342,1,8
72,56,50714,1,4
252,340,51086,1,8
256,64,51459,2,0,B|352:44,1,95,4|0
256,160,51831,2,0,B|152:184,1,95,4|4
256,272,52203,6,0,B|448:272,2,190,4|8|4
84,268,53320,1,8
48,192,53506,1,4
44,108,53692,1,2
444,84,54436,37,4
436,200,54623,1,0
360,124,54809,1,8
504,148,54995,1,12
340,204,55181,1,2
364,36,55553,1,8
256,60,55739,1,4
148,36,55925,1,2
256,252,56298,1,8
84,252,56670,22,0,B|2:82,1,190,2|8
84,252,57414,2,0,B|41:63,1,190,2|8
84,252,58159,2,0,B|83:60,1,190,2|8
160,100,58717,1,4
196,28,58903,1,2
352,100,59275,1,8
436,100,59462,1,4
392,176,59648,2,0,B|196:176,1,190,2|8
200,260,60206,1,4
128,216,60392,2,0,B|64:152|64:152|60:127|60:127|20:52,1,190,2|8
108,48,60951,1,4
160,116,61137,2,0,B|360:116,2,190,2|8|2
256,344,62253,37,8
204,260,62439,1,4
308,260,62626,1,2
104,172,62998,1,0
408,172,63370,1,2
112,172,63742,1,0
400,172,64114,22,0,B|108:172,1,285,6|0
256,84,64859,1,4
256,264,65231,1,8
340,264,65417,1,0
176,264,65603,2,0,B|120:264|120:264|120:308|120:308|28:308,1,190,4|8
128,184,66162,1,4
40,208,66348,2,0,B|40:152|40:152|80:108|80:108|80:28,1,190,2|8
168,32,66906,1,4
168,120,67092,2,0,B|268:120,1,95,4|0
344,32,67465,38,0,B|444:48,1,95,8|0
280,120,67837,2,0,B|176:156,1,95,4|0
344,216,68209,2,0,B|448:252,1,95,10|0
256,312,68581,1,4
316,144,68953,21,8
196,144,69140,1,4
336,144,69326,1,0
176,144,69512,1,2
256,52,69698,1,8
256,248,69884,1,4
256,248,70070,38,0,B|188:244|188:244|128:264|112:336,1,190,2|8
48,276,70629,1,4
48,192,70815,2,0,B|16:140|16:140|12:72|96:48,1,190,2|8
112,132,71373,1,4
180,80,71559,2,0,B|236:120|236:120|248:64|312:60|328:104,1,190,2|8
304,176,72117,1,4
392,152,72304,2,0,B|460:224|460:224|444:272|384:272|384:272|384:272,1,190,4|8
404,364,72862,1,4
328,336,73048,2,0,B|256:316|256:316|264:332|248:332|256:316|256:316|168:344,1,190,2|8
172,256,73606,1,4
340,256,73792,1,2
314,91,74165,21,8
256,152,74351,1,12
198,90,74537,2,4,B|113:30|29:102|50:217|147:220,1,285,4|0
314,90,75281,2,0,B|399:30|483:102|462:217|365:220,1,285,4|0
256,280,76026,38,0,B|168:224|72:272,1,190,2|8
24,336,76584,1,12
112,344,76770,2,0,B|200:392|296:360,1,190,4|8
344,288,77329,1,4
400,352,77515,2,0,B|488:312|488:192,1,190,2|8
472,112,78073,1,8
408,56,78259,1,2
304,192,78632,21,12
208,192,78818,1,4
256,264,79004,1,6
256,32,79376,37,8
168,32,79562,1,12
344,32,79748,1,2
152,184,80120,1,8
256,264,80307,1,4
360,184,80493,1,2
256,32,80865,21,8
184,112,81051,1,4
328,112,81237,1,4
168,32,81423,1,2
344,32,81609,1,8
256,184,81795,1,8
256,32,81982,38,0,B|400:32|400:32|448:16|496:64|472:128,1,285,4|2
384,120,82726,2,0,B|184:120,1,190,4|8
136,184,83284,1,4
80,264,83471,2,0,B|272:264,1,190,2|8
256,352,84029,1,4
344,352,84215,1,2
144,80,84587,21,12
80,136,84773,1,4
144,192,84959,2,0,B|240:152|344:192|368:304,1,285,2|4
448,280,85704,2,0,B|416:176|328:120,1,190,4|0
256,104,86262,1,4
168,112,86448,1,4
256,192,86821,12,0,87937
256,352,100221,5,8
344,344,100407,1,4
408,280,100593,1,4
408,192,100779,1,0
344,136,100965,1,8
256,136,101152,38,0,B|304:24|304:24|320:40|320:40|320:40|248:104|176:32,1,285,0|8
128,104,101896,1,4
256,200,102082,1,2
384,104,102268,1,4
168,184,102454,1,10
344,184,102640,1,12
256,56,102827,1,6
184,304,103385,21,4
328,304,103571,1,0
208,240,103757,1,4
304,240,103943,1,8
256,360,104129,1,4
256,176,104315,2,0,B|288:136|320:80|256:72|256:72|200:72,1,190,0|8
344,72,104874,1,4
168,72,105060,1,4
336,192,105246,1,0
176,192,105432,1,8
256,312,105618,1,8
256,224,105804,1,6
168,72,106177,37,8
256,16,106363,1,4
344,72,106549,1,0
256,16,106735,1,4
168,72,106921,1,8
168,160,107107,2,0,B|160:264|240:328|368:296,1,285,4|8
440,256,107852,1,4
448,168,108038,1,4
368,208,108224,1,2
440,256,108410,1,8
368,296,108596,1,8
296,256,108782,1,2
120,240,109341,21,4
120,144,109527,1,4
120,336,109713,1,4
200,192,109899,1,8
40,288,110085,1,8
200,288,110271,1,2
256,72,110643,37,8
432,312,111016,1,4
368,192,111202,1,0
256,272,111388,1,12
144,192,111574,1,4
80,312,111760,1,2
256,160,112132,21,12
256,160,112318,1,4
256,160,112505,1,4
256,160,112691,1,4
408,336,112877,1,12
104,336,113249,1,4
256,160,113621,1,8
480,192,113993,37,4
256,24,114366,1,8
32,192,114738,1,4
256,360,115110,1,8
304,192,115482,21,4
208,192,115669,1,4
256,264,115855,1,10
256,120,116041,1,8
336,264,116227,1,2
176,264,116599,37,2
256,120,116785,1,4
336,264,116971,1,4
208,192,117157,1,0
304,192,117344,1,8
256,24,117716,1,2
32,344,118460,21,2
256,192,118833,1,8
480,344,119205,1,2
480,40,119949,37,2
256,192,120321,1,8
32,40,120694,1,2
336,192,121438,21,4
176,192,121810,1,8
408,96,122183,1,4
104,96,122555,1,8
256,312,122927,1,4
256,64,123299,1,8
256,312,123672,1,0
412,72,124416,38,0,B|380:188|120:184|100:68,1,380,0|4
40,136,125347,2,0,B|-24:232|40:336,1,190
472,136,126091,2,0,B|536:232|472:336,1,190
351,45,126835,22,0,B|151:45,1,190
160,344,127580,2,0,B|256:344|256:344|256:328|256:328|352:328,1,190
24,192,128324,54,0,B|224:192,1,190
488,192,129069,2,0,B|288:192,1,190
384,48,129813,5,0
128,48,130186,1,0
304,48,130372,37,2
208,48,130558,1,0
344,136,130744,1,2
168,136,130930,1,0
66,230,131116,22,0,B|450:230,1,380
256,32,132233,1,2
65,231,132605,1,0
368,104,133350,37,2
144,104,133722,1,0
256,304,134094,1,2
144,104,134466,1,0
256,88,134652,1,0
368,104,134838,1,2
256,304,135211,1,0
144,104,135583,1,2
256,232,135955,21,0
312,168,136141,1,0
192,296,136327,1,2
256,104,136514,1,2
256,344,136700,1,2
200,168,136886,1,0
320,296,137072,1,4
72,64,137816,53,0
256,344,138189,1,2
448,64,138561,1,0
128,192,139305,37,0
384,192,139677,1,2
256,344,140050,1,0
256,192,140422,1,2
256,192,140608,1,0
256,192,140794,1,0
256,24,141166,21,2
336,48,141353,1,0
360,129,141539,2,0,B|424:209|416:313,1,190
391,117,142283,2,0,B|455:197|447:301,1,190
422,104,143028,2,0,B|486:184|478:288,1,190
256,360,143772,37,0
128,192,144144,1,2
384,192,144516,1,2
48,56,145261,21,0
256,304,145633,1,0
464,56,146005,1,0
176,32,146378,1,0
256,144,146564,1,0
336,32,146750,1,0
256,248,147122,1,0
96,312,147494,38,0,B|40:232|48:128,1,190
61,320,148239,2,0,B|5:240|13:136,1,190
112,212,148983,38,0,B|404:212,1,285,6|0
256,300,149728,1,4
256,128,150100,1,8
184,80,150286,1,0
256,32,150472,2,0,B|352:16|440:72,1,190
384,136,151031,1,4
464,168,151217,2,0,B|504:208|496:264|472:320|416:328,1,190
384,248,151775,1,4
304,280,151961,2,0,B|204:280,1,95,4|0
256,208,152334,6,0,B|144:208,1,95,8|0
280,352,152706,2,0,B|392:352,1,95,4|0
256,184,153078,2,0,B|160:184,1,95,10|0
280,376,153450,1,4
200,200,153822,53,8
312,200,154009,1,4
176,128,154195,1,2
336,128,154381,1,0
256,272,154567,1,8
256,136,154753,1,4
256,136,154939,6,0,B|324:140|384:120|400:40,1,190,2|8
312,40,155498,1,4
224,40,155683,2,0,B|128:16|120:104|32:72,1,190,4|8
32,160,156242,1,4
56,240,156428,2,0,B|112:200|112:200|124:256|188:260|204:216,1,190,2|8
256,160,156986,1,4
344,160,157172,2,0,B|456:160|488:48,1,190,4|8
400,56,157731,1,4
328,8,157917,2,0,B|256:32|256:32|272:8|240:8|256:32|256:32|176:8,1,190,2|8
328,96,158475,1,4
184,96,158661,1,2
198,293,159034,53,8
256,232,159220,1,4
314,294,159406,2,4,B|399:354|483:282|462:167|365:164,1,285,4|0
198,294,160150,2,0,B|113:354|29:282|50:167|147:164,1,285,4|0
256,104,160895,6,0,B|344:160|440:112,1,190,2|8
488,48,161453,1,4
400,40,161639,2,0,B|312:-8|216:24,1,190,4|8
168,96,162198,1,4
112,32,162384,2,0,B|24:72|24:192,1,190,2|8
40,272,162942,1,0
104,328,163128,1,2
208,192,163501,53,12
304,192,163687,1,4
256,120,163873,1,6
256,352,164245,5,8
344,352,164431,1,4
168,352,164617,1,2
360,200,164989,1,8
256,120,165176,1,4
152,200,165362,1,2
256,352,165734,53,8
328,272,165920,1,4
184,272,166106,1,4
344,352,166292,1,2
168,352,166478,1,8
256,200,166664,1,8
256,352,166851,6,0,B|112:352|112:352|64:368|16:320|40:256,1,285,4|2
128,264,167595,2,0,B|328:264,1,190,4|8
376,200,168153,1,4
432,120,168340,2,0,B|240:120,1,190,2|8
256,32,168898,1,4
168,32,169084,1,2
368,304,169456,53,12
432,248,169642,1,4
368,192,169828,2,0,B|272:232|168:192|144:80,1,285,2|4
64,104,170573,2,0,B|96:208|184:264,1,190,4|0
256,280,171131,1,4
344,272,171317,1,4
256,192,171690,12,0,172806
