osu file format v9

[General]
AudioFilename: Nds vs Tom E In These Days (Nightcore Mix).mp3
AudioLeadIn: 0
PreviewTime: 27636
Countdown: 0
SampleSet: Soft
StackLeniency: 0.4
Mode: 0
LetterboxInBreaks: 0
EpilepsyWarning: 1

[Editor]
Bookmarks: 38058,52203,62626,64673,87937,100221,172806
DistanceSpacing: 0.9
BeatDivisor: 4
GridSize: 4

[Metadata]
Title:In These Days (Nightcore Mix)
Artist:Nds vs Tom E.
Creator:ztrot
Version:Hard
Source:
Tags:trance rave remix Italo Concept Radio Edit deadbeat Rukarioman

[Difficulty]
HPDrainRate:6
CircleSize:4
OverallDifficulty:5
ApproachRate:7
SliderMultiplier:1.76
SliderTickRate:2

[Events]
//Background and Video events
0,0,"sunset.png"
//Break Periods
2,52403,61726
2,88137,97460
2,137271,145105
//Storyboard Layer 0 (Background)
//Storyboard Layer 1 (Fail)
//Storyboard Layer 2 (Pass)
//Storyboard Layer 3 (Foreground)
//Storyboard Sound Samples
//Background Colour Transformations
3,100,163,162,255

[TimingPoints]
3069,372.231528010422,4,2,1,64,1,0
27636,-133.333333333333,4,2,1,64,0,0
28380,-100,4,2,1,64,0,0
38803,-133.333333333333,4,2,1,64,0,0
40292,-100,4,2,1,64,0,0
123672,-133.333333333333,4,2,2,51,0,0
135583,-200,4,2,2,64,0,0
137072,-100,4,2,1,64,0,0
148983,-100,4,2,1,64,0,1
172806,-100,4,2,1,64,0,0

[Colours]
Combo1 : 255,255,0
Combo2 : 89,0,179
Combo3 : 176,0,0
Combo4 : 0,174,174
Combo5 : 255,98,21

[HitObjects]
400,112,3627,53,2
472,152,3813,1,0
472,232,3999,1,0
400,272,4185,1,8
400,192,4371,2,0,B|240:224|304:80|168:112,1,264,4|8
96,152,5116,2,0,B|96:64,2,88
96,232,5674,2,0,B|96:320,1,88,8|4
169,272,6046,54,0,B|304:304|240:160|400:192,1,264,4|2
400,272,6791,1,0
472,232,6977,1,0
472,152,7163,1,8
400,112,7349,1,4
320,112,7535,2,0,B|256:192|320:272,1,176,4|8
256,320,8094,1,0
192,272,8280,1,0
216,192,8466,1,0
192,112,8652,1,8
256,64,8838,1,4
192,112,9024,38,0,B|104:120|72:192|104:264|192:272,1,264,4|2
216,192,9769,1,0
288,152,9955,1,0
360,120,10141,1,8
440,112,10327,2,0,B|504:192|440:272,1,176,4|2
360,264,10885,2,0,B|256:248,1,88,8|0
312,192,11258,2,0,B|400:192,1,88,0|2
360,120,11630,2,0,B|256:136,1,88,8|4
216,192,12002,22,0,B|168:220|136:164|88:192,2,132,4|2|0
272,136,12747,1,0
344,112,12933,1,0
413,74,13119,1,8
424,152,13305,1,4
424,232,13491,2,0,B|299:356,1,176,4|2
248,296,14049,1,0
176,264,14235,1,0
144,192,14422,1,0
176,120,14608,1,8
248,88,14794,1,4
299,27,14980,6,0,B|424:152,1,176,4|8
352,192,15538,1,0
424,232,15724,2,0,B|299:356,1,176,0|8
256,112,16469,2,0,B|184:112|116:192|184:272|256:272,1,264,4|2
272,192,17213,2,0,B|80:192,1,176,0|8
256,272,17958,38,0,B|328:272|396:192|328:112|256:112,1,264,4|2
184,152,18702,1,0
184,232,18888,1,0
112,192,19074,2,0,B|48:104,1,88,8|4
112,192,19447,2,0,B|48:280,2,88,4|0|8
184,152,20005,1,0
184,232,20191,1,0
256,192,20377,1,0
336,192,20563,1,10
336,192,20936,21,4
96,192,21494,1,0
144,128,21680,2,0,B|200:82|200:82|189:71|189:71|257:14,1,176,0|8
448,192,22425,2,0,B|184:192,1,264,4|0
144,256,23169,2,0,B|200:301|200:301|189:312|189:312|257:369,2,176,0|8|4
256,192,24100,12,4,26891
124,328,27636,38,0,B|388:328,1,263.999992132187,0|4
352,256,28566,21,0
304,192,28752,1,8
352,128,28939,1,0
344,48,29125,2,0,B|164:48,3,176,0|8|4|8
208,192,30614,1,0
124,328,30986,1,8
256,248,31358,54,0,B|360:224|336:96,1,176,4|8
173,114,32103,2,0,B|160:226|256:248,1,176,0|8
408,192,32847,5,4
368,264,33033,1,0
296,304,33219,1,8
216,304,33405,1,0
144,264,33591,1,4
104,192,33778,1,0
104,192,33964,1,8
240,112,34336,38,0,B|223:161|143:201|143:113|143:25|63:65|47:113,1,264,4|0
40,192,35080,1,0
72,264,35267,1,0
128,320,35453,1,8
208,328,35639,1,4
272,272,35825,2,0,B|289:223|369:183|369:271|369:359|449:319|465:271,1,264,4|0
472,192,36569,1,0
384,64,36942,1,8
152,112,37314,22,0,B|88:192|152:272,1,176,4|8
360,112,38058,2,0,B|424:192|360:272,1,176,0|8
256,60,38803,2,0,B|256:324,2,263.999992132187,4|2|4
184,88,40478,37,0
104,112,40664,1,8
96,192,40850,1,0
176,192,41036,1,0
336,192,41408,1,8
176,192,41781,2,0,B|176:120|256:52|336:120|336:192,1,264,4|0
256,176,42525,2,0,B|256:352,1,176,0|8
328,208,43270,6,0,B|404:133|318:36,1,176,4|8
181,50,44014,2,0,B|114:138|184:208,2,176,0|8|4
240,104,44945,5,0
272,176,45131,1,8
240,248,45317,1,0
272,320,45503,1,0
272,320,45875,1,8
388,192,46247,38,0,B|124:192,1,264,4|0
124,112,46992,1,2
56,152,47178,1,0
56,232,47364,1,8
124,272,47550,1,4
204,272,47736,2,0,B|276:272|344:192|276:112|204:112,1,264,4|0
212,192,48481,2,0,B|392:192,1,176,0|8
400,36,49225,21,4
256,104,49597,2,0,B|256:4,2,88,8|0|0
112,36,50342,1,8
256,176,50714,1,2
40,280,51459,38,0,B|40:184,1,88,4|0
112,316,51831,2,0,B|112:220,1,88,8|4
184,352,52203,1,4
256,192,62626,12,4,64114
360,312,64673,53,0
440,312,64859,2,0,B|428:210|328:196,1,176,0|8
256,160,65417,1,4
183,196,65603,2,0,B|83:210|72:312,1,176,4|8
152,312,66162,1,0
224,272,66348,2,0,B|204:336|256:368|308:336|288:272,1,176,0|8
256,200,66906,1,4
176,192,67092,22,0,B|176:120|256:52|336:120|336:192,1,264,4|0
256,200,67837,2,0,B|256:16,1,176,0|8
180,52,68395,1,4
124,108,68581,2,0,B|22:119|8:220,1,176,4|8
88,252,69140,2,0,B|184:292,1,88
256,308,69512,1,0
342,285,69698,2,0,B|424:252,1,88,8|4
336,192,70070,38,0,B|336:120|256:52|176:120|176:192,1,264,4|0
256,176,70815,2,0,B|256:352,1,176,0|8
256,352,71373,1,4
176,348,71559,2,0,B|75:333|64:232,1,176,4|8
132,192,72117,1,0
64,151,72304,2,0,B|75:50|176:36,1,176,0|8
256,32,72862,1,4
256,112,73048,22,0,B|336:112|382:192|336:272|256:272,1,264,4|0
272,192,73792,2,0,B|448:192,1,176,0|8
472,272,74351,1,4
432,344,74537,2,0,B|72:344,2,352,4|2|4
464,192,76398,37,8
392,232,76584,1,0
392,152,76770,2,0,B|391:50|294:22,1,176,2|8
216,24,77329,1,4
256,88,77515,2,0,B|159:116|158:217,1,176,4|8
152,296,78073,1,0
224,256,78259,2,0,B|252:352|353:353,1,176,2|8
432,352,78818,1,4
392,280,79004,22,0,B|472:272|501:192|472:112|392:104,1,264,4|0
400,192,79748,2,0,B|216:192,1,176,2|8
256,120,80307,1,4
336,104,80493,2,0,B|336:288,1,176,4|8
256,264,81051,1,0
216,192,81237,2,0,B|96:192,2,88,2|0|8
256,120,81795,1,4
256,40,81982,37,4
256,344,82540,1,0
256,264,82726,2,0,B|256:164|384:192,1,176,2|8
416,120,83284,1,4
336,112,83471,2,0,B|256:48|176:112,1,176,4|8
96,120,84029,1,0
129,191,84215,2,0,B|256:164|256:264,1,176,2|8
256,344,84773,1,4
336,352,84959,22,0,B|304:217|448:281|416:121,1,264,4|2
336,112,85704,2,0,B|256:48|176:112,1,176,2|8
96,120,86262,1,4
130,192,86448,1,4
256,192,86634,12,4,87937
256,192,98360,12,12,99849
352,112,100407,5,0
296,56,100593,1,2
216,56,100779,1,0
160,112,100965,1,8
136,192,101152,2,0,B|224:192|256:148|256:148|288:192|376:192,1,264,4|8
352,272,101896,1,0
280,248,102082,1,0
256,320,102268,1,0
232,248,102454,1,8
160,272,102640,1,4
80,280,102827,38,0,B|0:272|-29:192|0:112|80:104,1,264,4|0
144,152,103571,1,0
144,232,103757,1,0
216,192,103943,1,8
256,120,104129,1,4
336,112,104315,2,0,B|400:192|336:272,1,176,4|8
256,264,104874,1,0
216,192,105060,1,0
144,152,105246,1,0
144,232,105432,1,8
80,280,105618,1,4
48,192,105804,21,4
216,360,106363,1,0
296,360,106549,1,0
256,296,106735,1,0
256,216,106921,1,8
176,192,107107,2,0,B|176:120|256:52|336:120|336:192,1,264,4|8
400,240,107852,1,0
464,192,108038,1,0
400,144,108224,1,0
336,192,108410,1,8
256,192,108596,1,4
256,272,108782,38,0,B|96:240|160:384|24:352,1,264,4|2
64,280,109527,1,0
0,232,109713,1,0
0,152,109899,1,8
64,104,110085,1,4
144,104,110271,2,0,B|176:80|208:104|208:104|216:160|264:192|264:192|216:224|208:280|208:280|176:304|144:280,2,352,4|2|4
296,288,112318,21,0
364,248,112505,2,8,B|364:192|417:192|417:192|364:192|364:136,1,176,0|8
208,104,113249,2,0,B|157:54|52:62|43:166|94:217,1,264,4|0
168,192,113993,2,0,B|344:192,1,176,0|8
400,104,114738,38,0,B|432:80|464:104|464:104|472:160|520:192|520:192|472:224|464:280|464:280|432:304|400:280,1,352,4|2
328,248,115669,1,0
384,192,115855,1,8
328,136,116041,1,4
256,104,116227,2,0,B|256:288,1,176,4|8
184,248,116785,1,0
128,192,116971,1,0
184,136,117157,1,0
256,104,117344,1,8
256,104,117716,21,4
480,192,118274,1,0
400,192,118460,2,0,B|312:192|256:280,1,176,0|8
256,104,119205,2,0,B|172:235|40:235,1,264,4|0
40,156,119949,2,0,B|95:68|183:68,1,176,0|8
124,192,120694,38,0,B|388:192,1,264,4|0
388,272,121438,2,0,B|364:348|244:356,2,176,0|8|4
388,112,122555,2,0,B|364:36|244:28,2,176,8|0|8
476,192,123672,22,0,B|212:192,2,263.999992132187,4|0|2
200,264,125905,1,0
200,120,126277,1,8
320,112,126649,38,0,B|392:112|460:192|392:272|320:272,1,264,2|0
232,192,127766,1,8
132,124,128138,6,0,B|0:124,1,131.999996066094,2|8
0,260,128883,2,0,B|132:260,1,131.999996066094,0|8
232,192,129627,5,2
444,132,130372,2,0,B|492:192|444:252,1,131.999996066094,0|8
340,192,131116,2,0,B|76:192,1,263.999992132187,2|0
136,88,132233,1,8
256,96,132605,38,0,B|296:192|256:288,1,197.99999409914,2|0
184,276,133350,2,0,B|100:264|100:192,2,131.999996066094,0|8|2
328,276,134466,2,0,B|412:264|412:192,2,131.999996066094,8|0|8
256,368,135583,22,0,B|256:8,1,352,2|4
256,192,146005,12,4,147494
256,192,147680,12,4,148983
216,328,149542,5,0
296,328,149728,2,0,B|296:280|296:280|340:276|344:232|344:232|400:232,1,176,0|8
464,192,150286,1,4
397,152,150472,2,0,B|344:152|344:152|340:108|296:104|296:104|296:56,1,176,4|8
216,56,151031,1,0
168,120,151217,2,0,B|204:160|204:160|182:192|204:224|204:224|168:264,1,176,0|8
216,328,151775,1,4
284,272,151961,54,0,B|356:272|424:192|356:112|284:112,1,264,4|0
300,192,152706,2,0,B|124:192,1,176,0|8
92,264,153264,1,4
92,264,153450,2,0,B|52:244|32:192|52:140|92:120,1,176,4|8
124,192,154009,1,0
168,260,154195,1,0
212,192,154381,1,0
256,124,154567,1,8
300,192,154753,1,4
344,260,154939,6,0,B|432:272|476:192|432:112|344:124,1,264,4|0
300,192,155683,2,0,B|124:192,1,176,0|8
160,120,156242,1,4
236,104,156428,2,0,B|236:280,1,176,4|8
160,264,156986,1,0
124,192,157172,2,0,B|300:192,1,176,0|8
380,192,157731,1,4
368,112,157917,54,0,B|440:112|508:192|440:272|368:272,1,264,4|0
288,264,158661,2,0,B|248:244|228:192|248:140|288:120,1,176,0|8
208,92,159220,1,4
127,119,159406,2,0,B|167:139|187:191|167:243|127:263,1,176,4|8
96,192,159964,1,0
176,192,160150,1,0
336,192,160522,1,8
416,192,160709,1,4
384,260,160895,1,4
256,352,161267,5,8
196,304,161453,1,0
136,252,161639,2,0,B|132:176|196:152|256:192,1,176,0|8
296,124,162197,1,4
376,132,162384,2,0,B|380:208|316:232|256:192,1,176,4|8
216,124,162942,1,0
136,132,163128,2,0,B|132:208|196:232|256:192,1,176,0|8
256,112,163687,1,4
256,32,163873,53,4
424,192,164431,1,0
344,192,164617,2,0,B|164:192,1,176,0|8
88,192,165176,1,4
8,192,165362,1,4
124,300,165734,1,8
189,253,165920,1,0
255,207,166106,1,0
256,284,166292,1,0
321,237,166478,1,8
387,191,166664,1,4
320,148,166850,6,0,B|344:68|256:4|168:68|192:148,1,264,4|0
256,208,167595,2,0,B|257:21,1,176,0|8
180,52,168153,1,4
176,132,168340,1,4
336,132,168712,1,8
332,52,168898,1,0
256,32,169084,1,0
216,184,169456,1,8
296,184,169642,1,4
336,252,169828,54,0,B|336:324|256:392|176:324|176:252,1,264,4|0
256,268,170573,1,0
256,108,170945,2,0,B|256:20,2,88,8|4|4
256,192,171503,12,4,172806
