osu file format v12

[General]
AudioFilename: Surround Medical Melody.mp3
AudioLeadIn: 0
PreviewTime: 54310
Countdown: 0
SampleSet: Normal
StackLeniency: 0.7
Mode: 1
LetterboxInBreaks: 0
WidescreenStoryboard: 1

[Editor]
Bookmarks: 17343,42117,54310,76181,88568,100955,113149,135020,147407,165988,178375,188052,215536,227536
DistanceSpacing: 0.6
BeatDivisor: 4
GridSize: 16

[Metadata]
Title:Setsuna Plus
TitleUnicode:Setsuna Plus
Artist:Nayugorou
ArtistUnicode:なゆごろう
Creator:Haruka
Version:Oni
Source:
Tags:sweet_serenitee vocaloid mikitoP setsuna plus+ moment plus
BeatmapID:243268
BeatmapSetID:89506

[Difficulty]
HPDrainRate:6
CircleSize:5
OverallDifficulty:6
ApproachRate:5
SliderMultiplier:1.4
SliderTickRate:1

[Events]
//Background and Video events
0,0,"Moment Plus.jpg",0,252
//Break Periods
//Storyboard Layer 0 (Background)
//Storyboard Layer 1 (Fail)
//Storyboard Layer 2 (Pass)
//Storyboard Layer 3 (Foreground)
//Storyboard Sound Samples
//Background Colour Transformations
3,100,163,162,255

[TimingPoints]
4956,387.096774193548,4,1,0,90,1,0
54310,-100,4,1,0,90,0,1
75214,-100,4,1,0,90,0,0
113149,-100,4,1,0,90,0,1
134439,-100,4,1,0,60,0,0
147407,-100,4,1,0,90,0,0
177504,-105.263157894737,4,1,0,90,0,0
177794,-111.111111111111,4,1,0,90,0,0
177988,-117.647058823529,4,1,0,90,0,0
178181,-125,4,1,0,90,0,0
178375,-133.333333333333,4,1,0,60,0,0
184568,-125,4,1,0,90,0,0
186117,-117.647058823529,4,1,0,90,0,0
186504,-111.111111111111,4,1,0,90,0,0
186891,-105.263157894737,4,1,0,90,0,0
187278,-100,4,1,0,90,0,0
188052,-100,4,1,0,90,0,1
215536,-100,4,1,0,90,0,0

[Colours]
Combo1 : 251,60,98
Combo2 : 139,252,184

[HitObjects]
256,192,17343,1,4,0:0:0:0:
256,192,17730,1,8,0:0:0:0:
256,192,17923,1,0,0:0:0:0:
256,192,18020,1,0,0:0:0:0:
256,192,18117,1,0,0:0:0:0:
256,192,18310,1,0,0:0:0:0:
256,192,18504,1,8,0:0:0:0:
256,192,18891,1,0,0:0:0:0:
256,192,19278,1,8,0:0:0:0:
256,192,19472,1,0,0:0:0:0:
256,192,19568,1,8,0:0:0:0:
256,192,19665,1,0,0:0:0:0:
256,192,19859,1,0,0:0:0:0:
256,192,20052,1,8,0:0:0:0:
256,192,20246,1,0,0:0:0:0:
256,192,20439,1,0,0:0:0:0:
256,192,20826,1,8,0:0:0:0:
256,192,21020,1,0,0:0:0:0:
256,192,21117,1,0,0:0:0:0:
256,192,21214,1,0,0:0:0:0:
256,192,21407,1,0,0:0:0:0:
256,192,21601,1,8,0:0:0:0:
256,192,21988,1,0,0:0:0:0:
256,192,22375,1,8,0:0:0:0:
256,192,22568,1,0,0:0:0:0:
256,192,22665,1,8,0:0:0:0:
256,192,22762,1,0,0:0:0:0:
256,192,22955,1,0,0:0:0:0:
256,192,23149,1,8,0:0:0:0:
256,192,23343,1,8,0:0:0:0:
256,192,23536,1,4,0:0:0:0:
256,192,23923,1,8,0:0:0:0:
256,192,24310,1,0,0:0:0:0:
256,192,24504,1,0,0:0:0:0:
256,192,24697,1,8,0:0:0:0:
256,192,25085,1,0,0:0:0:0:
256,192,25472,1,8,0:0:0:0:
256,192,25762,1,8,0:0:0:0:
256,192,25859,1,0,0:0:0:0:
256,192,26052,1,0,0:0:0:0:
256,192,26246,1,8,0:0:0:0:
256,192,26633,1,0,0:0:0:0:
256,192,27020,1,8,0:0:0:0:
256,192,27407,1,0,0:0:0:0:
256,192,27601,1,0,0:0:0:0:
256,192,27794,1,8,0:0:0:0:
256,192,28181,1,0,0:0:0:0:
256,192,28568,1,8,0:0:0:0:
256,192,28859,1,8,0:0:0:0:
256,192,28955,1,0,0:0:0:0:
256,192,29052,1,8,0:0:0:0:
256,192,29149,1,0,0:0:0:0:
256,192,29343,1,12,0:0:0:0:
256,192,29730,1,4,0:0:0:0:
256,192,29923,1,0,0:0:0:0:
256,192,30117,1,8,0:0:0:0:
256,192,30310,1,0,0:0:0:0:
256,192,30407,1,0,0:0:0:0:
256,192,30504,1,0,0:0:0:0:
256,192,30697,1,0,0:0:0:0:
256,192,30891,1,8,0:0:0:0:
256,192,31278,1,0,0:0:0:0:
256,192,31472,1,0,0:0:0:0:
256,192,31568,1,0,0:0:0:0:
256,192,31665,1,8,0:0:0:0:
256,192,31859,1,0,0:0:0:0:
256,192,32246,1,0,0:0:0:0:
256,192,32439,1,8,0:0:0:0:
256,192,32826,1,0,0:0:0:0:
256,192,33020,1,0,0:0:0:0:
256,192,33214,1,8,0:0:0:0:
256,192,33407,1,0,0:0:0:0:
256,192,33504,1,0,0:0:0:0:
256,192,33601,1,0,0:0:0:0:
256,192,33794,1,0,0:0:0:0:
256,192,33988,1,8,0:0:0:0:
256,192,34375,1,0,0:0:0:0:
256,192,34568,1,0,0:0:0:0:
256,192,34665,1,0,0:0:0:0:
256,192,34762,1,8,0:0:0:0:
256,192,34955,1,0,0:0:0:0:
256,192,35343,1,0,0:0:0:0:
256,192,35536,1,8,0:0:0:0:
256,192,35730,1,8,0:0:0:0:
256,192,35923,1,4,0:0:0:0:
256,192,36310,1,8,0:0:0:0:
256,192,36697,1,0,0:0:0:0:
256,192,36891,1,0,0:0:0:0:
256,192,37085,1,8,0:0:0:0:
256,192,37472,1,0,0:0:0:0:
256,192,37859,1,8,0:0:0:0:
256,192,38149,1,8,0:0:0:0:
256,192,38246,1,0,0:0:0:0:
256,192,38439,1,0,0:0:0:0:
256,192,38633,1,8,0:0:0:0:
256,192,39020,1,0,0:0:0:0:
256,192,39407,1,8,0:0:0:0:
256,192,39794,1,0,0:0:0:0:
256,192,39988,1,0,0:0:0:0:
256,192,40181,1,8,0:0:0:0:
256,192,40568,1,0,0:0:0:0:
256,192,40955,1,8,0:0:0:0:
256,192,41149,1,8,0:0:0:0:
256,192,41246,1,8,0:0:0:0:
256,192,41343,1,0,0:0:0:0:
256,192,41439,1,8,0:0:0:0:
256,192,41536,1,0,0:0:0:0:
256,192,41730,1,12,0:0:0:0:
256,192,42117,5,4,0:0:0:0:
256,192,42310,1,0,0:0:0:0:
256,192,42504,1,8,0:0:0:0:
256,192,43085,1,0,0:0:0:0:
256,192,43278,1,8,0:0:0:0:
256,192,43665,1,0,0:0:0:0:
256,192,43859,1,0,0:0:0:0:
256,192,44052,1,8,0:0:0:0:
256,192,44633,1,0,0:0:0:0:
256,192,44826,1,8,0:0:0:0:
256,192,45214,1,4,0:0:0:0:
256,192,45601,1,8,0:0:0:0:
256,192,46181,1,0,0:0:0:0:
256,192,46375,1,8,0:0:0:0:
256,192,46568,1,8,0:0:0:0:
256,192,46762,1,0,0:0:0:0:
256,192,47149,1,8,0:0:0:0:
256,192,47730,1,0,0:0:0:0:
256,192,47923,1,8,0:0:0:0:
256,192,48310,1,4,0:0:0:0:
256,192,48504,1,0,0:0:0:0:
256,192,48697,1,8,0:0:0:0:
256,192,49085,1,8,0:0:0:0:
256,192,49278,1,0,0:0:0:0:
256,192,49472,1,8,0:0:0:0:
256,192,49859,1,4,0:0:0:0:
256,192,50052,1,0,0:0:0:0:
256,192,50246,1,8,0:0:0:0:
256,192,50633,1,8,0:0:0:0:
256,192,50826,1,0,0:0:0:0:
256,192,51020,1,8,0:0:0:0:
256,192,51214,1,8,0:0:0:0:
256,192,51407,1,4,0:0:0:0:
256,192,51794,1,8,0:0:0:0:
256,192,52181,1,8,0:0:0:0:
256,192,52568,1,8,0:0:0:0:
256,192,52955,1,0,0:0:0:0:
256,192,53149,1,8,0:0:0:0:
256,192,53343,1,0,0:0:0:0:
256,192,53536,1,0,0:0:0:0:
256,192,53633,1,0,0:0:0:0:
256,192,53730,1,8,0:0:0:0:
256,192,53923,1,0,0:0:0:0:
256,192,54117,1,8,0:0:0:0:
256,192,54310,5,4,0:0:0:0:
256,192,54697,1,0,0:0:0:0:
256,192,54891,1,8,0:0:0:0:
256,192,55085,1,8,0:0:0:0:
256,192,55181,1,0,0:0:0:0:
256,192,55278,1,0,0:0:0:0:
256,192,55375,1,8,0:0:0:0:
256,192,55472,1,0,0:0:0:0:
256,192,55665,1,8,0:0:0:0:
256,192,55859,1,0,0:0:0:0:
256,192,56246,1,0,0:0:0:0:
256,192,56439,1,8,0:0:0:0:
256,192,56633,1,8,0:0:0:0:
256,192,56730,1,8,0:0:0:0:
256,192,56826,1,0,0:0:0:0:
256,192,56923,1,8,0:0:0:0:
256,192,57020,1,0,0:0:0:0:
256,192,57214,1,8,0:0:0:0:
256,192,57407,1,4,0:0:0:0:
256,192,57794,1,0,0:0:0:0:
256,192,57988,1,8,0:0:0:0:
256,192,58181,1,8,0:0:0:0:
256,192,58278,1,0,0:0:0:0:
256,192,58375,1,0,0:0:0:0:
256,192,58472,1,8,0:0:0:0:
256,192,58568,1,0,0:0:0:0:
256,192,58762,1,8,0:0:0:0:
256,192,58955,1,0,0:0:0:0:
256,192,59343,1,0,0:0:0:0:
256,192,59536,1,8,0:0:0:0:
256,192,59730,1,8,0:0:0:0:
256,192,59826,1,8,0:0:0:0:
256,192,59923,1,0,0:0:0:0:
256,192,60020,1,8,0:0:0:0:
256,192,60117,1,0,0:0:0:0:
256,192,60310,1,8,0:0:0:0:
256,192,60504,1,4,0:0:0:0:
256,192,60891,1,0,0:0:0:0:
256,192,61085,1,8,0:0:0:0:
256,192,61278,1,8,0:0:0:0:
256,192,61375,1,8,0:0:0:0:
256,192,61472,1,0,0:0:0:0:
256,192,61665,1,0,0:0:0:0:
256,192,61859,1,12,0:0:0:0:
256,192,62052,1,0,0:0:0:0:
256,192,62439,1,0,0:0:0:0:
256,192,62633,1,8,0:0:0:0:
256,192,62826,1,8,0:0:0:0:
256,192,62923,1,8,0:0:0:0:
256,192,63020,1,0,0:0:0:0:
256,192,63214,1,0,0:0:0:0:
256,192,63407,1,8,0:0:0:0:
256,192,63601,1,4,0:0:0:0:
256,192,63988,1,0,0:0:0:0:
256,192,64181,1,8,0:0:0:0:
256,192,64568,1,0,0:0:0:0:
256,192,64762,1,0,0:0:0:0:
256,192,64955,1,8,0:0:0:0:
256,192,65149,1,4,0:0:0:0:
256,192,65536,1,0,0:0:0:0:
256,192,65730,1,8,0:0:0:0:
256,192,65923,1,0,0:0:0:0:
256,192,66117,1,0,0:0:0:0:
256,192,66214,1,8,0:0:0:0:
256,192,66310,1,0,0:0:0:0:
256,192,66407,1,0,0:0:0:0:
256,192,66504,1,8,0:0:0:0:
256,192,66697,1,4,0:0:0:0:
256,192,67085,1,0,0:0:0:0:
256,192,67278,1,8,0:0:0:0:
256,192,67472,1,8,0:0:0:0:
256,192,67568,1,0,0:0:0:0:
256,192,67665,1,0,0:0:0:0:
256,192,67762,1,8,0:0:0:0:
256,192,67859,1,0,0:0:0:0:
256,192,68052,1,8,0:0:0:0:
256,192,68246,1,0,0:0:0:0:
256,192,68633,1,0,0:0:0:0:
256,192,68826,1,8,0:0:0:0:
256,192,69020,1,8,0:0:0:0:
256,192,69117,1,8,0:0:0:0:
256,192,69214,1,0,0:0:0:0:
256,192,69310,1,8,0:0:0:0:
256,192,69407,1,0,0:0:0:0:
256,192,69601,1,8,0:0:0:0:
256,192,69794,1,4,0:0:0:0:
256,192,70181,1,0,0:0:0:0:
256,192,70375,1,8,0:0:0:0:
256,192,70568,1,8,0:0:0:0:
256,192,70665,1,0,0:0:0:0:
256,192,70762,1,0,0:0:0:0:
256,192,70859,1,8,0:0:0:0:
256,192,70955,1,0,0:0:0:0:
256,192,71149,1,8,0:0:0:0:
256,192,71343,1,0,0:0:0:0:
256,192,71730,1,0,0:0:0:0:
256,192,71923,1,8,0:0:0:0:
256,192,72117,1,8,0:0:0:0:
256,192,72214,1,8,0:0:0:0:
256,192,72310,1,0,0:0:0:0:
256,192,72407,1,8,0:0:0:0:
256,192,72504,1,0,0:0:0:0:
256,192,72697,1,8,0:0:0:0:
256,192,72891,1,4,0:0:0:0:
256,192,73278,1,0,0:0:0:0:
256,192,73472,1,8,0:0:0:0:
256,192,73665,1,8,0:0:0:0:
256,192,73762,1,8,0:0:0:0:
256,192,73859,1,0,0:0:0:0:
256,192,74052,1,0,0:0:0:0:
256,192,74246,1,8,0:0:0:0:
256,192,74439,1,0,0:0:0:0:
256,192,74826,1,0,0:0:0:0:
256,192,75020,1,8,0:0:0:0:
256,192,75214,1,0,0:0:0:0:
256,192,75601,1,8,0:0:0:0:
256,192,75988,1,8,0:0:0:0:
256,192,76181,5,4,0:0:0:0:
256,192,76375,1,0,0:0:0:0:
256,192,76568,1,8,0:0:0:0:
256,192,76762,1,0,0:0:0:0:
256,192,76859,1,0,0:0:0:0:
256,192,76956,1,0,0:0:0:0:
256,192,77149,1,0,0:0:0:0:
256,192,77343,1,8,0:0:0:0:
256,192,77730,1,0,0:0:0:0:
256,192,77923,1,0,0:0:0:0:
256,192,78020,1,0,0:0:0:0:
256,192,78117,1,8,0:0:0:0:
256,192,78310,1,0,0:0:0:0:
256,192,78697,1,0,0:0:0:0:
256,192,78891,1,8,0:0:0:0:
256,192,79278,1,0,0:0:0:0:
256,192,79472,1,0,0:0:0:0:
256,192,79665,1,8,0:0:0:0:
256,192,79859,1,0,0:0:0:0:
256,192,79956,1,0,0:0:0:0:
256,192,80052,1,0,0:0:0:0:
256,192,80246,1,0,0:0:0:0:
256,192,80439,1,8,0:0:0:0:
256,192,80826,1,0,0:0:0:0:
256,192,81020,1,0,0:0:0:0:
256,192,81117,1,0,0:0:0:0:
256,192,81214,1,8,0:0:0:0:
256,192,81407,1,0,0:0:0:0:
256,192,81794,1,0,0:0:0:0:
256,192,81988,1,8,0:0:0:0:
256,192,82181,1,8,0:0:0:0:
256,192,82278,1,8,0:0:0:0:
256,192,82375,1,0,0:0:0:0:
256,192,82568,1,0,0:0:0:0:
256,192,82762,1,8,0:0:0:0:
256,192,82956,1,0,0:0:0:0:
256,192,83052,1,0,0:0:0:0:
256,192,83149,1,0,0:0:0:0:
256,192,83343,1,0,0:0:0:0:
256,192,83536,1,8,0:0:0:0:
256,192,83923,1,0,0:0:0:0:
256,192,84117,1,0,0:0:0:0:
256,192,84214,1,0,0:0:0:0:
256,192,84310,1,8,0:0:0:0:
256,192,84504,1,0,0:0:0:0:
256,192,84891,1,0,0:0:0:0:
256,192,85085,1,8,0:0:0:0:
256,192,85278,1,0,0:0:0:0:
256,192,85375,1,8,0:0:0:0:
256,192,85472,1,0,0:0:0:0:
256,192,85665,1,0,0:0:0:0:
256,192,85859,1,8,0:0:0:0:
256,192,86052,1,0,0:0:0:0:
256,192,86149,1,0,0:0:0:0:
256,192,86246,1,0,0:0:0:0:
256,192,86439,1,0,0:0:0:0:
256,192,86633,1,8,0:0:0:0:
256,192,87020,1,0,0:0:0:0:
256,192,87214,1,0,0:0:0:0:
256,192,87310,1,0,0:0:0:0:
256,192,87407,1,8,0:0:0:0:
256,192,87601,1,0,0:0:0:0:
256,192,87988,1,0,0:0:0:0:
256,192,88181,1,8,0:0:0:0:
256,192,88375,1,8,0:0:0:0:
256,192,88568,5,4,0:0:0:0:
256,192,88956,1,8,0:0:0:0:
256,192,89343,1,0,0:0:0:0:
256,192,89536,1,0,0:0:0:0:
256,192,89730,1,8,0:0:0:0:
256,192,90117,1,0,0:0:0:0:
256,192,90310,1,0,0:0:0:0:
256,192,90504,1,8,0:0:0:0:
256,192,90697,1,0,0:0:0:0:
256,192,91085,1,0,0:0:0:0:
256,192,91278,1,8,0:0:0:0:
256,192,91665,1,0,0:0:0:0:
256,192,91859,1,0,0:0:0:0:
256,192,92052,1,8,0:0:0:0:
256,192,92439,1,0,0:0:0:0:
256,192,92633,1,0,0:0:0:0:
256,192,92826,1,8,0:0:0:0:
256,192,93020,1,0,0:0:0:0:
256,192,93407,1,0,0:0:0:0:
256,192,93601,1,8,0:0:0:0:
256,192,93794,1,0,0:0:0:0:
256,192,94181,1,0,0:0:0:0:
256,192,94375,1,12,0:0:0:0:
256,192,94762,1,4,0:0:0:0:
256,192,95149,1,8,0:0:0:0:
256,192,95536,1,0,0:0:0:0:
256,192,95730,1,0,0:0:0:0:
256,192,95923,1,8,0:0:0:0:
256,192,96310,1,0,0:0:0:0:
256,192,96504,1,0,0:0:0:0:
256,192,96697,1,8,0:0:0:0:
256,192,96891,1,0,0:0:0:0:
256,192,97278,1,0,0:0:0:0:
256,192,97472,1,8,0:0:0:0:
256,192,97859,1,0,0:0:0:0:
256,192,98052,1,0,0:0:0:0:
256,192,98246,1,8,0:0:0:0:
256,192,98633,1,0,0:0:0:0:
256,192,98826,1,0,0:0:0:0:
256,192,99020,1,8,0:0:0:0:
256,192,99214,1,0,0:0:0:0:
256,192,99407,1,0,0:0:0:0:
256,192,99794,1,0,0:0:0:0:
256,192,99988,1,8,0:0:0:0:
256,192,100181,1,0,0:0:0:0:
256,192,100568,1,12,0:0:0:0:
256,192,100956,5,4,0:0:0:0:
256,192,101149,1,0,0:0:0:0:
256,192,101343,1,8,0:0:0:0:
256,192,101923,1,0,0:0:0:0:
256,192,102117,1,8,0:0:0:0:
256,192,102504,1,0,0:0:0:0:
256,192,102697,1,0,0:0:0:0:
256,192,102891,1,8,0:0:0:0:
256,192,103472,1,0,0:0:0:0:
256,192,103665,1,8,0:0:0:0:
256,192,104052,1,4,0:0:0:0:
256,192,104439,1,8,0:0:0:0:
256,192,105020,1,0,0:0:0:0:
256,192,105214,1,8,0:0:0:0:
256,192,105407,1,8,0:0:0:0:
256,192,105601,1,0,0:0:0:0:
256,192,105988,1,8,0:0:0:0:
256,192,106568,1,0,0:0:0:0:
256,192,106762,1,8,0:0:0:0:
256,192,107149,1,4,0:0:0:0:
256,192,107343,1,0,0:0:0:0:
256,192,107536,1,8,0:0:0:0:
256,192,107923,1,8,0:0:0:0:
256,192,108117,1,0,0:0:0:0:
256,192,108310,1,8,0:0:0:0:
256,192,108697,1,4,0:0:0:0:
256,192,108891,1,0,0:0:0:0:
256,192,109085,1,8,0:0:0:0:
256,192,109472,1,8,0:0:0:0:
256,192,109665,1,0,0:0:0:0:
256,192,109859,1,8,0:0:0:0:
256,192,110052,1,8,0:0:0:0:
256,192,110246,1,4,0:0:0:0:
256,192,110826,1,0,0:0:0:0:
256,192,111020,1,8,0:0:0:0:
256,192,111214,1,8,0:0:0:0:
256,192,111601,1,0,0:0:0:0:
256,192,111794,1,0,0:0:0:0:
256,192,112181,1,12,0:0:0:0:
256,192,112568,1,0,0:0:0:0:
256,192,112665,1,8,0:0:0:0:
256,192,112762,1,0,0:0:0:0:
256,192,112859,1,0,0:0:0:0:
256,192,112956,1,8,0:0:0:0:
256,192,113149,5,4,0:0:0:0:
256,192,113536,1,0,0:0:0:0:
256,192,113730,1,8,0:0:0:0:
256,192,113923,1,8,0:0:0:0:
256,192,114020,1,0,0:0:0:0:
256,192,114117,1,0,0:0:0:0:
256,192,114214,1,8,0:0:0:0:
256,192,114310,1,0,0:0:0:0:
256,192,114504,1,8,0:0:0:0:
256,192,114697,1,0,0:0:0:0:
256,192,115085,1,0,0:0:0:0:
256,192,115278,1,8,0:0:0:0:
256,192,115472,1,8,0:0:0:0:
256,192,115568,1,8,0:0:0:0:
256,192,115665,1,0,0:0:0:0:
256,192,115762,1,8,0:0:0:0:
256,192,115859,1,0,0:0:0:0:
256,192,116052,1,8,0:0:0:0:
256,192,116246,1,4,0:0:0:0:
256,192,116633,1,0,0:0:0:0:
256,192,116826,1,8,0:0:0:0:
256,192,117020,1,8,0:0:0:0:
256,192,117117,1,0,0:0:0:0:
256,192,117214,1,0,0:0:0:0:
256,192,117310,1,8,0:0:0:0:
256,192,117407,1,0,0:0:0:0:
256,192,117601,1,8,0:0:0:0:
256,192,117794,1,0,0:0:0:0:
256,192,118181,1,0,0:0:0:0:
256,192,118375,1,8,0:0:0:0:
256,192,118568,1,8,0:0:0:0:
256,192,118665,1,8,0:0:0:0:
256,192,118762,1,0,0:0:0:0:
256,192,118859,1,8,0:0:0:0:
256,192,118956,1,0,0:0:0:0:
256,192,119149,1,8,0:0:0:0:
256,192,119343,1,4,0:0:0:0:
256,192,119730,1,0,0:0:0:0:
256,192,119923,1,8,0:0:0:0:
256,192,120117,1,8,0:0:0:0:
256,192,120214,1,8,0:0:0:0:
256,192,120310,1,0,0:0:0:0:
256,192,120504,1,0,0:0:0:0:
256,192,120697,1,12,0:0:0:0:
256,192,120891,1,0,0:0:0:0:
256,192,121278,1,0,0:0:0:0:
256,192,121472,1,8,0:0:0:0:
256,192,121665,1,8,0:0:0:0:
256,192,121762,1,8,0:0:0:0:
256,192,121859,1,0,0:0:0:0:
256,192,122052,1,0,0:0:0:0:
256,192,122246,1,8,0:0:0:0:
256,192,122439,1,4,0:0:0:0:
256,192,122826,1,0,0:0:0:0:
256,192,123020,1,8,0:0:0:0:
256,192,123407,1,0,0:0:0:0:
256,192,123601,1,0,0:0:0:0:
256,192,123794,1,8,0:0:0:0:
256,192,123988,1,4,0:0:0:0:
256,192,124375,1,0,0:0:0:0:
256,192,124568,1,8,0:0:0:0:
256,192,124762,1,0,0:0:0:0:
256,192,124956,1,0,0:0:0:0:
256,192,125052,1,8,0:0:0:0:
256,192,125149,1,0,0:0:0:0:
256,192,125246,1,0,0:0:0:0:
256,192,125343,1,8,0:0:0:0:
256,192,125536,1,4,0:0:0:0:
256,192,125923,1,0,0:0:0:0:
256,192,126117,1,8,0:0:0:0:
256,192,126310,1,8,0:0:0:0:
256,192,126407,1,0,0:0:0:0:
256,192,126504,1,0,0:0:0:0:
256,192,126601,1,8,0:0:0:0:
256,192,126697,1,0,0:0:0:0:
256,192,126891,1,8,0:0:0:0:
256,192,127085,1,0,0:0:0:0:
256,192,127472,1,0,0:0:0:0:
256,192,127665,1,8,0:0:0:0:
256,192,127859,1,8,0:0:0:0:
256,192,127956,1,8,0:0:0:0:
256,192,128052,1,0,0:0:0:0:
256,192,128149,1,8,0:0:0:0:
256,192,128246,1,0,0:0:0:0:
256,192,128439,1,8,0:0:0:0:
256,192,128633,1,4,0:0:0:0:
256,192,129020,1,0,0:0:0:0:
256,192,129214,1,8,0:0:0:0:
256,192,129407,1,8,0:0:0:0:
256,192,129504,1,0,0:0:0:0:
256,192,129601,1,0,0:0:0:0:
256,192,129697,1,8,0:0:0:0:
256,192,129794,1,0,0:0:0:0:
256,192,129988,1,8,0:0:0:0:
256,192,130181,1,0,0:0:0:0:
256,192,130568,1,0,0:0:0:0:
256,192,130762,1,8,0:0:0:0:
256,192,130956,1,8,0:0:0:0:
256,192,131052,1,8,0:0:0:0:
256,192,131149,1,0,0:0:0:0:
256,192,131246,1,8,0:0:0:0:
256,192,131343,1,0,0:0:0:0:
256,192,131536,1,8,0:0:0:0:
256,192,131730,1,4,0:0:0:0:
256,192,132117,1,0,0:0:0:0:
256,192,132310,1,8,0:0:0:0:
256,192,132504,1,8,0:0:0:0:
256,192,132601,1,8,0:0:0:0:
256,192,132697,1,0,0:0:0:0:
256,192,132891,1,0,0:0:0:0:
256,192,133085,1,8,0:0:0:0:
256,192,133278,1,0,0:0:0:0:
256,192,133665,1,0,0:0:0:0:
256,192,133859,1,8,0:0:0:0:
256,192,134052,1,0,0:0:0:0:
256,192,134439,1,0,0:0:0:0:
256,192,135407,5,8,0:0:0:0:
256,192,135988,1,8,0:0:0:0:
256,192,136568,1,8,0:0:0:0:
256,192,137536,1,8,0:0:0:0:
256,192,137923,1,0,0:0:0:0:
256,192,138117,1,8,0:0:0:0:
256,192,139665,1,8,0:0:0:0:
256,192,140246,1,8,0:0:0:0:
256,192,140633,1,8,0:0:0:0:
256,192,141020,1,0,0:0:0:0:
256,192,141214,1,8,0:0:0:0:
256,192,142568,1,8,0:0:0:0:
256,192,142956,1,0,0:0:0:0:
256,192,143149,1,8,0:0:0:0:
256,192,143536,1,8,0:0:0:0:
256,192,143794,1,8,0:0:0:0:
256,192,144052,1,8,0:0:0:0:
256,192,144310,1,8,0:0:0:0:
256,192,145665,1,8,0:0:0:0:
256,192,146052,1,0,0:0:0:0:
256,192,146246,1,8,0:0:0:0:
256,192,146439,1,0,0:0:0:0:
256,192,146633,1,8,0:0:0:0:
256,192,146826,1,0,0:0:0:0:
256,192,147020,1,8,0:0:0:0:
256,192,147214,1,8,0:0:0:0:
256,192,147407,5,4,0:0:0:0:
256,192,147794,1,0,0:0:0:0:
256,192,148181,1,8,0:0:0:0:
256,192,148472,1,8,0:0:0:0:
256,192,148568,1,0,0:0:0:0:
256,192,148762,1,8,0:0:0:0:
256,192,149149,1,8,0:0:0:0:
256,192,149343,1,0,0:0:0:0:
256,192,149730,1,8,0:0:0:0:
256,192,150117,1,0,0:0:0:0:
256,192,150504,1,0,0:0:0:0:
256,192,150697,1,8,0:0:0:0:
256,192,150891,1,0,0:0:0:0:
256,192,151278,1,8,0:0:0:0:
256,192,151568,1,8,0:0:0:0:
256,192,151665,1,0,0:0:0:0:
256,192,151859,1,8,0:0:0:0:
256,192,152246,1,8,0:0:0:0:
256,192,152439,1,0,0:0:0:0:
256,192,152826,1,8,0:0:0:0:
256,192,153214,1,0,0:0:0:0:
256,192,153407,1,8,0:0:0:0:
256,192,153601,1,4,0:0:0:0:
256,192,153988,1,0,0:0:0:0:
256,192,154375,1,8,0:0:0:0:
256,192,154665,1,8,0:0:0:0:
256,192,154762,1,0,0:0:0:0:
256,192,154956,1,8,0:0:0:0:
256,192,155343,1,8,0:0:0:0:
256,192,155536,1,0,0:0:0:0:
256,192,155923,1,8,0:0:0:0:
256,192,156310,1,0,0:0:0:0:
256,192,156697,1,0,0:0:0:0:
256,192,156891,1,8,0:0:0:0:
256,192,157085,1,0,0:0:0:0:
256,192,157472,1,8,0:0:0:0:
256,192,157762,1,8,0:0:0:0:
256,192,157859,1,0,0:0:0:0:
256,192,158052,1,8,0:0:0:0:
256,192,158439,1,8,0:0:0:0:
256,192,158633,1,0,0:0:0:0:
256,192,159020,1,8,0:0:0:0:
256,192,159407,1,0,0:0:0:0:
256,192,159794,1,4,0:0:0:0:
256,192,160181,1,0,0:0:0:0:
256,192,160568,1,8,0:0:0:0:
256,192,160859,1,8,0:0:0:0:
256,192,160956,1,0,0:0:0:0:
256,192,161149,1,8,0:0:0:0:
256,192,161536,1,8,0:0:0:0:
256,192,161730,1,0,0:0:0:0:
256,192,162117,1,8,0:0:0:0:
256,192,162504,1,0,0:0:0:0:
256,192,162891,1,4,0:0:0:0:
256,192,163085,1,8,0:0:0:0:
256,192,163278,1,0,0:0:0:0:
256,192,163665,1,8,0:0:0:0:
256,192,163956,1,8,0:0:0:0:
256,192,164052,1,0,0:0:0:0:
256,192,164246,1,8,0:0:0:0:
256,192,164439,1,0,0:0:0:0:
256,192,164633,1,8,0:0:0:0:
256,192,164826,1,0,0:0:0:0:
256,192,165214,1,12,0:0:0:0:
256,192,165601,1,0,0:0:0:0:
256,192,165988,5,4,0:0:0:0:
256,192,166375,1,0,0:0:0:0:
256,192,166762,1,8,0:0:0:0:
256,192,167052,1,8,0:0:0:0:
256,192,167149,1,0,0:0:0:0:
256,192,167343,1,8,0:0:0:0:
256,192,167536,1,0,0:0:0:0:
256,192,167730,1,8,0:0:0:0:
256,192,167923,1,0,0:0:0:0:
256,192,168310,1,8,0:0:0:0:
256,192,168504,1,8,0:0:0:0:
256,192,168601,1,0,0:0:0:0:
256,192,168697,1,0,0:0:0:0:
256,192,168794,1,8,0:0:0:0:
256,192,168891,1,0,0:0:0:0:
256,192,169085,1,4,0:0:0:0:
256,192,169278,1,8,0:0:0:0:
256,192,169472,1,0,0:0:0:0:
256,192,169859,1,8,0:0:0:0:
256,192,170149,1,8,0:0:0:0:
256,192,170246,1,0,0:0:0:0:
256,192,170439,1,8,0:0:0:0:
256,192,170633,1,0,0:0:0:0:
256,192,170826,1,8,0:0:0:0:
256,192,171020,1,0,0:0:0:0:
256,192,171407,1,8,0:0:0:0:
256,192,171601,1,0,0:0:0:0:
256,192,171697,1,8,0:0:0:0:
256,192,171794,1,0,0:0:0:0:
256,192,171891,1,0,0:0:0:0:
256,192,171988,1,8,0:0:0:0:
256,192,172181,1,4,0:0:0:0:
256,192,172568,1,0,0:0:0:0:
256,192,172956,1,8,0:0:0:0:
256,192,173246,1,8,0:0:0:0:
256,192,173343,1,0,0:0:0:0:
256,192,173536,1,8,0:0:0:0:
256,192,173730,1,0,0:0:0:0:
256,192,173923,1,8,0:0:0:0:
256,192,174117,1,0,0:0:0:0:
256,192,174504,1,8,0:0:0:0:
256,192,174697,1,8,0:0:0:0:
256,192,174794,1,0,0:0:0:0:
256,192,174891,1,0,0:0:0:0:
256,192,174988,1,8,0:0:0:0:
256,192,175085,1,0,0:0:0:0:
256,192,175278,1,4,0:0:0:0:
256,192,175472,1,8,0:0:0:0:
256,192,175665,1,0,0:0:0:0:
256,192,176052,1,8,0:0:0:0:
256,192,176343,1,8,0:0:0:0:
256,192,176439,1,0,0:0:0:0:
256,192,176633,1,8,0:0:0:0:
256,192,176826,1,0,0:0:0:0:
256,192,177020,1,8,0:0:0:0:
256,192,177214,1,0,0:0:0:0:
256,192,177504,1,8,0:0:0:0:
256,192,177601,1,0,0:0:0:0:
256,192,177794,1,8,0:0:0:0:
256,192,177988,1,0,0:0:0:0:
256,192,178181,1,0,0:0:0:0:
256,192,178375,5,4,0:0:0:0:
256,192,178568,1,8,0:0:0:0:
256,192,178762,1,0,0:0:0:0:
256,192,178956,1,8,0:0:0:0:
256,192,179149,1,0,0:0:0:0:
256,192,179536,1,8,0:0:0:0:
256,192,179730,1,8,0:0:0:0:
256,192,179923,1,0,0:0:0:0:
256,192,180310,1,8,0:0:0:0:
256,192,180697,1,8,0:0:0:0:
256,192,181278,1,0,0:0:0:0:
256,192,181665,1,0,0:0:0:0:
256,192,181859,1,8,0:0:0:0:
256,192,182052,1,0,0:0:0:0:
256,192,182246,1,8,0:0:0:0:
256,192,182439,1,8,0:0:0:0:
256,192,182633,1,0,0:0:0:0:
256,192,182826,1,8,0:0:0:0:
256,192,183020,1,0,0:0:0:0:
256,192,183407,1,8,0:0:0:0:
256,192,183794,1,0,0:0:0:0:
256,192,184375,1,8,0:0:0:0:
256,192,184568,1,4,0:0:0:0:
256,192,184956,1,8,0:0:0:0:
256,192,185343,1,8,0:0:0:0:
256,192,185730,1,8,0:0:0:0:
256,192,186117,1,4,0:0:0:0:
256,192,186504,1,8,0:0:0:0:
256,192,186697,1,0,0:0:0:0:
256,192,186891,1,8,0:0:0:0:
256,192,187085,1,0,0:0:0:0:
256,192,187278,1,8,0:0:0:0:
256,192,187472,1,8,0:0:0:0:
256,192,187568,1,0,0:0:0:0:
256,192,187665,1,0,0:0:0:0:
256,192,187859,1,0,0:0:0:0:
256,192,188052,5,12,0:0:0:0:
256,192,188439,1,0,0:0:0:0:
256,192,188633,1,0,0:0:0:0:
256,192,188730,1,0,0:0:0:0:
256,192,188826,1,8,0:0:0:0:
256,192,189020,1,4,0:0:0:0:
256,192,189407,1,0,0:0:0:0:
256,192,189601,1,8,0:0:0:0:
256,192,189794,1,8,0:0:0:0:
256,192,189891,1,8,0:0:0:0:
256,192,189988,1,0,0:0:0:0:
256,192,190181,1,0,0:0:0:0:
256,192,190375,1,8,0:0:0:0:
256,192,190568,1,0,0:0:0:0:
256,192,190956,1,0,0:0:0:0:
256,192,191149,1,8,0:0:0:0:
256,192,191343,1,8,0:0:0:0:
256,192,191439,1,0,0:0:0:0:
256,192,191536,1,0,0:0:0:0:
256,192,191730,1,0,0:0:0:0:
256,192,191923,1,8,0:0:0:0:
256,192,192117,1,0,0:0:0:0:
256,192,192504,1,0,0:0:0:0:
256,192,192697,1,8,0:0:0:0:
256,192,192891,1,8,0:0:0:0:
256,192,192988,1,8,0:0:0:0:
256,192,193085,1,0,0:0:0:0:
256,192,193278,1,0,0:0:0:0:
256,192,193472,1,8,0:0:0:0:
256,192,193665,1,4,0:0:0:0:
256,192,194052,1,0,0:0:0:0:
256,192,194246,1,8,0:0:0:0:
256,192,194439,1,8,0:0:0:0:
256,192,194536,1,0,0:0:0:0:
256,192,194633,1,0,0:0:0:0:
256,192,194730,1,8,0:0:0:0:
256,192,194826,1,0,0:0:0:0:
256,192,195020,1,8,0:0:0:0:
256,192,195214,1,0,0:0:0:0:
256,192,195601,1,0,0:0:0:0:
256,192,195794,1,8,0:0:0:0:
256,192,195988,1,8,0:0:0:0:
256,192,196085,1,8,0:0:0:0:
256,192,196181,1,0,0:0:0:0:
256,192,196278,1,8,0:0:0:0:
256,192,196375,1,0,0:0:0:0:
256,192,196568,1,8,0:0:0:0:
256,192,196762,1,4,0:0:0:0:
256,192,197149,1,0,0:0:0:0:
256,192,197343,1,8,0:0:0:0:
256,192,197730,1,0,0:0:0:0:
256,192,197923,1,0,0:0:0:0:
256,192,198117,1,8,0:0:0:0:
256,192,198310,1,0,0:0:0:0:
256,192,198697,1,0,0:0:0:0:
256,192,198891,1,12,0:0:0:0:
256,192,199085,1,0,0:0:0:0:
256,192,199278,1,0,0:0:0:0:
256,192,199375,1,8,0:0:0:0:
256,192,199472,1,0,0:0:0:0:
256,192,199568,1,0,0:0:0:0:
256,192,199665,1,8,0:0:0:0:
256,192,199859,1,4,0:0:0:0:
256,192,200246,1,0,0:0:0:0:
256,192,200439,1,8,0:0:0:0:
256,192,200633,1,8,0:0:0:0:
256,192,200730,1,0,0:0:0:0:
256,192,200826,1,0,0:0:0:0:
256,192,201020,1,0,0:0:0:0:
256,192,201214,1,8,0:0:0:0:
256,192,201407,1,0,0:0:0:0:
256,192,201504,1,0,0:0:0:0:
256,192,201601,1,0,0:0:0:0:
256,192,201794,1,0,0:0:0:0:
256,192,201988,1,8,0:0:0:0:
256,192,202181,1,8,0:0:0:0:
256,192,202278,1,8,0:0:0:0:
256,192,202375,1,0,0:0:0:0:
256,192,202568,1,0,0:0:0:0:
256,192,202762,1,8,0:0:0:0:
256,192,202956,1,4,0:0:0:0:
256,192,203343,1,0,0:0:0:0:
256,192,203536,1,8,0:0:0:0:
256,192,203730,1,8,0:0:0:0:
256,192,203826,1,0,0:0:0:0:
256,192,203923,1,0,0:0:0:0:
256,192,204117,1,0,0:0:0:0:
256,192,204310,1,8,0:0:0:0:
256,192,204504,1,0,0:0:0:0:
256,192,204601,1,0,0:0:0:0:
256,192,204697,1,0,0:0:0:0:
256,192,204891,1,0,0:0:0:0:
256,192,205085,1,8,0:0:0:0:
256,192,205278,1,8,0:0:0:0:
256,192,205375,1,8,0:0:0:0:
256,192,205472,1,0,0:0:0:0:
256,192,205665,1,0,0:0:0:0:
256,192,205859,1,8,0:0:0:0:
256,192,206052,1,4,0:0:0:0:
256,192,206439,1,0,0:0:0:0:
256,192,206633,1,8,0:0:0:0:
256,192,206826,1,8,0:0:0:0:
256,192,206923,1,0,0:0:0:0:
256,192,207020,1,0,0:0:0:0:
256,192,207214,1,0,0:0:0:0:
256,192,207407,1,8,0:0:0:0:
256,192,207794,1,0,0:0:0:0:
256,192,208181,1,8,0:0:0:0:
256,192,208375,1,0,0:0:0:0:
256,192,208472,1,0,0:0:0:0:
256,192,208568,1,0,0:0:0:0:
256,192,208762,1,0,0:0:0:0:
256,192,208955,1,12,0:0:0:0:
256,192,209149,1,4,0:0:0:0:
256,192,209536,1,0,0:0:0:0:
256,192,209730,1,8,0:0:0:0:
256,192,209923,1,8,0:0:0:0:
256,192,210020,1,0,0:0:0:0:
256,192,210117,1,0,0:0:0:0:
256,192,210310,1,0,0:0:0:0:
256,192,210504,1,8,0:0:0:0:
256,192,210891,1,8,0:0:0:0:
256,192,211085,1,0,0:0:0:0:
256,192,211278,1,8,0:0:0:0:
256,192,211472,1,0,0:0:0:0:
256,192,211568,1,0,0:0:0:0:
256,192,211665,1,8,0:0:0:0:
256,192,211859,1,8,0:0:0:0:
256,192,212052,1,8,0:0:0:0:
256,192,212439,1,4,0:0:0:0:
256,192,212826,1,0,0:0:0:0:
256,192,213020,1,8,0:0:0:0:
256,192,213214,1,8,0:0:0:0:
256,192,213407,1,8,0:0:0:0:
256,192,213601,1,8,0:0:0:0:
256,192,213794,1,8,0:0:0:0:
256,192,213988,1,0,0:0:0:0:
256,192,214181,1,8,0:0:0:0:
256,192,214375,1,0,0:0:0:0:
256,192,214472,1,8,0:0:0:0:
256,192,214665,1,0,0:0:0:0:
256,192,214762,1,8,0:0:0:0:
256,192,214859,1,8,0:0:0:0:
256,192,214956,1,0,0:0:0:0:
256,192,215052,1,0,0:0:0:0:
256,192,215149,1,8,0:0:0:0:
256,192,215246,1,8,0:0:0:0:
256,192,215343,1,0,0:0:0:0:
256,192,215536,5,4,0:0:0:0:
256,192,215730,1,0,0:0:0:0:
256,192,215923,1,8,0:0:0:0:
256,192,216117,1,0,0:0:0:0:
256,192,216214,1,0,0:0:0:0:
256,192,216310,1,0,0:0:0:0:
256,192,216504,1,0,0:0:0:0:
256,192,216697,1,8,0:0:0:0:
256,192,217085,1,0,0:0:0:0:
256,192,217278,1,0,0:0:0:0:
256,192,217375,1,0,0:0:0:0:
256,192,217472,1,8,0:0:0:0:
256,192,217665,1,0,0:0:0:0:
256,192,218052,1,0,0:0:0:0:
256,192,218246,1,8,0:0:0:0:
256,192,218633,1,0,0:0:0:0:
256,192,218826,1,0,0:0:0:0:
256,192,219020,1,8,0:0:0:0:
256,192,219214,1,0,0:0:0:0:
256,192,219310,1,0,0:0:0:0:
256,192,219407,1,0,0:0:0:0:
256,192,219601,1,0,0:0:0:0:
256,192,219794,1,8,0:0:0:0:
256,192,220181,1,0,0:0:0:0:
256,192,220375,1,0,0:0:0:0:
256,192,220472,1,0,0:0:0:0:
256,192,220568,1,8,0:0:0:0:
256,192,220762,1,0,0:0:0:0:
256,192,221149,1,0,0:0:0:0:
256,192,221343,1,8,0:0:0:0:
256,192,221536,1,8,0:0:0:0:
256,192,221730,1,4,0:0:0:0:
256,192,222117,1,8,0:0:0:0:
256,192,222504,1,0,0:0:0:0:
256,192,222697,1,0,0:0:0:0:
256,192,222891,1,8,0:0:0:0:
256,192,223278,1,0,0:0:0:0:
256,192,223665,1,8,0:0:0:0:
256,192,223956,1,8,0:0:0:0:
256,192,224052,1,0,0:0:0:0:
256,192,224246,1,0,0:0:0:0:
256,192,224439,1,8,0:0:0:0:
256,192,224826,1,0,0:0:0:0:
256,192,225214,1,8,0:0:0:0:
256,192,225601,1,0,0:0:0:0:
256,192,225794,1,0,0:0:0:0:
256,192,225988,1,8,0:0:0:0:
256,192,226375,1,0,0:0:0:0:
256,192,226762,1,8,0:0:0:0:
256,192,227052,1,8,0:0:0:0:
256,192,227149,1,0,0:0:0:0:
256,192,227246,1,8,0:0:0:0:
256,192,227343,1,0,0:0:0:0:
256,192,227536,1,12,0:0:0:0:
256,192,227730,1,0,0:0:0:0:
